osu file format v5

[General]
AudioFilename: The Legendary Theme.ogg
AudioLeadIn: 0
PreviewTime: -1
Countdown: 1
SampleSet: Normal
StackLeniency: 0.7
Mode: 0
LetterboxInBreaks: 1

[Metadata]
Title:The Legendary Theme
Artist:COIL
Creator:Vytaan
Version:Hard
Source:Gitaroo Man
Tags:gitaroo man final stage chihiro harada

[Difficulty]
HPDrainRate:7
CircleSize:6
OverallDifficulty:7
SliderMultiplier:0.999999999999999
SliderTickRate:2

[Events]
//Background and Video events
//Break Periods
2,76251,80776
2,123629,128151
//Storyboard Layer 0 (Background)
//Storyboard Layer 1 (Failing)
//Storyboard Layer 2 (Passing)
//Storyboard Layer 3 (Foreground)
//Storyboard Sound Samples
//Background Colour Transformations
3,100,163,162,255

[TimingPoints]
1880,747.567257305147,4,1,0,100,1
16800,740.646199999999,4,1,0,100,1
81976,740.446199999999,4,1,0,100,1

[HitObjects]
256,320,16800,1,0
176,256,17170,1,0
336,256,17540,1,0
256,192,17910,1,0
256,48,18651,1,0
448,96,19392,2,0,B|256:304|32:80,1,450
52,184,23095,5,0
144,288,23465,1,0
48,288,23836,1,0
320,288,24576,1,0
416,288,25317,2,4,B|482:103|414:143|432:80|384:0|208:160|288:240,1,450,0|4
96,128,29020,5,0
96,128,29205,1,0
192,48,29390,1,0
96,48,29761,1,0
256,192,30501,1,0
256,192,30687,1,0
256,192,30872,1,0
384,64,31242,2,0,B|384:224,3,150,0|8|8|8
352,288,34945,5,0
288,320,35316,1,0
224,352,35686,1,0
96,352,36056,1,0
96,352,36241,1,0
96,352,36427,1,0
96,352,36612,1,0
96,352,36797,1,0
96,256,37167,2,0,B|96:96|96:64,3,150,0|8|8|8
160,64,40871,5,0
160,64,41056,1,0
224,32,41241,1,0
288,32,41611,1,0
288,32,41796,1,0
288,32,41981,1,0
384,64,42352,1,0
448,128,43092,2,0,B|448:288|384:288|416:288,1,150
352,320,44574,1,0
352,320,44759,1,0
352,320,44944,1,0
256,320,45314,1,0
160,320,45685,1,0
64,320,46055,1,0
64,224,46796,2,0,B|224:224,1,150
288,224,48277,5,0
320,192,48462,1,0
352,160,48647,1,0
384,128,48832,1,0
416,96,49018,1,0
448,64,49203,1,0
416,32,49388,1,0
352,32,49758,2,0,B|192:32|160:32,2,150,0|8|0
416,32,52351,5,0
464,112,52721,1,0
480,160,52906,1,0
448,192,53091,1,0
416,288,53461,1,0
416,288,53647,1,0
256,344,54202,1,0
256,288,54387,1,0
200,288,54572,1,0
200,344,54758,1,0
144,344,54943,2,0,B|144:216,4,99.9999999999999,0|2|2|2|0
208,344,58276,5,0
280,344,58646,1,0
352,344,59016,1,0
424,288,59387,1,0
448,200,59942,1,0
448,192,60127,1,0
448,128,60312,1,0
448,128,60405,1,0
448,128,60498,1,0
448,128,60590,1,0
448,128,60683,1,0
448,128,60775,1,0
448,128,60868,1,0
448,48,61238,5,0
368,48,61609,1,0
368,48,61794,1,0
288,48,62164,1,0
288,48,62349,1,0
208,48,62720,1,0
208,48,62905,1,0
128,48,63275,1,0
128,48,63460,1,0
128,48,63553,1,0
128,48,63645,1,0
128,48,63738,1,0
128,48,63831,1,0
48,48,64201,1,0
352,48,64942,5,0
280,48,65127,1,0
208,48,65312,1,0
64,80,66052,1,0
48,192,66793,1,0
48,240,66978,2,0,B|80:288|144:288|224:304|320:288,1,275
384,288,69385,1,0
448,224,69756,1,0
448,176,69941,1,0
400,176,70126,1,0
400,224,70311,1,0
448,128,70496,2,0,B|288:128,1,150
224,128,71978,5,0
136,160,72348,1,0
88,160,72533,1,0
88,208,72718,1,0
40,208,72903,1,0
40,160,73089,1,0
256,192,73459,12,4,76051
40,352,81976,6,0,B|48:152,1,99.9999999999999
56,184,83827,1,0
112,128,84197,1,0
184,128,84567,2,0,B|184:168,1,25,8|0
184,256,85122,2,0,B|224:256,1,25,8|0
264,216,85678,2,0,B|264:184,1,25,8|0
264,128,86233,2,0,B|304:128,1,25,8|0
272,208,86788,5,0
192,208,87159,1,0
112,208,87529,1,0
72,192,87714,1,0
48,160,87899,2,0,B|48:96,1,50
112,80,88640,1,0
112,80,88825,1,0
192,80,89010,2,0,B|256:80,1,50
320,80,89750,1,0
400,80,90120,1,0
440,80,90306,1,0
480,80,90491,1,0
480,120,90676,2,0,B|480:184,1,125
400,240,91972,5,0
400,240,92157,1,0
400,240,92342,1,0
288,240,92712,1,0
248,240,92897,1,0
208,240,93082,1,0
80,240,93823,2,0,B|80:176,1,50
80,128,94563,1,0
128,128,94748,1,0
176,128,94933,1,0
432,128,95674,2,0,B|432:0,4,99.9999999999999,0|8|8|8|8
352,128,99006,1,8
256,128,99376,1,8
256,128,99469,1,8
256,128,99561,1,8
256,128,99654,1,8
256,128,99746,1,8
160,128,100116,5,0
160,208,100487,1,0
160,288,100857,1,0
352,288,101597,1,0
352,208,102338,2,0,B|352:144,1,50
352,80,103078,1,0
400,80,103263,1,0
448,80,103448,1,0
256,80,104004,1,0
304,80,104189,1,0
160,80,104559,1,0
208,80,104744,1,0
64,80,105114,1,0
112,80,105300,1,0
160,80,105485,1,0
64,176,105670,1,4
64,288,106040,5,0
160,288,106410,1,0
256,288,106780,1,0
448,288,107521,1,0
448,192,108261,1,0
320,192,109002,1,0
320,192,109187,1,0
320,128,110112,1,0
256,128,110298,1,0
256,160,110390,1,0
256,192,110483,1,0
192,192,110668,1,0
192,160,110760,1,0
192,128,110853,1,0
128,128,111038,1,0
128,160,111131,1,0
128,192,111223,1,0
64,192,111408,1,0
64,160,111501,1,0
64,128,111593,1,0
64,64,111964,5,0
192,64,112334,1,0
320,64,112704,1,0
448,64,113444,1,0
448,192,114185,1,0
384,192,114370,2,0,B|256:192,1,125
192,192,115666,1,0
192,192,115851,1,0
192,192,116036,1,0
192,288,116406,1,0
320,288,116776,1,0
448,288,117147,1,0
448,192,117887,2,0,B|448:80,1,99.9999999999999
368,64,118998,5,0
256,64,119368,1,0
256,64,119461,1,0
256,64,119553,1,0
256,64,119738,1,0
32,64,120108,1,0
256,192,121219,12,4,123439
448,320,129364,6,0,B|240:320,1,200
176,320,131215,1,0
136,320,131400,1,0
96,320,131585,1,0
96,280,131771,1,0
96,240,131956,1,0
96,160,132696,1,8
96,160,132881,1,8
96,160,133066,1,8
416,160,134177,1,0
416,160,134362,1,0
416,160,134547,1,0
416,160,134917,1,0
416,288,135288,6,0,B|272:288,1,99.9999999999999
256,288,136213,1,0
192,288,136398,2,0,B|80:288,1,99.9999999999999
32,288,137509,1,0
32,208,137879,1,0
72,176,138064,1,0
112,144,138249,1,0
256,80,138990,1,0
320,80,139360,1,0
480,144,140101,1,0
480,200,140286,1,0
480,256,140471,1,0
400,336,140841,1,0
344,336,141026,1,0
288,336,141211,2,0,B|192:336|176:288|208:224|192:192,1,200
112,208,143062,5,0
48,160,143433,1,0
96,64,143803,1,0
152,64,143988,1,0
208,64,144173,2,0,B|272:96|272:160|272:192,1,150,0|8
272,272,145654,1,0
272,272,145839,1,0
176,272,146024,1,0
368,272,146394,1,0
424,336,146765,1,0
424,336,146950,1,0
464,272,147135,6,0,B|464:208|384:192|336:208,3,150,0|8|8|8
272,208,150837,5,0
272,208,151022,1,0
272,208,151207,1,0
272,208,151392,1,0
272,208,151577,1,0
192,208,151948,1,0
128,208,152133,1,0
64,208,152318,1,0
64,112,152688,1,0
64,16,153058,2,0,B|240:16,1,150,0|8
288,16,154539,5,0
288,16,154724,1,0
288,16,154817,1,0
288,16,154909,1,0
352,16,155095,1,0
352,16,155187,1,0
352,16,155280,1,0
352,16,155650,1,0
352,16,155650,1,0
448,16,156020,1,0
448,112,156390,1,0
448,176,156575,1,0
448,272,156946,1,0
448,336,157131,1,0
368,336,157686,1,0
368,336,157871,1,0
368,336,158056,1,0
368,336,158241,1,0
368,336,158427,1,0
368,336,158612,1,0
288,336,158982,5,0
288,336,159167,1,0
224,336,159352,1,0
288,336,159537,1,0
224,336,159907,1,0
288,336,160093,1,0
224,336,160278,1,0
224,336,160463,1,0
288,336,160648,1,0
224,336,161018,1,0
288,336,161203,1,0
288,336,161573,1,0
288,272,162314,1,0
208,272,162869,1,0
176,272,162962,1,0
144,272,163054,1,0
112,272,163147,1,0
80,272,163239,1,0
48,272,163332,1,0
16,272,163425,1,0
16,160,163795,5,0
16,96,163980,1,0
16,32,164165,1,0
112,32,164535,1,0
208,32,164905,2,0,B|208:96|272:112|336:96,1,150
384,96,166386,2,0,B|464:96|512:144|496:192,1,150
496,240,167867,2,0,B|432:240|432:192|432:144|384:144|304:144|224:144|224:192|224:240,1,400
32,224,171199,5,0
40,184,171384,1,0
48,144,171569,1,0
64,112,171755,1,0
96,80,171940,1,0
256,48,172680,1,0
416,80,173421,2,0,B|416:192,4,99.9999999999999,0|8|8|8|8
320,80,176753,5,0
280,80,176938,1,0
240,80,177123,1,0
200,80,177308,1,0
160,80,177493,1,0
120,80,177678,1,0
80,80,177863,1,0
80,192,178604,1,0
80,304,179344,1,0
144,304,179529,2,0,B|256:304,3,99.9999999999999,0|8|8|8
320,304,182306,1,0
400,304,182676,1,0
400,224,183046,5,0
400,184,183232,1,0
400,144,183417,1,0
400,104,183602,1,0
400,64,183787,1,0
256,64,184527,1,0
112,64,185268,1,0
112,136,185638,2,0,B|152:136,1,25,0|8
112,192,186008,2,0,B|144:192,1,25,0|2
112,248,186378,2,0,B|152:248,1,25,0|8
224,248,187119,2,0,B|192:248,1,25,0|2
224,192,187489,2,0,B|192:192,1,25,0|8
224,136,187859,2,0,B|192:136,1,25,8|2
112,304,188600,5,0
256,304,188785,1,0
256,304,188877,1,0
256,304,188970,1,0
400,304,189340,1,0
400,192,189525,1,0
400,192,189618,1,0
400,192,189710,1,0
256,192,190451,1,0
256,192,191562,12,4,194523
