osu file format v5

[General]
AudioFilename: The Legendary Theme.ogg
AudioLeadIn: 0
PreviewTime: -1
Countdown: 1
SampleSet: Normal
StackLeniency: 0.7
Mode: 0
LetterboxInBreaks: 1

[Metadata]
Title:The Legendary Theme
Artist:COIL
Creator:Vytaan
Version:Easy
Source:Gitaroo Man
Tags:gitaroo man final stage chihiro harada

[Difficulty]
HPDrainRate:5
CircleSize:5
OverallDifficulty:5
SliderMultiplier:0.999999999999999
SliderTickRate:2

[Events]
//Background and Video events
0,0,"gitarooman.JPG"
//Break Periods
2,76251,80776
2,123629,128151
//Storyboard Layer 0 (Background)
//Storyboard Layer 1 (Failing)
//Storyboard Layer 2 (Passing)
//Storyboard Layer 3 (Foreground)
//Storyboard Sound Samples
//Background Colour Transformations
3,100,163,162,255

[TimingPoints]
1880,747.567257305147,4,1,0,100,1
16800,740.646199999999,4,1,0,100,1
81976,740.546199999999,4,1,0,100,1
129370,740.346199999999,4,1,0,100,1

[HitObjects]
88,192,16800,1,0
136,128,17540,1,0
200,80,18281,1,0
272,56,19021,1,0
344,56,19762,2,0,B|344:288,2,200,0|8|0
416,56,23465,5,0
416,128,24206,1,0
416,200,24947,1,0
416,272,25687,2,0,B|352:360|192:352|104:296|112:184,1,400
112,120,29390,5,0
184,120,30131,1,0
256,120,30872,1,0
328,120,31612,2,0,B|408:208|512:112,2,200,0|8|0
328,40,35316,5,0
248,40,36056,1,0
168,40,36797,1,0
88,40,37538,2,0,B|88:176|176:224|304:248|416:232,1,400
456,240,41241,5,0
408,296,41981,1,0
344,336,42722,1,0
264,336,43463,2,0,B|120:336|136:208,1,200,0|8
128,144,45685,1,0
168,144,46055,1,0
240,144,46796,2,0,B|408:144,1,150,0|8
464,144,48647,5,0
464,184,49018,1,0
464,256,49758,2,0,B|384:320|240:312|160:280|128:264,1,350
128,184,53091,5,0
200,184,53832,1,0
272,184,54572,1,0
344,184,55313,2,0,B|464:184|504:80|256:80|144:80,1,400,0|2
144,152,59016,5,0
144,224,59757,1,0
144,296,60498,1,0
216,296,61238,2,0,B|360:296|416:248|448:152|440:24,1,400,0|2
360,40,64942,5,0
280,40,65682,1,0
200,40,66423,1,0
120,40,67163,2,0,B|120:144|264:144,1,200,0|8
336,136,69385,1,0
336,176,69756,1,0
336,248,70496,2,0,B|152:248,1,150,0|8
112,248,72348,5,0
112,208,72718,1,0
256,192,73459,12,4,76051
72,192,81976,5,0
144,192,82716,1,0
216,192,83457,1,0
288,192,84197,1,8
328,192,84567,1,0
328,264,85308,2,0,B|328:344|248:328,1,99.9999999999999,8|0
192,328,86789,1,8
152,328,87159,1,0
112,328,87530,1,8
112,288,87900,5,0
112,208,88640,1,0
112,128,89381,1,0
112,48,90122,1,0
152,48,90492,2,0,B|472:48,1,300
456,88,93084,1,0
456,160,93824,5,0
456,232,94565,1,0
456,304,95305,1,0
376,304,96046,1,0
296,304,96786,2,0,B|64:304,2,200,0|8|2
296,224,100489,5,0
216,224,101230,1,0
216,144,101970,1,0
136,144,102711,1,0
56,144,103451,1,0
56,64,104192,1,8
96,64,104562,1,0
136,64,104932,1,2
176,64,105303,1,0
216,64,105673,1,8
288,64,106414,5,0
360,64,107154,1,0
432,64,107895,1,0
432,136,108635,1,0
432,280,109375,1,0
352,280,110116,1,8
312,280,110486,1,0
272,280,110856,1,2
232,280,111227,1,0
192,280,111597,1,8
112,280,112338,5,0
112,240,112708,1,0
112,160,113449,1,0
112,80,114189,2,0,B|216:80,2,99.9999999999999,0|8|8
112,120,116041,1,8
112,192,116781,1,0
112,232,117151,1,0
112,304,117892,2,0,B|232:304,1,99.9999999999999
248,304,119003,5,0
320,304,119743,1,0
360,304,120114,1,0
256,192,120854,12,4,123446
432,192,129369,5,0
352,192,130110,1,8
272,192,130850,1,0
192,192,131591,1,8
152,192,131961,1,0
72,192,132701,1,0
32,192,133071,1,8
32,264,133812,1,0
32,336,134552,1,8
104,336,135292,1,0
176,336,136033,5,0
216,336,136403,1,0
256,336,136773,1,0
328,336,137513,1,0
400,336,138254,1,0
400,256,138994,1,0
400,216,139364,1,0
400,136,140105,1,0
400,96,140475,1,0
400,56,140845,1,0
360,56,141215,6,0,B|240:56,1,99.9999999999999
184,56,142696,2,0,B|56:56,1,99.9999999999999
80,128,144176,1,0
80,200,144917,1,0
80,240,145287,2,0,B|80:296,5,50,8|0|8|8|0|2
152,288,147878,5,0
224,288,148619,1,0
296,288,149359,1,0
376,208,150469,1,8
424,152,151210,1,8
424,112,151580,1,8
424,32,152320,1,2
344,32,153061,5,0
192,32,154541,1,0
160,56,154911,1,0
128,80,155282,1,0
96,104,155652,1,0
64,128,156022,1,0
64,200,156762,1,0
64,272,157503,1,8
104,272,157873,1,8
144,272,158243,1,8
184,272,158613,1,8
224,272,158983,1,8
272,272,159724,5,0
320,272,160279,1,0
368,272,160834,1,0
416,272,161389,1,0
464,272,161945,1,0
464,192,162685,1,0
464,112,163425,1,0
464,32,164166,1,0
384,32,164906,6,0,B|304:32|272:72|280:128,1,150,0|8
280,152,166387,2,0,B|280:240|224:240|160:240,1,150,0|8
144,240,167868,2,0,B|72:240|48:208|56:136|104:104|184:120|224:120|232:176|224:232|168:248,1,400
112,160,171569,5,0
112,80,172310,1,0
184,80,173050,1,0
256,80,173790,2,0,B|360:80,4,99.9999999999999,0|8|2|8|0
256,152,177492,5,0
256,224,178233,1,0
328,224,178973,1,0
400,224,179713,2,0,B|400:288,8,50,0|8|0|8|2|0|2|8|8
320,224,183415,5,0
240,224,184155,1,0
160,224,184895,1,0
160,144,185636,2,0,B|160:88,1,50,0|8
160,56,186376,2,0,B|240:56,1,50,0|8
248,56,187117,2,0,B|248:112,1,50,0|8
248,144,187857,2,0,B|184:144,1,50,0|8
160,144,188597,5,0
96,192,189338,1,0
160,232,190078,1,0
224,272,190818,1,0
256,192,191559,12,4,194520
