osu file format v12

[General]
AudioFilename: 01 Blind Love.mp3
AudioLeadIn: 2007
PreviewTime: 50958
Countdown: 1
SampleSet: Soft
StackLeniency: 0.7
Mode: 0
LetterboxInBreaks: 1

[Editor]
DistanceSpacing: 1
BeatDivisor: 4
GridSize: 4

[Metadata]
Title:Blind Love
TitleUnicode:Blind Love
Artist:CNBLUE
ArtistUnicode:씨엔블루
Creator:peeace
Version:Normal
Source:
Tags:CNBLUE Blind Love K-Pop Japanese
BeatmapID:260559
BeatmapSetID:97472

[Difficulty]
HPDrainRate:4
CircleSize:3
OverallDifficulty:4
ApproachRate:4
SliderMultiplier:1.4
SliderTickRate:1

[Events]
//Background and Video events
0,0,"Blind Love.jpg",0,0
//Break Periods
2,10463,17029
2,48028,49638
2,68897,70508
2,73071,75725
2,127331,132334
2,135419,138595
2,144028,158160
//Storyboard Layer 0 (Background)
//Storyboard Layer 1 (Fail)
//Storyboard Layer 2 (Pass)
//Storyboard Layer 3 (Foreground)
//Storyboard Sound Samples
//Background Colour Transformations
3,100,163,162,255

[TimingPoints]
1915,521.739130434783,4,2,0,50,1,0
8566,-100,4,1,0,80,0,0
52002,-100,4,1,0,80,0,1
69219,-100,4,2,0,100,0,1
74958,-100,4,1,0,80,0,0
110437,-100,4,1,0,80,0,1
129219,-100,4,1,0,80,0,0
159350,-100,4,2,0,80,0,0
168728,-100,4,1,0,65,0,0
179306,-100,4,1,0,80,0,1
214784,-100,4,2,0,100,0,0
227698,-100,4,1,0,80,0,0
229524,-100,4,2,0,50,0,0
233958,-100,4,1,0,30,0,0
235915,-100,4,1,0,35,0,0

[Colours]
Combo1 : 210,210,210
Combo2 : 0,0,0

[HitObjects]
120,192,872,1,2,0:0:0:0:
256,192,1393,1,2,0:0:0:0:
396,192,1915,2,2,P|400:68|352:108,1,280,2|2,0:0|0:0,0:0:0:0:
256,192,3480,5,2,0:0:0:0:
120,192,4001,1,2,0:0:0:0:
256,40,4785,5,2,0:0:0:0:
256,112,5046,1,2,0:0:0:0:
256,248,5567,1,2,0:0:0:0:
140,168,6088,2,2,P|136:44|184:84,1,280
256,192,7654,5,2,0:0:0:0:
256,336,8176,1,0,0:0:0:0:
256,192,8698,12,4,10263,0:0:0:0:
144,52,18349,5,0,0:0:0:0:
144,52,18611,2,0,P|125:113|144:204,1,140,0|8,0:0|0:0,0:0:0:0:
156,252,19393,2,0,P|223:322|312:267,1,210
380,264,20436,5,0,0:0:0:0:
372,192,20698,2,0,P|383:118|365:57,1,140,0|8,0:0|0:0,0:0:0:0:
296,36,21480,2,0,B|160:36|280:156|148:156,1,210,0|8,0:0|0:0,0:0:0:0:
120,212,22523,5,0,0:0:0:0:
104,280,22785,2,0,P|144:325|184:277,1,140,0|8,0:0|0:0,0:0:0:0:
220,216,23567,2,0,P|252:180|276:188,1,70
332,208,24089,2,0,P|404:192|368:64,1,210
256,68,25393,5,8,0:0:0:0:
140,144,25915,1,0,0:0:0:0:
256,224,26436,1,8,0:0:0:0:
372,144,26958,6,0,P|389:201|372:304,1,140,0|8,0:0|0:0,0:0:0:0:
348,340,27741,1,0,0:0:0:0:
68,332,28784,5,0,0:0:0:0:
120,284,29045,2,0,P|112:205|130:148,1,140,0|8,0:0|0:0,0:0:0:0:
72,108,29828,1,0,0:0:0:0:
348,52,30871,5,0,0:0:0:0:
280,48,31132,2,0,P|238:109|208:180,1,140,0|8,0:0|0:0,0:0:0:0:
280,204,31915,2,0,P|270:281|280:364,1,140,0|0,0:0|0:0,0:0:0:0:
356,228,32958,2,0,P|383:205|412:164,1,70,0|4,0:0|0:0,0:0:0:0:
268,124,33741,6,0,B|208:104|208:180|132:136,1,140,8|0,0:0|0:0,0:0:0:0:
76,264,34785,2,0,L|195:336,1,140,8|0,0:0|0:0,0:0:0:0:
256,300,35567,1,0,0:0:0:0:
317,336,35828,2,0,L|436:264,1,140,8|0,0:0|0:0,0:0:0:0:
416,208,36611,1,0,0:0:0:0:
448,144,36872,2,0,B|476:73|356:144|396:49,1,140,8|0,0:0|0:0,0:0:0:0:
328,40,37654,1,0,0:0:0:0:
264,72,37915,1,8,0:0:0:0:
256,192,38175,12,0,39480,0:0:0:0:
292,305,40001,5,8,0:0:0:0:
159,262,40523,1,0,0:0:0:0:
159,121,41045,1,8,0:0:0:0:
292,78,41567,1,0,0:0:0:0:
375,192,42088,1,8,0:0:0:0:
292,305,42610,5,0,0:0:0:0:
159,262,43132,1,8,0:0:0:0:
188,124,43654,2,0,P|182:94|195:57,2,70,0|0|8,0:0|0:0|0:0,0:0:0:0:
324,124,44698,2,0,P|329:94|316:57,2,70,0|0|8,0:0|0:0|0:0,0:0:0:0:
256,192,45741,12,0,47828,0:0:0:0:
256,288,50958,5,0,0:0:0:0:
352,192,51480,1,8,0:0:0:0:
256,96,52002,5,4,0:0:0:0:
160,192,52524,1,8,0:0:0:0:
256,288,53045,1,0,0:0:0:0:
305,238,53306,1,0,0:0:0:0:
352,192,53567,2,0,L|448:192,1,70,8|0,0:0|0:0,0:0:0:0:
428,128,54089,2,0,P|392:60|264:64,1,210
256,128,55132,2,0,L|106:128,1,140,0|8,0:0|0:0,0:0:0:0:
60,256,56176,6,0,P|52:296|148:320,1,140,4|8,0:0|0:0,0:0:0:0:
248,264,57219,6,0,B|444:264|276:144|456:128,2,280
248,123,59828,1,8,0:0:0:0:
148,222,60350,6,0,P|79:220|58:160,1,140,4|8,0:0|0:0,0:0:0:0:
197,150,61393,6,0,P|348:179|320:277,2,280
164,272,64002,6,0,B|208:284|208:284|276:196,1,140,8|0,0:0|0:0,0:0:0:0:
324,48,65045,2,0,B|464:32|472:36|464:204,1,280,0|8,0:0|0:0,0:0:0:0:
396,224,66349,2,0,B|304:244|296:234|300:100,1,210,0|8,0:0|0:0,0:0:0:0:
159,100,67654,6,0,B|113:87|105:95|57:175,2,140,4|8|4,0:0|0:0|0:0,0:0:0:0:
159,100,71828,6,2,B|113:87|105:95|57:175,2,140,2|2|6,0:0|0:0|0:0,0:0:0:0:
208,56,77045,6,0,P|145:88|104:168,1,140,0|8,0:0|0:0,0:0:0:0:
76,208,77828,2,0,P|112:265|319:298,1,280,0|8,0:0|0:0,0:0:0:0:
372,276,79132,2,0,P|343:211|271:198,1,140,0|8,0:0|0:0,0:0:0:0:
212,192,79915,2,0,P|227:122|338:51,1,210,0|8,0:0|0:0,0:0:0:0:
392,180,81219,6,0,P|355:237|293:270,1,140,0|8,0:0|0:0,0:0:0:0:
220,272,82002,2,0,P|158:239|121:182,1,140,0|8,0:0|0:0,0:0:0:0:
256,168,83045,2,0,B|348:264|376:96|448:184,1,210,0|8,0:0|0:0,0:0:0:0:
328,288,84350,5,0,0:0:0:0:
256,168,84872,1,8,0:0:0:0:
256,168,85393,6,0,L|256:308,1,140,0|8,0:0|0:0,0:0:0:0:
188,312,86175,2,0,P|83:305|108:220,1,210,0|8,0:0|0:0,0:0:0:0:
168,224,87219,1,0,0:0:0:0:
212,168,87480,2,0,P|256:92|212:60,1,140,0|8,0:0|0:0,0:0:0:0:
172,108,88262,2,0,L|404:132,1,210,0|8,0:0|0:0,0:0:0:0:
360,304,89567,6,0,B|292:296|284:296|285:290|256:208,1,140,0|8,0:0|0:0,0:0:0:0:
292,152,90349,2,0,B|240:144|220:152|180:184|184:240,2,140
264,72,91654,5,4,0:0:0:0:
140,136,92176,1,8,0:0:0:0:
264,72,92698,1,0,0:0:0:0:
372,160,93219,1,8,0:0:0:0:
456,48,93741,5,0,0:0:0:0:
456,120,94002,1,0,0:0:0:0:
440,188,94263,2,0,P|425:251|440:328,1,140,8|0,0:0|0:0,0:0:0:0:
372,344,95045,1,0,0:0:0:0:
304,324,95306,2,0,P|240:304|164:324,1,140,8|0,0:0|0:0,0:0:0:0:
100,328,96089,1,0,0:0:0:0:
84,260,96349,1,8,0:0:0:0:
44,200,96610,1,4,0:0:0:0:
256,296,97915,5,0,0:0:0:0:
157,191,98436,1,8,0:0:0:0:
256,93,98958,1,0,0:0:0:0:
354,192,99480,1,8,0:0:0:0:
312,324,100001,6,0,B|216:164|152:420|56:260,1,280
52,148,101567,1,8,0:0:0:0:
188,184,102089,6,0,L|141:236,2,70,0|0|8,0:0|0:0|0:0,0:0:0:0:
324,184,103132,2,0,L|370:236,2,70,0|0|8,0:0|0:0|0:0,0:0:0:0:
256,304,104176,6,0,L|258:235,2,70,0|0|8,0:0|0:0|0:0,0:0:0:0:
324,324,104958,2,0,B|392:300|296:200|416:224,1,140
444,180,105741,2,0,P|460:152|432:124,1,70,8|0,0:0|0:0,0:0:0:0:
256,48,106784,5,8,0:0:0:0:
256,192,107306,1,0,0:0:0:0:
256,192,107828,2,0,B|352:192|352:192|376:256,2,140,8|0|8,0:0|0:0|0:0,0:0:0:0:
256,96,109393,5,0,0:0:0:0:
160,192,109915,1,8,0:0:0:0:
256,288,110436,5,4,0:0:0:0:
352,192,110958,1,8,0:0:0:0:
256,96,111479,1,0,0:0:0:0:
207,146,111740,1,0,0:0:0:0:
160,192,112001,2,0,L|64:192,1,70,8|0,0:0|0:0,0:0:0:0:
84,256,112523,2,0,P|120:324|248:320,1,210
256,256,113566,2,0,L|406:256,1,140,0|8,0:0|0:0,0:0:0:0:
452,128,114610,6,0,P|460:88|364:64,1,140,4|8,0:0|0:0,0:0:0:0:
264,120,115653,6,0,B|68:120|236:240|56:256,2,280
264,261,118262,1,8,0:0:0:0:
364,162,118784,6,0,P|433:164|454:224,1,140,4|8,0:0|0:0,0:0:0:0:
315,234,119827,6,0,P|164:205|192:107,2,280
348,112,122436,6,0,B|304:100|304:100|236:188,1,140,8|0,0:0|0:0,0:0:0:0:
188,336,123479,2,0,B|48:352|40:348|48:180,1,280,0|8,0:0|0:0,0:0:0:0:
116,160,124783,2,0,B|208:140|216:150|212:284,1,210,0|8,0:0|0:0,0:0:0:0:
353,284,126088,6,0,B|399:297|407:289|455:209,2,140,4|8|4,0:0|0:0|0:0,0:0:0:0:
312,152,133654,6,0,L|312:248,1,70,0|8,0:0|0:0,0:0:0:0:
291,289,134176,2,0,L|203:289,1,70
200,222,134698,2,0,L|200:152,2,70,0|8|0,0:0|0:0|0:0,0:0:0:0:
200,152,139915,6,0,L|200:248,1,70,0|8,0:0|0:0,0:0:0:0:
221,289,140437,2,0,L|309:289,1,70
312,222,140959,2,0,L|312:152,2,70,0|8|0,0:0|0:0|0:0,0:0:0:0:
351,279,141741,6,2,B|439:275|444:273|467:224,1,140,2|10,0:0|0:0,0:0:0:0:
344,155,142785,2,2,B|255:160|250:162|224:219,1,140,2|10,0:0|0:0,0:0:0:0:
104,154,143828,5,4,0:0:0:0:
328,192,159480,5,0,0:0:0:0:
256,284,160002,1,0,0:0:0:0:
328,192,160524,1,0,0:0:0:0:
84,56,161567,2,0,P|72:128|140:120,2,140,0|0|0,0:0|0:0|0:0,0:0:0:0:
256,176,163393,5,0,0:0:0:0:
207,126,163654,1,0,0:0:0:0:
316,40,164175,1,0,0:0:0:0:
457,40,164698,1,0,0:0:0:0:
420,304,165741,6,0,P|371:185|305:263,1,280
96,232,167567,5,0,0:0:0:0:
144,288,167828,1,0,0:0:0:0:
256,208,168350,1,0,0:0:0:0:
256,192,168872,12,0,172002,0:0:0:0:
372,100,172524,5,8,0:0:0:0:
304,92,172785,2,0,B|264:28|208:36|168:84|160:148,1,210,0|8,0:0|0:0,0:0:0:0:
136,208,173828,2,0,B|176:272|232:264|272:216|280:152,1,210,0|8,0:0|0:0,0:0:0:0:
392,76,175132,1,0,0:0:0:0:
380,216,175654,1,0,0:0:0:0:
256,192,175915,12,0,178263,0:0:0:0:
256,72,178785,5,8,0:0:0:0:
184,192,179306,6,0,B|264:140|124:20|64:240,1,280
92,300,180610,2,0,P|160:256|168:260,2,70,0|8|0,0:0|0:0|0:0,0:0:0:0:
160,324,181393,2,0,P|224:336|288:280,1,140,0|8,0:0|0:0,0:0:0:0:
340,164,182437,5,0,0:0:0:0:
456,84,182958,1,8,0:0:0:0:
452,224,183480,1,0,0:0:0:0:
336,304,184002,1,8,0:0:0:0:
224,220,184524,6,8,P|328:188|236:96,1,280,0|0,0:0|0:0,0:0:0:0:
116,40,186088,5,8,0:0:0:0:
96,108,186350,2,0,P|84:148|112:188,1,70
176,288,187132,1,8,0:0:0:0:
216,152,187654,6,0,L|360:152,1,140,4|8,0:0|0:0,0:0:0:0:
440,264,188698,2,0,B|376:236|424:372|324:320,1,140
200,320,189741,2,0,B|120:240|416:224|348:124,1,280
308,84,191045,5,0,0:0:0:0:
308,84,191306,1,8,0:0:0:0:
308,84,191567,2,0,B|167:43|143:155|223:171,1,210,0|8,0:0|0:0,0:0:0:0:
276,188,192611,2,0,P|306:251|274:307,1,140
204,304,193393,2,0,P|122:275|90:235,2,140,8|0|8,0:0|0:0|0:0,0:0:0:0:
340,280,194958,6,0,P|402:252|422:188,2,140,0|8|4,0:0|0:0|0:0,0:0:0:0:
216,100,197045,6,0,B|136:12|124:12|-48:116|208:308|208:308,1,420,0|8,0:0|0:0,0:0:0:0:
256,196,199132,5,0,0:0:0:0:
256,196,199654,1,8,0:0:0:0:
256,196,200175,1,0,0:0:0:0:
296,100,201219,6,0,B|376:12|388:12|560:116|304:308|304:308,1,420,0|8,0:0|0:0,0:0:0:0:
248,280,203045,5,0,0:0:0:0:
240,212,203306,2,0,P|156:228|116:296,1,140,0|8,0:0|0:0,0:0:0:0:
44,152,204350,2,0,P|76:112|160:96,1,140,4|8,0:0|0:0,0:0:0:0:
232,216,205393,2,0,P|268:224|288:180,3,70,0|0|8|0,0:0|0:0|0:0|0:0,0:0:0:0:
292,132,206437,2,0,P|228:48|188:162,1,280,4|0,0:0|0:0,0:0:0:0:
256,192,207741,5,0,0:0:0:0:
256,192,208002,1,8,0:0:0:0:
256,192,208263,2,0,P|356:188|348:296,1,210,0|8,0:0|0:0,0:0:0:0:
315,321,209306,6,0,P|259:353|195:321,1,140
256,280,210088,2,0,L|256:210,4,70,8|0|0|0|8,0:0|0:0|0:0|0:0|0:0,0:0:0:0:
136,216,211654,6,0,L|244:116,1,140,0|8,0:0|0:0,0:0:0:0:
256,192,212698,12,8,214784,0:0:0:0:
376,168,215828,6,2,L|272:272,1,140,2|2,0:0|0:0,0:0:0:0:
256,192,216872,12,8,218958,0:0:0:0:
376,216,220002,6,2,L|264:120,1,140,2|2,0:0|0:0,0:0:0:0:
256,192,221046,12,8,223132,0:0:0:0:
146,168,224176,6,2,L|248:272,1,140,2|2,0:0|0:0,0:0:0:0:
256,192,225220,12,8,227306,0:0:0:0:
256,192,227828,12,4,229393,0:0:0:0:
384,64,231480,5,0,0:0:0:0:
128,320,233567,5,2,0:0:0:0:
256,192,234089,12,0,235654,0:0:0:0:
256,192,236176,12,4,237741,0:0:0:0:
