osu file format v12

[General]
AudioFilename: 01 Blind Love.mp3
AudioLeadIn: 2007
PreviewTime: 50958
Countdown: 1
SampleSet: Normal
StackLeniency: 0.7
Mode: 0
LetterboxInBreaks: 1

[Editor]
DistanceSpacing: 1
BeatDivisor: 4
GridSize: 8

[Metadata]
Title:Blind Love
TitleUnicode:Blind Love
Artist:CNBLUE
ArtistUnicode:씨엔블루
Creator:peeace
Version:Insane
Source:
Tags:CNBLUE Blind Love K-Pop Japanese
BeatmapID:260941
BeatmapSetID:97472

[Difficulty]
HPDrainRate:7
CircleSize:5
OverallDifficulty:7
ApproachRate:8
SliderMultiplier:1.4
SliderTickRate:1

[Events]
//Background and Video events
0,0,"Blind Love.jpg",0,0
//Break Periods
2,48028,50208
2,75158,76035
2,128898,132904
2,135679,139165
2,144028,158730
//Storyboard Layer 0 (Background)
//Storyboard Layer 1 (Fail)
//Storyboard Layer 2 (Pass)
//Storyboard Layer 3 (Foreground)
//Storyboard Sound Samples
//Background Colour Transformations
3,100,163,162,255

[TimingPoints]
1915,521.739130434783,4,2,0,50,1,0
8045,-200,4,2,0,50,0,0
9350,-66.6666666666667,4,1,0,80,0,0
18089,-66.6666666666667,4,1,0,80,0,0
47697,-66.6666666666667,4,1,0,50,0,0
47958,-66.6666666666667,4,1,0,80,0,0
52002,-66.6666666666667,4,1,0,80,0,1
62306,-133.333333333333,4,1,0,80,0,1
63480,-133.333333333333,4,1,0,5,0,1
63611,-66.6666666666667,4,1,0,80,0,1
68045,-66.6666666666667,4,1,0,5,0,1
68176,-66.6666666666667,4,1,0,80,0,1
68567,-66.6666666666667,4,1,0,5,0,1
68698,-66.6666666666667,4,1,0,80,0,1
70523,-66.6666666666667,4,1,0,60,0,1
71698,-66.6666666666667,4,2,0,100,0,1
72219,-66.6666666666667,4,2,0,5,0,1
72350,-66.6666666666667,4,2,0,100,0,1
72741,-66.6666666666667,4,2,0,5,0,1
72872,-66.6666666666667,4,2,0,100,0,1
74958,-66.6666666666667,4,1,0,80,0,0
76653,-66.6666666666667,4,1,0,50,0,0
93610,-66.6666666666667,4,1,0,65,0,0
106524,-66.6666666666667,4,1,0,5,0,0
106654,-66.6666666666667,4,1,0,80,0,0
110437,-66.6666666666667,4,1,0,80,0,1
120741,-133.333333333333,4,1,0,80,0,1
121915,-133.333333333333,4,1,0,5,0,1
122045,-66.6666666666667,4,1,0,80,0,1
126480,-66.6666666666667,4,1,0,5,0,1
126611,-66.6666666666667,4,1,0,80,0,1
127002,-66.6666666666667,4,1,0,5,0,1
127132,-66.6666666666667,4,1,0,80,0,1
129219,-66.6666666666667,4,1,0,80,0,0
159221,-66.6666666666667,4,1,0,30,0,0
165741,-133.333333333333,4,1,0,30,0,0
166784,-66.6666666666667,4,1,0,30,0,0
178132,-66.6666666666667,4,1,0,60,0,0
179306,-66.6666666666667,4,1,0,80,0,1
184393,-50,4,1,0,80,0,1
185698,-66.6666666666667,4,1,0,80,0,1
190785,-66.6666666666667,4,1,0,5,0,1
190915,-66.6666666666667,4,1,0,80,0,1
195350,-66.6666666666667,4,1,0,5,0,1
195480,-66.6666666666667,4,1,0,80,0,1
195872,-66.6666666666667,4,1,0,5,0,1
196002,-66.6666666666667,4,1,0,80,0,1
197176,-50,4,1,0,80,0,1
198872,-66.6666666666667,4,1,0,80,0,1
201350,-50,4,1,0,80,0,1
202915,-66.6666666666667,4,1,0,80,0,1
207480,-66.6666666666667,4,1,0,5,0,1
207611,-66.6666666666667,4,1,0,80,0,1
212045,-66.6666666666667,4,1,0,5,0,1
212176,-66.6666666666667,4,1,0,80,0,1
212567,-66.6666666666667,4,1,0,5,0,1
212698,-66.6666666666667,4,2,0,80,0,1
214784,-66.6666666666667,4,2,0,5,0,0
215567,-66.6666666666667,4,2,0,100,0,0
216219,-66.6666666666667,4,1,0,5,0,0
216350,-66.6666666666667,4,2,0,100,0,0
216741,-66.6666666666667,4,1,0,5,0,0
216872,-66.6666666666667,4,2,0,80,0,0
218958,-66.6666666666667,4,2,0,5,0,0
219088,-66.6666666666667,4,2,0,100,0,0
220393,-66.6666666666667,4,1,0,5,0,0
220524,-66.6666666666667,4,2,0,100,0,0
220915,-66.6666666666667,4,1,0,5,0,0
221045,-66.6666666666667,4,2,0,80,0,0
223132,-66.6666666666667,4,2,0,5,0,0
223263,-66.6666666666667,4,2,0,100,0,0
224567,-66.6666666666667,4,1,0,5,0,0
224698,-66.6666666666667,4,2,0,100,0,0
225089,-66.6666666666667,4,1,0,5,0,0
225219,-66.6666666666667,4,2,0,80,0,0
227306,-66.6666666666667,4,2,0,5,0,0
227698,-66.6666666666667,4,1,0,80,0,0
229523,-66.6666666666667,4,1,0,30,0,0
229784,-66.6666666666667,4,1,0,60,0,0
230176,-66.6666666666667,4,1,0,15,0,0
231219,-66.6666666666667,4,2,0,100,0,0
231741,-66.6666666666667,4,1,0,15,0,0
233045,-66.6666666666667,4,2,0,70,0,0
233958,-66.6666666666667,4,1,0,30,0,0
235785,-66.6666666666667,4,1,0,45,0,0

[Colours]
Combo1 : 210,210,210
Combo2 : 0,0,0

[HitObjects]
256,192,872,5,2,0:0:0:0:
360,100,1393,1,2,0:0:0:0:
256,192,1915,2,2,L|128:80,1,140,2|2,0:0|0:0,0:0:0:0:
256,192,2958,5,2,0:0:0:0:
204,236,3219,1,2,0:0:0:0:
152,284,3480,1,2,0:0:0:0:
204,236,3741,1,2,0:0:0:0:
256,192,4002,2,2,L|372:296,1,140,2|2,0:0|0:0,0:0:0:0:
360,284,4785,5,2,0:0:0:0:
360,214,5045,1,2,0:0:0:0:
360,98,5567,1,2,0:0:0:0:
256,192,6089,2,2,L|364:96,1,140,2|2,0:0|0:0,0:0:0:0:
256,192,7132,1,2,0:0:0:0:
204,144,7393,1,2,0:0:0:0:
152,100,7654,1,2,0:0:0:0:
204,144,7915,1,2,0:0:0:0:
256,192,8176,6,2,L|140:296,1,140,2|2,0:0|0:0,0:0:0:0:
256,192,9480,12,4,10263,0:0:0:0:
368,192,10524,5,0,0:0:0:0:
256,80,10785,1,8,0:0:0:0:
145,190,11045,1,0,0:0:0:0:
256,301,11306,5,0,0:0:0:0:
256,143,11567,1,0,0:0:0:0:
176,280,11828,1,8,0:0:0:0:
336,280,12089,1,0,0:0:0:0:
256,144,12350,5,0,0:0:0:0:
108,88,12611,1,0,0:0:0:0:
256,144,12872,1,8,0:0:0:0:
404,88,13132,1,0,0:0:0:0:
256,144,13393,5,0,0:0:0:0:
108,204,13654,1,0,0:0:0:0:
256,144,13915,1,8,0:0:0:0:
404,204,14176,1,0,0:0:0:0:
333,323,14437,6,0,B|256:252,1,105.000004005432,0|0,0:0|0:0,0:0:0:0:
178,323,14958,2,0,B|256:252,1,105.000004005432,8|0,0:0|0:0,0:0:0:0:
360,132,15480,2,0,P|336:76|280:88,1,105.000004005432,0|0,0:0|0:0,0:0:0:0:
152,132,16002,2,0,P|176:76|214:76,1,105.000004005432,8|0,0:0|0:0,0:0:0:0:
256,192,16524,12,8,18089,0:0:0:0:
256,44,18350,5,0,0:0:0:0:
256,201,18611,2,0,L|256:321,2,105.000004005432,4|0|8,0:0|0:0|0:0,0:0:0:0:
120,120,19393,2,0,P|172:137|226:109,2,105.000004005432,0|0|0,0:0|0:0|0:0,0:0:0:0:
256,44,20176,1,8,0:0:0:0:
256,44,20437,5,0,0:0:0:0:
256,201,20698,2,0,L|256:306,2,105.000004005432,0|0|8,0:0|0:0|0:0,0:0:0:0:
392,120,21480,2,0,P|339:137|285:109,3,105.000004005432,0|0|0|8,0:0|0:0|0:0|0:0,0:0:0:0:
256,272,22524,5,0,0:0:0:0:
176,136,22785,2,0,B|105:218|196:336,1,210.000008010865,0|8,0:0|0:0,0:0:0:0:
322,327,23567,2,0,B|407:218|336:136,1,210.000008010865,0|0,0:0|0:0,0:0:0:0:
256,272,24350,1,8,0:0:0:0:
178,134,24611,5,0,0:0:0:0:
335,134,24872,1,0,0:0:0:0:
178,134,25133,1,0,0:0:0:0:
335,134,25394,1,8,0:0:0:0:
192,204,25654,5,0,0:0:0:0:
48,268,25915,1,0,0:0:0:0:
48,110,26176,1,0,0:0:0:0:
48,268,26437,1,8,0:0:0:0:
48,111,26697,1,0,0:0:0:0:
205,111,26958,6,0,P|255:107|287:147,1,105.000004005432,4|0,0:0|0:0,0:0:0:0:
422,65,27480,2,0,P|426:115|386:147,1,105.000004005432,8|0,0:0|0:0,0:0:0:0:
468,284,28002,2,0,P|418:288|386:248,1,105.000004005432,0|0,0:0|0:0,0:0:0:0:
251,330,28524,2,0,P|247:280|287:248,1,105.000004005432,8|0,0:0|0:0,0:0:0:0:
307,111,29045,6,0,P|257:107|225:147,1,105.000004005432,0|0,0:0|0:0,0:0:0:0:
90,65,29567,2,0,P|86:115|126:147,1,105.000004005432,8|0,0:0|0:0,0:0:0:0:
44,284,30089,2,0,P|93:288|125:248,1,105.000004005432,0|0,0:0|0:0,0:0:0:0:
260,328,30611,2,0,P|264:278|224:246,1,105.000004005432,8|0,0:0|0:0,0:0:0:0:
126,220,31132,6,0,P|136:285|260:328,1,210.000008010865,0|8,0:0|0:0,0:0:0:0:
400,156,31915,2,0,P|375:93|228:60,1,210.000008010865,0|0,0:0|0:0,0:0:0:0:
100,108,32698,1,8,0:0:0:0:
231,24,32958,1,0,0:0:0:0:
388,24,33219,1,0,0:0:0:0:
460,164,33480,1,0,0:0:0:0:
400,308,33741,5,8,0:0:0:0:
242,308,34002,1,0,0:0:0:0:
384,240,34263,1,0,0:0:0:0:
226,240,34524,1,0,0:0:0:0:
368,172,34785,1,8,0:0:0:0:
211,172,35045,5,0,0:0:0:0:
288,36,35306,1,0,0:0:0:0:
368,172,35567,1,0,0:0:0:0:
304,316,35828,2,0,B|356:271|236:159|308:123,1,210.000008010865,8|0,0:0|0:0,0:0:0:0:
196,236,36611,1,0,0:0:0:0:
72,140,36871,2,0,B|-1:176|119:288|63:336,1,210.000008010865,8|0,0:0|0:0,0:0:0:0:
224,348,37654,1,0,0:0:0:0:
348,252,37915,1,8,0:0:0:0:
204,188,38175,2,0,P|184:112|364:96,1,315.000012016297,0|8,0:0|0:0,0:0:0:0:
256,208,39219,5,0,0:0:0:0:
256,208,39480,1,0,0:0:0:0:
292,288,39741,1,0,0:0:0:0:
336,288,39872,1,0,0:0:0:0:
376,288,40002,1,8,0:0:0:0:
220,288,40263,1,0,0:0:0:0:
176,288,40394,1,0,0:0:0:0:
136,288,40524,1,0,0:0:0:0:
256,188,40785,1,0,0:0:0:0:
256,228,40915,1,0,0:0:0:0:
256,268,41045,1,8,0:0:0:0:
256,108,41306,5,0,0:0:0:0:
392,32,41567,1,0,0:0:0:0:
272,164,41828,1,0,0:0:0:0:
412,92,42089,1,8,0:0:0:0:
288,220,42350,1,0,0:0:0:0:
400,300,42611,2,0,B|360:240|372:156|328:100,1,210.000008010865,0|8,0:0|0:0,0:0:0:0:
120,103,43654,5,0,0:0:0:0:
277,103,43915,1,0,0:0:0:0:
67,103,44175,1,8,0:0:0:0:
392,281,44698,5,0,0:0:0:0:
235,281,44959,1,0,0:0:0:0:
445,281,45219,1,8,0:0:0:0:
256,192,45741,12,0,47828,0:0:0:0:
256,352,50958,5,0,0:0:0:0:
256,36,51480,1,8,0:0:0:0:
256,351,52002,5,4,0:0:0:0:
176,216,52263,1,0,0:0:0:0:
120,68,52524,1,8,0:0:0:0:
256,148,52785,1,0,0:0:0:0:
392,68,53045,1,0,0:0:0:0:
336,216,53306,1,0,0:0:0:0:
256,352,53567,1,8,0:0:0:0:
336,216,53828,1,0,0:0:0:0:
176,216,54089,2,0,L|335:78,1,210.000008010865,4|8,0:0|0:0,0:0:0:0:
176,78,54872,5,0,0:0:0:0:
177,78,55132,2,0,L|336:216,1,210.000008010865,0|8,0:0|0:0,0:0:0:0:
48,344,56176,2,0,P|96:299|85:269,2,105.000004005432,4|0|8,0:0|0:0|0:0,0:0:0:0:
48,186,56958,1,0,0:0:0:0:
176,92,57219,1,0,0:0:0:0:
48,186,57480,1,0,0:0:0:0:
184,264,57741,2,0,P|240:236|288:256,2,105.000004005432,8|0|4,0:0|0:0|0:0,0:0:0:0:
413,57,58785,5,8,0:0:0:0:
99,57,59306,1,0,0:0:0:0:
413,57,59828,1,8,0:0:0:0:
256,328,60350,5,4,0:0:0:0:
256,168,60611,1,0,0:0:0:0:
336,304,60872,1,8,0:0:0:0:
176,304,61132,1,0,0:0:0:0:
256,168,61393,1,0,0:0:0:0:
112,104,61654,1,0,0:0:0:0:
256,40,61915,1,8,0:0:0:0:
400,104,62176,1,0,0:0:0:0:
456,158,62437,6,0,P|409:224|340:142,1,210.000008010865,4|2,0:0|0:0,0:0:0:0:
200,240,63741,5,0,0:0:0:0:
200,240,64002,1,8,0:0:0:0:
200,240,64262,2,0,P|140:156|248:212,1,315.000012016297,0|8,0:0|0:0,0:0:0:0:
320,272,65306,6,0,P|380:236|364:180,1,105.000004005432,0|0,0:0|0:0,0:0:0:0:
76,132,66089,1,8,0:0:0:0:
236,108,66350,1,0,0:0:0:0:
180,252,66611,1,0,0:0:0:0:
76,132,66872,1,0,0:0:0:0:
76,132,67132,1,8,0:0:0:0:
152,312,67654,6,0,P|248:344|304:328,1,157.500006008148,0|0,0:0|0:0,0:0:0:0:
312,328,68176,2,0,P|368:288|393:205,1,157.500006008148,8|0,0:0|0:0,0:0:0:0:
392,192,68698,2,0,P|104:112|144:312,1,630.000024032594,4|8,0:0|0:0,0:0:0:0:
384,268,70784,2,0,P|312:352|212:352,1,210.000008010865,0|8,0:0|0:0,0:0:0:0:
388,124,71828,6,0,P|298:54|224:64,1,157.500006008148,0|0,0:0|0:0,0:0:0:0:
232,56,72350,2,0,P|164:96|144:180,1,157.500006008148,8|0,0:0|0:0,0:0:0:0:
144,196,72871,2,0,P|396:224|240:56,1,630.000024032594,0|8,0:0|0:0,0:0:0:0:
216,60,74567,1,0,0:0:0:0:
196,80,74697,1,0,0:0:0:0:
168,80,74828,1,0,0:0:0:0:
144,88,74958,1,4,0:0:0:0:
256,304,76785,5,0,0:0:0:0:
256,144,77045,1,4,0:0:0:0:
144,256,77306,1,0,0:0:0:0:
256,144,77566,1,8,0:0:0:0:
368,256,77828,1,0,0:0:0:0:
256,144,78089,1,0,0:0:0:0:
256,304,78350,1,0,0:0:0:0:
256,144,78611,1,8,0:0:0:0:
400,88,78872,5,0,0:0:0:0:
256,32,79132,1,0,0:0:0:0:
400,88,79393,1,0,0:0:0:0:
256,32,79653,1,8,0:0:0:0:
112,88,79915,1,0,0:0:0:0:
256,144,80176,1,0,0:0:0:0:
368,256,80437,1,0,0:0:0:0:
256,144,80698,1,8,0:0:0:0:
144,256,80958,1,0,0:0:0:0:
120,96,81219,6,0,L|200:188,1,105.000004005432,0|0,0:0|0:0,0:0:0:0:
344,160,81741,2,0,L|256:264,1,105.000004005432,8|0,0:0|0:0,0:0:0:0:
120,232,82263,2,0,L|200:320,1,105.000004005432,0|0,0:0|0:0,0:0:0:0:
344,268,82785,2,0,L|264:356,1,105.000004005432,8|0,0:0|0:0,0:0:0:0:
256,188,83306,5,0,0:0:0:0:
256,188,83828,1,8,0:0:0:0:
256,188,84350,1,0,0:0:0:0:
256,188,84872,5,8,0:0:0:0:
256,328,85132,1,0,0:0:0:0:
256,188,85393,2,0,L|256:83,1,105.000004005432,0|0,0:0|0:0,0:0:0:0:
392,112,85915,2,0,P|392:72|336:60,1,105.000004005432,8|0,0:0|0:0,0:0:0:0:
175,59,86437,2,0,P|120:72|120:112,1,105.000004005432,0|0,0:0|0:0,0:0:0:0:
256,184,86958,2,0,L|256:78,1,105.000004005432,8|0,0:0|0:0,0:0:0:0:
383,168,87480,6,0,P|343:164|334:217,1,105.000004005432,0|0,0:0|0:0,0:0:0:0:
177,217,88002,2,0,P|168:164|128:168,1,105.000004005432,8|0,0:0|0:0,0:0:0:0:
127,326,88524,2,0,P|167:330|176:277,1,105.000004005432,0|0,0:0|0:0,0:0:0:0:
333,277,89046,2,0,P|342:330|382:326,1,105.000004005432,8|0,0:0|0:0,0:0:0:0:
256,232,89567,6,0,L|256:337,1,105.000004005432,0|0,0:0|0:0,0:0:0:0:
256,176,90089,2,0,L|256:64,1,105.000004005432,8|0,0:0|0:0,0:0:0:0:
416,96,90611,2,0,P|360:72|332:0,1,105.000004005432,0|0,0:0|0:0,0:0:0:0:
179,36,91132,2,0,P|155:71|99:95,1,105.000004005432,8|0,0:0|0:0,0:0:0:0:
99,253,91654,1,0,0:0:0:0:
210,364,91915,5,0,0:0:0:0:
321,252,92176,1,8,0:0:0:0:
432,363,92437,1,0,0:0:0:0:
320,251,92698,1,0,0:0:0:0:
209,140,92958,1,0,0:0:0:0:
51,140,93219,1,8,0:0:0:0:
208,140,93480,5,0,0:0:0:0:
319,28,93741,1,4,0:0:0:0:
430,139,94002,1,0,0:0:0:0:
360,280,94263,2,0,P|284:309|184:224,1,210.000008010865,8|0,0:0|0:0,0:0:0:0:
312,144,95045,1,0,0:0:0:0:
176,64,95306,2,0,P|70:92|58:188,1,210.000008010865,8|0,0:0|0:0,0:0:0:0:
120,328,96089,1,0,0:0:0:0:
56,184,96350,1,8,0:0:0:0:
94,31,96610,2,0,P|167:163|56:184,1,315.000012016297,0|8,0:0|0:0,0:0:0:0:
256,336,97654,5,0,0:0:0:0:
160,296,97915,1,0,0:0:0:0:
164,148,98176,1,0,0:0:0:0:
128,168,98307,1,0,0:0:0:0:
116,208,98437,1,8,0:0:0:0:
256,200,98698,1,0,0:0:0:0:
256,200,98828,1,0,0:0:0:0:
256,200,98958,1,0,0:0:0:0:
384,168,99219,1,0,0:0:0:0:
348,148,99350,1,0,0:0:0:0:
352,296,99741,5,0,0:0:0:0:
256,168,100002,1,0,0:0:0:0:
176,32,100263,1,0,0:0:0:0:
336,32,100524,1,8,0:0:0:0:
200,112,100785,1,0,0:0:0:0:
64,192,101045,1,0,0:0:0:0:
336,352,101567,5,8,0:0:0:0:
256,216,101828,1,0,0:0:0:0:
176,352,102089,1,0,0:0:0:0:
96,216,102350,1,0,0:0:0:0:
176,80,102611,1,8,0:0:0:0:
472,192,103132,1,0,0:0:0:0:
312,192,103393,1,0,0:0:0:0:
472,192,103654,1,8,0:0:0:0:
176,80,104176,5,4,0:0:0:0:
256,216,104437,1,0,0:0:0:0:
336,80,104698,1,8,0:0:0:0:
400,168,104958,2,0,B|384:272|384:280|376:283|272:320,1,210.000008010865
256,160,105741,1,8,0:0:0:0:
226,315,106002,2,0,B|136:283|128:280|128:272|112:168,1,210.000008010865
312,144,106785,1,8,0:0:0:0:
256,96,107045,2,0,B|184:192|320:192|246:306,1,210.000008010865
312,144,107828,5,8,0:0:0:0:
192,248,108089,1,0,0:0:0:0:
192,248,108350,1,0,0:0:0:0:
312,144,108611,1,0,0:0:0:0:
312,145,108741,1,0,0:0:0:0:
256,32,109393,5,0,0:0:0:0:
256,348,109915,1,8,0:0:0:0:
256,33,110437,5,4,0:0:0:0:
336,168,110698,1,0,0:0:0:0:
392,316,110959,1,8,0:0:0:0:
256,236,111220,1,0,0:0:0:0:
120,316,111480,1,0,0:0:0:0:
176,168,111741,1,0,0:0:0:0:
256,32,112002,1,8,0:0:0:0:
176,168,112263,1,0,0:0:0:0:
336,168,112524,2,0,L|177:306,1,210.000008010865,4|8,0:0|0:0,0:0:0:0:
336,306,113307,5,0,0:0:0:0:
335,306,113567,2,0,L|176:168,1,210.000008010865,0|8,0:0|0:0,0:0:0:0:
464,40,114610,2,0,P|416:85|427:115,2,105.000004005432,0|0|8,0:0|0:0|0:0,0:0:0:0:
464,198,115392,1,0,0:0:0:0:
464,198,115653,1,0,0:0:0:0:
464,198,115914,1,0,0:0:0:0:
328,120,116176,2,0,P|272:148|224:128,2,105.000004005432,8|0|0,0:0|0:0|0:0,0:0:0:0:
99,327,117220,5,8,0:0:0:0:
413,327,117741,1,0,0:0:0:0:
99,327,118263,1,8,0:0:0:0:
256,56,118785,5,4,0:0:0:0:
256,216,119046,1,0,0:0:0:0:
176,80,119307,1,8,0:0:0:0:
336,80,119567,1,0,0:0:0:0:
256,216,119828,1,0,0:0:0:0:
400,280,120089,1,0,0:0:0:0:
256,344,120350,1,8,0:0:0:0:
112,280,120611,1,0,0:0:0:0:
56,226,120872,6,0,P|103:160|172:242,1,210.000008010865,4|2,0:0|0:0,0:0:0:0:
312,144,122176,5,0,0:0:0:0:
312,144,122437,1,8,0:0:0:0:
312,144,122697,2,0,P|372:228|264:172,1,315.000012016297,0|8,0:0|0:0,0:0:0:0:
192,112,123741,6,0,P|132:148|148:204,1,105.000004005432,0|0,0:0|0:0,0:0:0:0:
436,252,124524,1,8,0:0:0:0:
276,276,124785,1,0,0:0:0:0:
332,132,125046,1,0,0:0:0:0:
436,252,125307,1,0,0:0:0:0:
436,252,125567,1,8,0:0:0:0:
360,72,126089,6,0,P|264:40|208:56,1,157.500006008148,0|0,0:0|0:0,0:0:0:0:
200,56,126611,2,0,P|144:96|119:179,1,157.500006008148,0|0,0:0|0:0,0:0:0:0:
120,192,127133,2,0,P|408:272|368:72,1,630.000024032594,4|0,0:0|0:0,0:0:0:0:
128,96,133654,5,0,0:0:0:0:
232,96,133915,1,8,0:0:0:0:
192,192,134176,1,0,0:0:0:0:
244,192,134306,2,0,L|401:192,1,157.500006008148
356,288,134958,2,0,L|146:288,1,210.000008010865,8|0,0:0|0:0,0:0:0:0:
128,96,139915,5,0,0:0:0:0:
232,96,140176,1,8,0:0:0:0:
192,192,140437,1,0,0:0:0:0:
244,192,140567,2,0,L|401:192,1,157.500006008148
356,288,141219,2,0,L|216:288,1,105.000004005432,8|0,0:0|0:0,0:0:0:0:
164,232,141741,2,0,B|156:152|132:136|92:120|84:80|92:32,1,210.000008010865,0|8,0:0|0:0,0:0:0:0:
288,116,142785,2,0,B|281:154|289:194|329:210|353:226|361:306,1,210.000008010865,0|8,0:0|0:0,0:0:0:0:
456,60,143828,5,4,0:0:0:0:
416,192,159480,5,0,0:0:0:0:
96,192,160002,1,0,0:0:0:0:
416,192,160524,1,0,0:0:0:0:
256,352,161567,5,0,0:0:0:0:
256,192,161828,1,0,0:0:0:0:
392,112,162089,1,0,0:0:0:0:
256,192,162350,1,0,0:0:0:0:
120,272,162611,1,0,0:0:0:0:
256,192,163393,5,0,0:0:0:0:
120,112,163654,1,0,0:0:0:0:
392,272,164176,1,0,0:0:0:0:
120,112,164698,1,0,0:0:0:0:
256,296,165741,6,0,B|320:192|192:192|256:88,1,210.000008010865
64,216,167567,5,0,0:0:0:0:
64,56,167828,1,0,0:0:0:0:
424,336,168350,1,0,0:0:0:0:
168,328,168872,5,0,0:0:0:0:
272,328,169132,1,0,0:0:0:0:
160,248,169393,1,8,0:0:0:0:
324,248,169654,1,0,0:0:0:0:
152,160,169915,1,0,0:0:0:0:
384,160,170176,1,0,0:0:0:0:
144,72,170437,1,8,0:0:0:0:
440,72,170698,1,0,0:0:0:0:
152,160,170958,5,0,0:0:0:0:
384,160,171219,1,0,0:0:0:0:
160,248,171480,1,8,0:0:0:0:
324,248,171741,1,0,0:0:0:0:
324,248,172002,1,0,0:0:0:0:
168,328,172263,1,0,0:0:0:0:
272,328,172524,1,8,0:0:0:0:
272,328,172784,2,0,P|420:272|456:92,1,315.000012016297,0|8,0:0|0:0,0:0:0:0:
281,76,173828,6,0,P|181:56|177:236,1,315.000012016297,0|8,0:0|0:0,0:0:0:0:
256,192,174872,5,0,0:0:0:0:
145,81,175132,2,0,L|225:161,2,105.000004005432,0|0|8,0:0|0:0|0:0,0:0:0:0:
256,192,175915,12,0,178263,0:0:0:0:
256,192,178785,5,8,0:0:0:0:
334,328,179306,5,4,0:0:0:0:
177,328,179567,1,0,0:0:0:0:
98,191,179828,1,8,0:0:0:0:
177,55,180089,1,0,0:0:0:0:
334,55,180350,5,0,0:0:0:0:
413,192,180611,1,0,0:0:0:0:
334,328,180872,1,8,0:0:0:0:
177,328,181132,1,0,0:0:0:0:
98,191,181393,5,4,0:0:0:0:
177,55,181654,1,0,0:0:0:0:
334,55,181915,1,8,0:0:0:0:
413,192,182176,1,0,0:0:0:0:
336,328,182437,6,0,L|400:224,1,105.000004005432,0|0,0:0|0:0,0:0:0:0:
352,88,182958,2,0,L|416:192,1,105.000004005432,8|0,0:0|0:0,0:0:0:0:
304,56,183480,6,0,L|192:56,1,105.000004005432,4|0,0:0|0:0,0:0:0:0:
104,184,184002,2,0,L|156:92,1,105.000004005432,8|0,0:0|0:0,0:0:0:0:
216,312,184524,6,8,B|424:176|304:120|256:176|256:176|208:120|88:176|296:312,1,560,0|0,0:0|0:0,0:0:0:0:
93,75,186350,6,0,L|181:139,1,105.000004005432,0|0,0:0|0:0,0:0:0:0:
336,136,186872,2,0,L|420:74,1,105.000004005432,0|8,0:0|0:0,0:0:0:0:
420,231,187393,2,0,L|336:293,1,105.000004005432,0|4,0:0|0:0,0:0:0:0:
177,293,187915,2,0,L|92:231,1,105.000004005432,0|8,0:0|0:0,0:0:0:0:
184,104,188437,5,0,0:0:0:0:
272,232,188698,1,0,0:0:0:0:
264,72,188958,1,0,0:0:0:0:
176,200,189219,1,8,0:0:0:0:
328,144,189480,1,0,0:0:0:0:
256,192,189741,12,0,190785,0:0:0:0:
312,248,191045,5,0,0:0:0:0:
200,136,191306,1,8,0:0:0:0:
312,248,191567,2,0,P|412:296|400:132,1,315.000012016297,0|8,0:0|0:0,0:0:0:0:
309,49,192611,6,0,P|259:31|195:63,1,105.000004005432,0|0,0:0|0:0,0:0:0:0:
88,152,193132,1,0,0:0:0:0:
80,312,193393,2,0,P|56:224|96:200,1,105.000004005432,8|0,0:0|0:0,0:0:0:0:
136,360,193915,1,0,0:0:0:0:
280,296,194176,1,0,0:0:0:0:
384,176,194437,1,8,0:0:0:0:
120,112,194958,6,0,L|256:192,1,157.500006008148,0|0,0:0|0:0,0:0:0:0:
256,192,195480,2,0,L|392:112,1,157.500006008148,8|0,0:0|0:0,0:0:0:0:
256,192,196002,12,0,197045,0:0:0:0:
317,221,197306,6,0,B|344:208|384:136|336:104|312:136,1,140,0|8,0:0|0:0,0:0:0:0:
256,272,197828,1,0,0:0:0:0:
198,133,198089,2,0,B|176:104|128:136|168:208|194:221,1,140,0|0,0:0|0:0,0:0:0:0:
256,168,198611,1,8,0:0:0:0:
96,280,199132,5,0,0:0:0:0:
416,104,199654,1,8,0:0:0:0:
256,192,200176,12,0,201219,0:0:0:0:
194,221,201480,6,0,B|168:208|128:136|176:104|200:136,1,140,0|8,0:0|0:0,0:0:0:0:
256,272,202002,1,0,0:0:0:0:
314,133,202263,2,0,B|336:104|384:136|344:208|317:221,1,140,0|0,0:0|0:0,0:0:0:0:
256,168,202785,1,8,0:0:0:0:
256,64,203045,5,0,0:0:0:0:
256,344,203306,2,0,L|256:232,1,105.000004005432,0|0,0:0|0:0,0:0:0:0:
256,64,203828,2,0,L|256:176,1,105.000004005432,8|0,0:0|0:0,0:0:0:0:
168,248,204350,2,0,P|269:202|349:274,1,210.000008010865,4|8,0:0|0:0,0:0:0:0:
128,80,205393,5,0,0:0:0:0:
256,172,205654,1,0,0:0:0:0:
128,264,205915,1,8,0:0:0:0:
256,356,206176,1,0,0:0:0:0:
256,192,206437,12,0,207480,0:0:0:0:
412,100,207741,5,0,0:0:0:0:
368,304,208002,1,8,0:0:0:0:
220,156,208262,2,0,P|116:96|112:264,1,315.000012016297
203,335,209306,6,0,P|253:353|317:321,1,105.000004005432
424,232,209827,1,0,0:0:0:0:
432,72,210089,2,0,P|456:160|416:184,1,105.000004005432,8|0,0:0|0:0,0:0:0:0:
376,24,210610,1,0,0:0:0:0:
232,88,210871,1,0,0:0:0:0:
128,208,211132,1,8,0:0:0:0:
392,112,211654,6,0,L|256:192,1,157.500006008148,0|0,0:0|0:0,0:0:0:0:
256,192,212176,2,0,L|120:112,1,157.500006008148,8|0,0:0|0:0,0:0:0:0:
256,192,212698,12,0,214784,0:0:0:0:
120,272,215828,6,2,L|256:192,1,157.500006008148
256,192,216350,2,2,L|392:272,1,157.500006008148
256,192,216872,12,0,218958,0:0:0:0:
176,56,220002,6,2,L|256:192,1,157.500006008148
256,192,220524,2,2,L|176:328,1,157.500006008148
256,192,221046,12,0,223132,0:0:0:0:
336,328,224176,6,2,L|256:192,1,157.500006008148
256,192,224698,2,2,L|336:56,1,157.500006008148
256,192,225220,12,0,227306,0:0:0:0:
256,192,227828,12,4,229393,0:0:0:0:
256,316,229654,5,4,0:0:0:0:
404,264,229915,1,4,0:0:0:0:
311,136,230306,5,8,0:0:0:0:
311,136,230437,1,8,0:0:0:0:
311,136,230567,1,8,0:0:0:0:
376,296,231480,5,0,0:0:0:0:
136,296,232002,5,8,0:0:0:0:
136,296,232263,1,8,0:0:0:0:
136,296,232393,1,8,0:0:0:0:
136,296,232524,1,8,0:0:0:0:
136,88,233567,5,2,0:0:0:0:
256,192,234089,12,4,235654,0:0:0:0:
256,192,235915,12,4,237741,0:0:0:0:
