osu file format v12

[General]
AudioFilename: CLIMAX of MAXX 360 - PARANOiA Revolution.mp3
AudioLeadIn: 0
PreviewTime: 43416
Countdown: 0
SampleSet: Soft
StackLeniency: 0.7
Mode: 3
LetterboxInBreaks: 0
SpecialStyle: 0
WidescreenStoryboard: 1

[Editor]
DistanceSpacing: 0.8
BeatDivisor: 4
GridSize: 32
TimelineZoom: 1

[Metadata]
Title:PARANOiA Revolution
TitleUnicode:PARANOiA Revolution
Artist:CLIMAX of MAXX 360
ArtistUnicode:CLIMAX of MAXX 360
Creator:Awang411
Version:Beginner
Source:DDR
Tags:DDR, paranoia, revolution, climax.
BeatmapID:405789
BeatmapSetID:158070

[Difficulty]
HPDrainRate:8
CircleSize:4
OverallDifficulty:8
ApproachRate:7
SliderMultiplier:1.4
SliderTickRate:1

[Events]
//Background and Video events
0,0,"600px-DDR_X3_vs_2ndMIX_PARANOiA_Revolution_(Ex)_【BG】.jpg",0,0
//Break Periods
//Storyboard Layer 0 (Background)
//Storyboard Layer 1 (Fail)
//Storyboard Layer 2 (Pass)
//Storyboard Layer 3 (Foreground)
//Storyboard Sound Samples
//Background Colour Transformations
3,100,163,162,255

[TimingPoints]
750,333.333333333333,4,2,0,100,1,0
43416,-200,4,2,0,100,0,1
64749,-100,4,2,0,100,0,0
75083,-1000,4,2,0,100,0,0
75249,-100,4,2,0,100,0,0

[HitObjects]
192,192,1083,5,0,0:0:0:0:
64,192,1083,1,0,0:0:0:0:
448,192,1749,1,0,0:0:0:0:
320,192,1749,1,0,0:0:0:0:
64,192,2416,1,0,0:0:0:0:
192,192,2416,1,0,0:0:0:0:
448,192,3083,1,0,0:0:0:0:
320,192,3083,1,0,0:0:0:0:
64,192,3749,1,0,0:0:0:0:
192,192,3749,1,0,0:0:0:0:
320,192,4416,1,0,0:0:0:0:
448,192,4416,1,0,0:0:0:0:
192,192,4749,1,0,0:0:0:0:
320,192,5083,1,0,0:0:0:0:
192,192,5416,1,0,0:0:0:0:
320,192,5749,1,0,0:0:0:0:
64,192,6083,1,0,0:0:0:0:
448,192,6083,1,0,0:0:0:0:
448,192,7416,1,0,0:0:0:0:
64,192,7416,1,0,0:0:0:0:
64,192,8749,1,0,0:0:0:0:
448,192,8749,1,0,0:0:0:0:
64,192,9416,1,0,0:0:0:0:
448,192,9416,1,0,0:0:0:0:
64,192,10083,128,0,11416:0:0:0:0:
192,192,10416,128,0,11416:0:0:0:0:
320,192,10749,128,0,11416:0:0:0:0:
448,192,11083,128,0,11416:0:0:0:0:
64,192,11749,1,0,0:0:0:0:
320,192,11749,1,0,0:0:0:0:
448,192,12416,1,0,0:0:0:0:
192,192,12416,1,0,0:0:0:0:
64,192,13083,1,0,0:0:0:0:
320,192,13083,1,0,0:0:0:0:
448,192,13749,1,0,0:0:0:0:
192,192,13749,1,0,0:0:0:0:
64,192,14416,1,0,0:0:0:0:
320,192,14416,1,0,0:0:0:0:
192,192,15083,1,0,0:0:0:0:
448,192,15083,1,0,0:0:0:0:
64,192,15749,1,0,0:0:0:0:
320,192,15749,1,0,0:0:0:0:
192,192,16416,1,0,0:0:0:0:
448,192,16416,1,0,0:0:0:0:
192,192,17083,1,0,0:0:0:0:
320,192,17083,1,0,0:0:0:0:
64,192,17749,1,0,0:0:0:0:
448,192,17749,1,0,0:0:0:0:
192,192,18416,1,0,0:0:0:0:
320,192,18416,1,0,0:0:0:0:
64,192,19083,1,0,0:0:0:0:
448,192,19083,1,0,0:0:0:0:
192,192,19749,1,0,0:0:0:0:
320,192,19749,1,0,0:0:0:0:
64,192,20416,1,0,0:0:0:0:
448,192,20416,1,0,0:0:0:0:
448,192,20749,128,0,22083:0:0:0:0:
320,192,21083,128,0,22083:0:0:0:0:
192,192,21416,128,0,22083:0:0:0:0:
64,192,21749,128,0,22083:0:0:0:0:
64,192,22416,1,0,0:0:0:0:
192,192,22416,1,0,0:0:0:0:
64,192,22916,1,0,0:0:0:0:
192,192,22916,1,0,0:0:0:0:
64,192,23416,1,0,0:0:0:0:
192,192,23416,1,0,0:0:0:0:
64,192,23916,1,0,0:0:0:0:
192,192,23916,1,0,0:0:0:0:
64,192,24416,1,0,0:0:0:0:
192,192,24416,1,0,0:0:0:0:
320,192,25083,1,0,0:0:0:0:
448,192,25083,1,0,0:0:0:0:
320,192,25583,1,0,0:0:0:0:
448,192,25583,1,0,0:0:0:0:
320,192,26083,1,0,0:0:0:0:
448,192,26083,1,0,0:0:0:0:
320,192,26583,1,0,0:0:0:0:
448,192,26583,1,0,0:0:0:0:
320,192,27083,1,0,0:0:0:0:
448,192,27083,1,0,0:0:0:0:
192,192,27749,1,0,0:0:0:0:
320,192,27749,1,0,0:0:0:0:
64,192,28249,1,0,0:0:0:0:
448,192,28249,1,0,0:0:0:0:
192,192,28749,1,0,0:0:0:0:
320,192,28749,1,0,0:0:0:0:
64,192,29249,1,0,0:0:0:0:
448,192,29249,1,0,0:0:0:0:
192,192,29749,1,0,0:0:0:0:
320,192,29749,1,0,0:0:0:0:
192,192,30416,1,0,0:0:0:0:
448,192,30416,1,0,0:0:0:0:
64,192,30916,1,0,0:0:0:0:
320,192,30916,1,0,0:0:0:0:
192,192,31416,128,0,32749:0:0:0:0:
320,192,31749,128,0,32749:0:0:0:0:
64,192,32083,128,0,32749:0:0:0:0:
448,192,32416,128,0,32749:0:0:0:0:
192,192,33083,1,0,0:0:0:0:
448,192,33083,1,0,0:0:0:0:
64,192,33749,1,0,0:0:0:0:
320,192,33749,1,0,0:0:0:0:
192,192,34416,1,0,0:0:0:0:
448,192,34416,1,0,0:0:0:0:
64,192,35083,1,0,0:0:0:0:
320,192,35083,1,0,0:0:0:0:
192,192,35749,1,0,0:0:0:0:
64,192,35749,1,0,0:0:0:0:
320,192,36416,1,0,0:0:0:0:
448,192,36416,1,0,0:0:0:0:
192,192,36749,1,0,0:0:0:0:
320,192,37083,1,0,0:0:0:0:
192,192,37416,1,0,0:0:0:0:
320,192,37749,1,0,0:0:0:0:
192,192,38083,1,0,0:0:0:0:
320,192,38083,1,0,0:0:0:0:
192,192,39416,1,0,0:0:0:0:
320,192,39416,1,0,0:0:0:0:
192,192,40749,1,0,0:0:0:0:
320,192,40749,1,0,0:0:0:0:
192,192,41416,1,0,0:0:0:0:
320,192,41416,1,0,0:0:0:0:
64,192,42083,1,0,0:0:0:0:
192,192,42083,1,0,0:0:0:0:
64,192,42416,1,0,0:0:0:0:
320,192,42416,1,0,0:0:0:0:
192,192,42749,1,0,0:0:0:0:
448,192,42749,1,0,0:0:0:0:
320,192,43083,1,0,0:0:0:0:
448,192,43083,1,0,0:0:0:0:
320,192,43416,128,0,45749:0:0:0:0:
448,192,45749,128,0,46083:0:0:0:0:
320,192,46083,128,0,48083:0:0:0:0:
192,192,48083,128,0,48416:0:0:0:0:
64,192,48416,128,0,48749:0:0:0:0:
192,192,48749,128,0,49249:0:0:0:0:
320,192,49249,128,0,49749:0:0:0:0:
64,192,49749,128,0,52083:0:0:0:0:
448,192,52083,128,0,52749:0:0:0:0:
320,192,52749,128,0,53416:0:0:0:0:
192,192,53416,128,0,54083:0:0:0:0:
64,192,54083,128,0,54583:0:0:0:0:
192,192,54583,128,0,56416:0:0:0:0:
320,192,56416,128,0,56749:0:0:0:0:
192,192,56749,128,0,58083:0:0:0:0:
448,192,58083,128,0,59416:0:0:0:0:
64,192,59416,128,0,64749:0:0:0:0:
192,192,60749,128,0,64749:0:0:0:0:
320,192,62083,128,0,64749:0:0:0:0:
448,192,63416,128,0,64749:0:0:0:0:
64,192,65083,1,0,0:0:0:0:
192,192,65083,1,0,0:0:0:0:
320,192,65749,1,0,0:0:0:0:
448,192,65749,1,0,0:0:0:0:
192,192,66416,1,0,0:0:0:0:
320,192,66416,1,0,0:0:0:0:
192,192,67083,1,0,0:0:0:0:
448,192,67083,1,0,0:0:0:0:
64,192,67749,1,0,0:0:0:0:
320,192,67749,1,0,0:0:0:0:
64,192,68416,1,0,0:0:0:0:
192,192,68416,1,0,0:0:0:0:
192,192,69083,1,0,0:0:0:0:
320,192,69083,1,0,0:0:0:0:
320,192,69749,1,0,0:0:0:0:
448,192,69749,1,0,0:0:0:0:
320,192,70083,1,0,0:0:0:0:
64,192,70416,1,0,0:0:0:0:
192,192,70416,1,0,0:0:0:0:
64,192,71083,1,0,0:0:0:0:
320,192,71083,1,0,0:0:0:0:
192,192,71749,1,0,0:0:0:0:
320,192,71749,1,0,0:0:0:0:
192,192,72416,1,0,0:0:0:0:
448,192,72416,1,0,0:0:0:0:
320,192,73083,1,0,0:0:0:0:
448,192,73083,1,0,0:0:0:0:
192,192,73749,1,0,0:0:0:0:
448,192,73749,1,0,0:0:0:0:
64,192,74083,128,0,75083:0:0:0:0:
192,192,74416,128,0,75083:0:0:0:0:
320,192,74749,128,0,75083:0:0:0:0:
448,192,75083,128,0,75416:0:0:0:0:
192,192,75416,1,0,0:0:0:0:
64,192,75749,1,0,0:0:0:0:
192,192,75749,1,0,0:0:0:0:
64,192,76083,1,0,0:0:0:0:
320,192,76416,1,0,0:0:0:0:
448,192,76416,1,0,0:0:0:0:
64,192,76749,1,0,0:0:0:0:
192,192,77083,1,0,0:0:0:0:
320,192,77083,1,0,0:0:0:0:
448,192,77416,1,0,0:0:0:0:
64,192,77749,1,0,0:0:0:0:
192,192,77749,1,0,0:0:0:0:
64,192,78083,1,0,0:0:0:0:
192,192,78416,1,0,0:0:0:0:
320,192,78416,1,0,0:0:0:0:
448,192,78749,1,0,0:0:0:0:
64,192,79083,1,0,0:0:0:0:
320,192,79083,1,0,0:0:0:0:
192,192,79416,1,0,0:0:0:0:
448,192,79749,1,0,0:0:0:0:
64,192,79749,1,0,0:0:0:0:
192,192,80083,1,0,0:0:0:0:
64,192,80416,1,0,0:0:0:0:
448,192,80416,1,0,0:0:0:0:
320,192,80749,1,0,0:0:0:0:
192,192,81083,1,0,0:0:0:0:
448,192,81083,1,0,0:0:0:0:
320,192,81416,1,0,0:0:0:0:
64,192,81749,1,0,0:0:0:0:
192,192,81749,1,0,0:0:0:0:
320,192,82083,1,0,0:0:0:0:
192,192,82416,1,0,0:0:0:0:
448,192,82416,1,0,0:0:0:0:
64,192,82749,1,0,0:0:0:0:
192,192,83083,1,0,0:0:0:0:
448,192,83083,1,0,0:0:0:0:
320,192,83416,1,0,0:0:0:0:
64,192,83749,1,0,0:0:0:0:
192,192,83749,1,0,0:0:0:0:
64,192,84083,1,0,0:0:0:0:
320,192,84416,1,0,0:0:0:0:
448,192,84416,1,0,0:0:0:0:
64,192,84749,1,0,0:0:0:0:
192,192,84749,1,0,0:0:0:0:
320,192,85083,1,0,0:0:0:0:
448,192,85083,1,0,0:0:0:0:
64,192,85416,1,0,0:0:0:0:
192,192,85416,1,0,0:0:0:0:
320,192,85583,1,0,0:0:0:0:
448,192,85583,1,0,0:0:0:0:
64,192,85749,1,0,0:0:0:0:
192,192,85749,1,0,0:0:0:0:
320,192,85916,1,0,0:0:0:0:
448,192,85916,1,0,0:0:0:0:
64,192,86083,1,0,0:0:0:0:
192,192,86083,1,0,0:0:0:0:
64,192,86249,1,0,0:0:0:0:
192,192,86249,1,0,0:0:0:0:
320,192,86416,1,0,0:0:0:0:
64,192,86749,1,0,0:0:0:0:
192,192,87083,1,0,0:0:0:0:
64,192,87416,1,0,0:0:0:0:
192,192,87749,1,0,0:0:0:0:
320,192,87916,1,0,0:0:0:0:
448,192,87916,1,0,0:0:0:0:
192,192,88083,1,0,0:0:0:0:
320,192,88416,1,0,0:0:0:0:
448,192,88416,1,0,0:0:0:0:
64,192,88749,1,0,0:0:0:0:
192,192,88749,1,0,0:0:0:0:
64,192,88916,1,0,0:0:0:0:
192,192,88916,1,0,0:0:0:0:
320,192,89083,1,0,0:0:0:0:
64,192,89416,1,0,0:0:0:0:
192,192,89749,1,0,0:0:0:0:
64,192,90083,1,0,0:0:0:0:
448,192,90416,1,0,0:0:0:0:
320,192,90749,1,0,0:0:0:0:
192,192,91083,1,0,0:0:0:0:
64,192,91416,1,0,0:0:0:0:
192,192,91416,1,0,0:0:0:0:
64,192,91583,1,0,0:0:0:0:
192,192,91583,1,0,0:0:0:0:
320,192,91749,1,0,0:0:0:0:
64,192,92083,1,0,0:0:0:0:
192,192,92416,1,0,0:0:0:0:
64,192,92749,1,0,0:0:0:0:
192,192,93083,1,0,0:0:0:0:
320,192,93249,1,0,0:0:0:0:
448,192,93249,1,0,0:0:0:0:
192,192,93416,1,0,0:0:0:0:
320,192,93749,1,0,0:0:0:0:
448,192,93749,1,0,0:0:0:0:
64,192,94083,1,0,0:0:0:0:
192,192,94083,1,0,0:0:0:0:
64,192,94249,1,0,0:0:0:0:
192,192,94249,1,0,0:0:0:0:
320,192,94416,1,0,0:0:0:0:
64,192,94749,1,0,0:0:0:0:
192,192,95083,1,0,0:0:0:0:
448,192,95416,128,0,96749:0:0:0:0:
320,192,95749,128,0,96749:0:0:0:0:
192,192,96083,128,0,96749:0:0:0:0:
64,192,96416,128,0,96749:0:0:0:0:
320,192,97249,128,0,104749:0:0:0:0:
192,192,97249,128,0,104749:0:0:0:0:
64,192,104749,1,0,0:0:0:0:
448,192,104749,1,0,0:0:0:0:
320,192,104916,1,0,0:0:0:0:
64,192,105083,1,0,0:0:0:0:
448,192,105083,1,0,0:0:0:0:
192,192,105249,1,0,0:0:0:0:
64,192,105416,1,0,0:0:0:0:
448,192,105416,1,0,0:0:0:0:
320,192,105583,1,0,0:0:0:0:
64,192,105749,1,0,0:0:0:0:
448,192,105749,1,0,0:0:0:0:
192,192,105916,1,0,0:0:0:0:
64,192,106083,1,0,0:0:0:0:
448,192,106083,1,0,0:0:0:0:
