osu file format v12

[General]
AudioFilename: CLIFF EDGE feat. Nakamura Maiko - Endless Tears.mp3
AudioLeadIn: 1000
PreviewTime: 112772
Countdown: 0
SampleSet: Soft
StackLeniency: 0.7
Mode: 0
LetterboxInBreaks: 0
WidescreenStoryboard: 0

[Editor]
Bookmarks: 74606,75802,160347
DistanceSpacing: 1.4
BeatDivisor: 4
GridSize: 4
TimelineZoom: 1

[Metadata]
Title:Endless Tears
TitleUnicode:Endless Tears
Artist:CLIFF EDGE feat. Nakamura Maiko
ArtistUnicode:CLIFF EDGE feat. 中村舞子
Creator:Rakuen
Version:Insane
Source:
Tags:Best of Love is a beautiful pain 爱你真的好痛苦 _AI xXCrystalMoonAnimeXx Tari
BeatmapID:321506
BeatmapSetID:123489

[Difficulty]
HPDrainRate:7
CircleSize:4
OverallDifficulty:7
ApproachRate:9
SliderMultiplier:2.2
SliderTickRate:1

[Events]
//Background and Video events
0,0,"4UeUH.jpg",0,0
Video,0,"Love is a Beautiful Pain.avi"
//Break Periods
2,50547,54596
2,132972,137020
2,176608,185202
//Storyboard Layer 0 (Background)
//Storyboard Layer 1 (Fail)
//Storyboard Layer 2 (Pass)
//Storyboard Layer 3 (Foreground)
//Storyboard Sound Samples
//Background Colour Transformations
3,100,163,162,255

[TimingPoints]
651,606.060606060606,4,2,1,50,1,0
5044,-100,4,2,1,30,0,0
5196,-100,4,2,1,60,0,0
5499,-100,4,2,1,50,0,0
30954,606.060606060606,4,2,1,70,1,1
30954,-83.3333333333333,4,2,1,70,0,1
35196,-83.3333333333333,4,2,1,75,0,1
35802,-83.3333333333333,4,2,1,70,0,1
40044,-83.3333333333333,4,2,1,75,0,1
40651,-83.3333333333333,4,2,1,70,0,1
49741,-83.3333333333333,4,2,1,75,0,1
50347,-83.3333333333333,4,2,1,40,0,0
55196,-100,4,2,1,40,0,0
74590,-100,4,2,1,50,0,0
93984,-83.3333333333333,4,2,1,70,0,1
98226,-83.3333333333333,4,2,1,75,0,1
98832,-83.3333333333333,4,2,1,70,0,1
103075,-83.3333333333333,4,2,1,75,0,1
103681,-83.3333333333333,4,2,1,70,0,1
112166,-100,4,2,1,60,0,0
113378,-83.3333333333333,4,2,1,70,0,1
121863,-83.3333333333333,4,2,1,60,0,0
123075,-83.3333333333333,4,2,1,70,0,1
132772,-100,4,2,1,40,0,0
137620,-100,4,2,1,60,0,0
176408,-100,4,2,1,40,0,0
197014,606.060606060606,4,2,1,70,1,1
197014,-83.3333333333333,4,2,1,70,0,1
201256,-83.3333333333333,4,2,1,75,0,1
201862,-83.3333333333333,4,2,1,70,0,1
206104,-83.3333333333333,4,2,1,75,0,1
206710,-83.3333333333333,4,2,1,70,0,1
215195,-100,4,2,1,60,0,0
216407,-83.3333333333333,4,2,1,70,0,1
224892,-83.3333333333333,4,2,1,60,0,0
226104,-83.3333333333333,4,2,1,70,0,1
235801,-100,4,2,1,40,0,0
254741,-100,4,2,1,60,0,0
254892,-100,4,2,1,70,0,0
255044,-100,4,2,1,80,0,0
255195,-100,4,2,1,30,0,0
256407,-100,4,2,1,20,0,0
257620,-100,4,2,1,10,0,0
258832,-100,4,2,1,5,0,0

[Colours]
Combo1 : 255,0,128
Combo2 : 134,13,255
Combo3 : 98,204,255
Combo4 : 255,128,255

[HitObjects]
330,52,651,6,0,P|276:66|238:126,1,110,2|0,0:0|0:0,0:0:0:0:
174,61,1105,2,0,P|159:116|193:178,1,110,2|0,0:0|0:0,0:0:0:0:
256,192,1560,1,2,0:0:0:0:
340,326,1863,6,0,P|355:272|322:209,1,110,2|0,0:0|0:0,0:0:0:0:
410,186,2317,2,0,P|370:145|299:144,1,110,2|0,0:0|0:0,0:0:0:0:
256,192,2772,1,2,0:0:0:0:
97,197,3075,6,0,P|136:237|207:240,1,110,2|0,0:0|0:0,0:0:0:0:
183,328,3529,2,0,P|238:314|275:253,1,110,2|0,0:0|0:0,0:0:0:0:
256,192,3984,1,2,0:0:0:0:
372,76,4287,6,0,L|410:37,1,55,2|2,0:0|0:0,0:0:0:0:
378,159,4590,2,0,L|339:197,1,55,0|2,0:0|0:0,0:0:0:0:
256,192,4893,5,2,0:0:0:0:
196,136,5044,1,2,0:0:0:0:
232,60,5196,1,2,0:0:0:0:
312,72,5347,1,2,0:0:0:0:
332,152,5499,6,0,P|387:105|374:18,2,165,2|2|2,0:0|0:0|0:0,0:0:0:0:
172,188,6711,6,0,P|157:110|215:55,1,165,2|2,0:0|0:0,0:0:0:0:
312,188,7469,2,0,P|344:212|372:216,1,55,0|2,0:0|0:0,0:0:0:0:
374,134,7772,1,0,0:0:0:0:
374,134,7923,6,0,P|295:107|232:170,1,165,2|2,0:0|0:0,0:0:0:0:
428,312,8832,2,0,P|472:270|476:200,1,110,2|2,0:0|0:0,0:0:0:0:
256,192,9287,12,0,10196,0:0:0:0:
241,220,10347,6,0,P|266:211|288:195,1,55,2|0,0:0|0:0,0:0:0:0:
157,189,10651,1,2,0:0:0:0:
172,276,10802,2,0,P|220:304|276:300,1,110,2|0,0:0|0:0,0:0:0:0:
348,256,11257,1,2,0:0:0:0:
289,195,11408,1,0,0:0:0:0:
313,111,11560,6,0,L|373:151,1,55,2|0,0:0|0:0,0:0:0:0:
289,195,11863,1,2,0:0:0:0:
226,256,12014,2,0,P|276:282|336:270,1,110,2|0,0:0|0:0,0:0:0:0:
289,195,12469,2,0,L|229:155,1,55,2|0,0:0|0:0,0:0:0:0:
158,191,12772,6,0,P|132:238|140:291,1,110,2|0,0:0|0:0,0:0:0:0:
108,120,13226,2,0,P|154:92|174:42,2,110,2|2|0,0:0|0:0|0:0,0:0:0:0:
60,192,13984,1,2,0:0:0:0:
256,244,14287,2,0,L|256:298,2,55,2|0|2,0:0|0:0|0:0,0:0:0:0:
256,156,14741,5,2,0:0:0:0:
176,192,14893,1,2,0:0:0:0:
336,192,15044,1,2,0:0:0:0:
339,103,15196,6,0,L|291:55,1,55,2|0,0:0|0:0,0:0:0:0:
211,64,15499,2,0,L|173:103,1,55,0|2,0:0|0:0,0:0:0:0:
176,192,15802,1,0,0:0:0:0:
134,269,15954,2,0,P|94:233|88:179,1,110,2|0,0:0|0:0,0:0:0:0:
176,192,16408,5,2,0:0:0:0:
212,272,16560,1,2,0:0:0:0:
300,272,16711,1,0,0:0:0:0:
336,192,16863,1,0,0:0:0:0:
336,192,17014,6,0,P|316:136|260:112,1,110,2|0,0:0|0:0,0:0:0:0:
256,192,17469,1,0,0:0:0:0:
238,270,17620,2,0,P|192:243|176:192,1,110,2|0,0:0|0:0,0:0:0:0:
368,140,18075,2,0,P|412:170|424:222,2,110,2|0|2,0:0|0:0|0:0,0:0:0:0:
338,223,18832,2,0,P|350:275|394:305,1,110,0|0,0:0|0:0,0:0:0:0:
292,344,19287,2,0,L|256:288,1,55,0|2,0:0|0:0,0:0:0:0:
176,296,19590,6,0,L|190:230,2,55,0|0|0,0:0|0:0|0:0,0:0:0:0:
88,300,20044,5,2,0:0:0:0:
51,220,20196,1,2,0:0:0:0:
96,144,20347,1,0,0:0:0:0:
52,68,20499,1,2,0:0:0:0:
52,68,20802,5,2,0:0:0:0:
7,144,20954,1,0,0:0:0:0:
51,220,21105,1,2,0:0:0:0:
139,220,21257,1,2,0:0:0:0:
183,144,21408,1,0,0:0:0:0:
139,68,21560,1,2,0:0:0:0:
96,144,21711,1,2,0:0:0:0:
216,224,21863,6,0,P|256:188|276:128,1,110,2|0,0:0|0:0,0:0:0:0:
324,63,22317,1,0,0:0:0:0:
412,48,22469,2,0,P|448:88|508:107,1,110,2|0,0:0|0:0,0:0:0:0:
478,191,22923,2,0,P|430:179|378:143,1,110,2|0,0:0|0:0,0:0:0:0:
318,207,23378,2,0,P|349:251|363:304,1,110,2|2,0:0|0:0,0:0:0:0:
187,310,23984,1,0,0:0:0:0:
187,310,24135,2,0,P|159:290|139:262,1,55,0|2,0:0|0:0,0:0:0:0:
256,136,24590,1,0,0:0:0:0:
395,271,24893,6,0,P|339:255|300:211,1,110,2|0,0:0|0:0,0:0:0:0:
256,292,25347,1,0,0:0:0:0:
118,272,25499,2,0,P|159:232|217:220,1,110,2|0,0:0|0:0,0:0:0:0:
169,142,25954,1,0,0:0:0:0:
254,32,26105,2,0,P|269:88|250:144,1,110,2|0,0:0|0:0,0:0:0:0:
428,172,26711,1,2,0:0:0:0:
376,340,27014,1,0,0:0:0:0:
200,316,27317,6,0,P|252:260|256:220,1,110,2|0,0:0|0:0,0:0:0:0:
344,244,27772,2,0,P|338:190|304:147,1,110,2|0,0:0|0:0,0:0:0:0:
380,100,28226,2,0,P|337:66|283:60,1,110,2|2,0:0|0:0,0:0:0:0:
256,192,28681,12,2,30347,0:0:0:0:
388,248,30954,6,0,P|320:248|260:296,1,131.99999597168,6|0,0:0|0:0,0:0:0:0:
200,344,31408,1,0,0:0:0:0:
136,276,31560,2,0,P|184:227|192:151,1,131.99999597168,8|0,0:0|0:0,0:0:0:0:
112,128,32014,1,0,0:0:0:0:
60,52,32166,2,0,L|121:27,1,65.9999979858399,2|0,0:0|0:0,0:0:0:0:
272,69,32469,2,0,L|212:44,1,65.9999979858399
315,150,32772,2,0,P|358:102|360:38,1,131.99999597168,8|0,0:0|0:0,0:0:0:0:
272,69,33226,1,0,0:0:0:0:
200,124,33378,6,0,L|152:188,1,65.9999979858399,2|0,0:0|0:0,0:0:0:0:
72,152,33681,2,0,L|111:99,1,65.9999979858399,0|0,0:0|0:0,0:0:0:0:
248,204,33984,2,0,P|200:256|128:256,1,131.99999597168,8|0,0:0|0:0,0:0:0:0:
391,174,34590,2,0,L|352:228,1,65.9999979858399,2|0,0:0|0:0,0:0:0:0:
388,328,34893,2,0,L|427:274,1,65.9999979858399,2|0,0:0|0:0,0:0:0:0:
404,84,35196,1,8,0:0:0:0:
320,48,35347,1,2,0:0:0:0:
264,120,35499,1,2,0:0:0:0:
180,84,35650,1,2,0:0:0:0:
92,112,35802,6,0,L|16:236,1,131.99999597168,2|0,0:0|0:0,0:0:0:0:
80,296,36257,1,0,0:0:0:0:
144,232,36408,2,0,P|216:228|272:272,1,131.99999597168,8|0,0:0|0:0,0:0:0:0:
338,315,36863,1,0,0:0:0:0:
432,316,37014,2,0,P|460:304|484:272,1,65.9999979858399,2|0,0:0|0:0,0:0:0:0:
409,164,37317,2,0,P|398:195|402:228,1,65.9999979858399
492,204,37620,2,0,P|496:136|448:81,1,131.99999597168,8|0,0:0|0:0,0:0:0:0:
398,17,38075,1,0,0:0:0:0:
292,48,38226,6,0,L|341:91,1,65.9999979858399,2|0,0:0|0:0,0:0:0:0:
312,180,38529,2,0,L|252:128,1,65.9999979858399,0|0,0:0|0:0,0:0:0:0:
200,68,38832,2,0,P|168:128|200:200,1,131.99999597168,8|0,0:0|0:0,0:0:0:0:
262,136,39287,1,0,0:0:0:0:
355,259,39438,2,0,P|383:239|399:207,1,65.9999979858399,2|0,0:0|0:0,0:0:0:0:
312,180,39741,2,0,P|284:200|268:231,1,65.9999979858399,2|0,0:0|0:0,0:0:0:0:
200,164,40044,2,0,P|196:129|176:99,1,65.9999979858399,8|2,0:0|0:0,0:0:0:0:
110,161,40347,2,0,P|113:195|132:224,1,65.9999979858399,2|2,0:0|0:0,0:0:0:0:
216,284,40650,6,0,P|268:228|268:132,1,131.99999597168,6|0,0:0|0:0,0:0:0:0:
226,97,41105,2,0,P|200:121|188:153,1,65.9999979858399,0|8,0:0|0:0,0:0:0:0:
278,175,41408,1,0,0:0:0:0:
368,192,41560,2,0,L|484:112,1,131.99999597168,0|2,0:0|0:0,0:0:0:0:
424,40,42014,2,0,P|391:37|360:49,1,65.9999979858399
268,52,42317,2,0,P|240:40|212:4,1,65.9999979858399,0|8,0:0|0:0,0:0:0:0:
124,32,42620,1,0,0:0:0:0:
124,124,42772,1,0,0:0:0:0:
216,128,42923,1,0,0:0:0:0:
268,52,43075,6,0,P|326:77|348:138,1,131.99999597168,2|0,0:0|0:0,0:0:0:0:
256,142,43529,1,0,0:0:0:0:
163,144,43681,2,0,P|184:204|243:229,2,131.99999597168,8|0|2,0:0|0:0|0:0,0:0:0:0:
256,142,44438,1,0,0:0:0:0:
332,196,44590,1,2,0:0:0:0:
320,288,44741,1,0,0:0:0:0:
384,356,44893,6,0,P|440:336|480:276,2,131.99999597168,8|0|2,0:0|0:0|0:0,0:0:0:0:
180,188,45802,1,2,0:0:0:0:
192,96,45954,1,0,0:0:0:0:
128,28,46105,2,0,P|71:48|32:108,2,131.99999597168,8|0|2,0:0|0:0|0:0,0:0:0:0:
192,96,46863,1,0,0:0:0:0:
276,136,47014,1,2,0:0:0:0:
344,72,47166,1,0,0:0:0:0:
432,104,47317,1,10,0:0:0:0:
424,196,47469,1,0,0:0:0:0:
360,260,47620,6,0,L|304:308,1,65.9999979858399,2|0,0:0|0:0,0:0:0:0:
224,332,47923,2,0,P|152:316|116:260,1,131.99999597168,2|0,0:0|0:0,0:0:0:0:
132,180,48378,2,0,P|168:196|188:236,1,65.9999979858399,2|8,0:0|0:0,0:0:0:0:
360,260,48832,2,0,P|366:195|328:143,1,131.99999597168,2|2,0:0|0:0,0:0:0:0:
248,103,49287,5,0,0:0:0:0:
180,243,49438,1,2,0:0:0:0:
340,223,49590,1,0,0:0:0:0:
168,151,49741,5,8,0:0:0:0:
264,279,49893,1,2,0:0:0:0:
336,131,50044,1,2,0:0:0:0:
256,192,50196,1,2,0:0:0:0:
256,192,50347,5,4,0:0:0:0:
268,260,55196,6,0,P|212:304|116:304,2,165,2|2|2,0:0|0:0|0:0,0:0:0:0:
287,185,56257,2,0,P|233:190|195:229,1,110,2|0,0:0|0:0,0:0:0:0:
195,228,56711,1,2,0:0:0:0:
340,239,57014,2,0,P|362:189|347:138,1,110,10|0,0:0|0:0,0:0:0:0:
218,56,57620,6,0,P|190:104|130:128,1,110,2|0,0:0|0:0,0:0:0:0:
142,204,58075,2,0,P|190:227|217:274,1,110,2|0,0:0|0:0,0:0:0:0:
294,274,58529,2,0,P|320:226|369:203,1,110,2|0,0:0|0:0,0:0:0:0:
484,308,59135,2,0,P|457:355|408:378,1,110,0|8,0:0|0:0,0:0:0:0:
294,274,59741,1,0,0:0:0:0:
208,140,60044,6,0,P|164:180|148:232,1,110,2|0,0:0|0:0,0:0:0:0:
300,192,60650,2,0,P|344:152|360:100,1,110,2|0,0:0|0:0,0:0:0:0:
208,140,61257,2,0,P|205:199|230:247,1,110,2|0,0:0|0:0,0:0:0:0:
301,108,61863,2,0,P|303:48|278:0,1,110,8|0,0:0|0:0,0:0:0:0:
152,84,62469,5,2,0:0:0:0:
44,192,62772,2,0,L|0:144,2,55,2|0|10,0:0|0:0|0:0,0:0:0:0:
152,304,63378,2,0,P|91:302|43:326,2,110,0|2|0,0:0|0:0|0:0,0:0:0:0:
304,324,64287,1,8,0:0:0:0:
444,264,64590,1,0,0:0:0:0:
476,112,64893,6,0,P|445:68|392:52,1,110,2|0,0:0|0:0,0:0:0:0:
400,128,65347,2,0,P|346:132|306:170,1,110,2|0,0:0|0:0,0:0:0:0:
376,204,65802,2,0,P|353:252|366:306,1,110,2|0,0:0|0:0,0:0:0:0:
216,335,66408,2,0,P|260:303|276:251,2,110,0|10|2,0:0|0:0|0:0,0:0:0:0:
420,268,67317,6,0,P|368:251|337:206,1,110,2|0,0:0|0:0,0:0:0:0:
276,252,67772,2,0,P|264:199|287:149,1,110,2|0,0:0|0:0,0:0:0:0:
216,120,68226,2,0,P|256:83|310:78,1,110,2|0,0:0|0:0,0:0:0:0:
436,164,68832,2,0,P|395:200|341:205,1,110,0|10,0:0|0:0,0:0:0:0:
216,120,69438,1,0,0:0:0:0:
164,273,69741,6,0,P|216:241|224:177,1,110,2|0,0:0|0:0,0:0:0:0:
216,120,70196,2,0,P|168:146|152:197,1,110,2|0,0:0|0:0,0:0:0:0:
292,107,70650,2,0,P|260:55|196:47,2,110,2|2|0,0:0|0:0|0:0,0:0:0:0:
420,208,71560,2,0,P|449:154|423:94,1,110,8|0,0:0|0:0,0:0:0:0:
92,176,72166,6,0,P|62:229|88:289,1,110,2|0,0:0|0:0,0:0:0:0:
140,234,72620,2,0,P|162:209|167:180,1,55,0|10,0:0|0:0,0:0:0:0:
316,220,73075,1,0,0:0:0:0:
400,92,73378,2,0,P|378:42|330:17,2,110,2|0|10,0:0|0:0|0:0,0:0:0:0:
360,156,74135,5,2,0:0:0:0:
392,224,74287,2,0,P|416:244|444:256,1,55,0|2,0:0|0:0,0:0:0:0:
376,304,74590,6,0,P|324:284|264:300,1,110,2|0,0:0|0:0,0:0:0:0:
210,340,75044,1,0,0:0:0:0:
144,300,75196,2,0,P|164:248|148:188,1,110,10|0,0:0|0:0,0:0:0:0:
91,242,75650,1,0,0:0:0:0:
64,168,75802,2,0,P|93:122|143:101,1,110,2|0,0:0|0:0,0:0:0:0:
212,136,76257,2,0,L|268:162,1,55,0|10,0:0|0:0,0:0:0:0:
286,85,76560,2,0,L|344:63,1,55
414,79,76863,6,0,P|414:51|405:26,1,55,0|2,0:0|0:0,0:0:0:0:
458,142,77166,2,0,P|477:122|489:98,1,55,0|2,0:0|0:0,0:0:0:0:
444,218,77469,2,0,P|471:218|497:209,1,55,0|10,0:0|0:0,0:0:0:0:
284,176,77923,1,0,0:0:0:0:
148,104,78226,2,0,P|123:152|155:216,1,110,2|0,0:0|0:0,0:0:0:0:
216,209,78681,2,0,P|215:181|195:152,1,55,0|10,0:0|0:0,0:0:0:0:
348,200,79135,1,0,0:0:0:0:
320,272,79287,1,0,0:0:0:0:
264,324,79438,6,0,P|204:328|152:300,1,110,2|0,0:0|0:0,0:0:0:0:
98,256,79893,2,0,P|117:238|144:230,1,55,0|10,0:0|0:0,0:0:0:0:
21,268,80196,2,0,P|22:240|34:216,1,55,0|2,0:0|0:0,0:0:0:0:
84,156,80499,1,0,0:0:0:0:
153,123,80650,2,0,L|205:171,1,55,2|0,0:0|0:0,0:0:0:0:
269,151,80954,2,0,L|253:220,1,55,2|0,0:0|0:0,0:0:0:0:
253,283,81257,2,0,P|306:270|333:199,1,110,10|0,0:0|0:0,0:0:0:0:
376,80,81863,6,0,L|328:116,1,55,2|0,0:0|0:0,0:0:0:0:
264,72,82166,2,0,L|308:39,1,55,2|0,0:0|0:0,0:0:0:0:
456,100,82469,1,10,0:0:0:0:
476,176,82620,1,0,0:0:0:0:
424,236,82772,2,0,P|368:240|320:296,1,110,2|2,0:0|0:0,0:0:0:0:
301,345,83226,2,0,P|277:333|259:305,1,55,0|2,0:0|0:0,0:0:0:0:
184,322,83529,2,0,P|182:295|197:265,1,55,0|10,0:0|0:0,0:0:0:0:
344,96,83984,1,2,0:0:0:0:
294,155,84135,1,0,0:0:0:0:
218,147,84287,6,0,P|158:131|118:79,1,110,2|2,0:0|0:0,0:0:0:0:
158,27,84741,2,0,P|182:43|204:84,1,55,2|8,0:0|0:0,0:0:0:0:
294,155,85044,2,0,P|354:171|394:223,1,110,2|2,0:0|0:0,0:0:0:0:
411,277,85499,1,0,0:0:0:0:
356,332,85650,1,2,0:0:0:0:
280,328,85802,6,0,L|248:272,1,55,0|2,0:0|0:0,0:0:0:0:
176,296,86105,2,0,L|192:233,1,55,10|0,0:0|0:0,0:0:0:0:
124,200,86408,2,0,L|180:168,1,55,0|2,0:0|0:0,0:0:0:0:
217,109,86711,6,0,L|164:96,1,55,2|2,0:0|0:0,0:0:0:0:
284,147,87014,2,0,P|286:77|253:43,1,110,2|10,0:0|0:0,0:0:0:0:
266,221,87469,2,0,P|296:223|336:197,1,55,0|2,0:0|0:0,0:0:0:0:
383,175,87772,1,0,0:0:0:0:
425,59,87923,6,0,P|430:85|425:110,1,55,2|0,0:0|0:0,0:0:0:0:
495,146,88226,2,0,P|480:169|457:183,1,55,2|0,0:0|0:0,0:0:0:0:
486,256,88529,2,0,P|459:262|432:255,1,55,10|0,0:0|0:0,0:0:0:0:
402,324,88832,2,0,P|377:309|364:286,1,55,2|0,0:0|0:0,0:0:0:0:
299,192,89135,5,2,0:0:0:0:
180,253,89287,1,0,0:0:0:0:
241,134,89438,1,2,0:0:0:0:
262,266,89590,1,0,0:0:0:0:
168,172,89741,2,0,P|132:155|113:125,1,55,10|0,0:0|0:0,0:0:0:0:
184,98,90044,2,0,P|172:73|171:45,1,55,2|0,0:0|0:0,0:0:0:0:
299,192,90347,5,2,0:0:0:0:
278,283,90499,1,0,0:0:0:0:
188,310,90650,1,2,0:0:0:0:
121,246,90802,1,0,0:0:0:0:
142,156,90954,2,0,P|190:124|202:64,1,110,10|2,0:0|0:0,0:0:0:0:
112,68,91408,1,0,0:0:0:0:
142,156,91560,5,2,0:0:0:0:
121,246,91711,1,0,0:0:0:0:
188,310,91863,1,2,0:0:0:0:
278,283,92014,2,0,P|268:257|250:236,1,55,0|10,0:0|0:0,0:0:0:0:
358,336,92317,2,0,P|370:311|372:284,1,55,0|2,0:0|0:0,0:0:0:0:
336,196,92620,2,0,B|344:160|380:144|380:144|408:96,2,110,2|2|2,0:0|0:0|0:0,0:0:0:0:
336,196,93378,1,2,0:0:0:0:
188,236,93681,1,0,0:0:0:0:
56,108,93984,6,0,P|118:125|177:99,1,131.99999597168,6|2,0:0|0:0,0:0:0:0:
256,52,94438,1,0,0:0:0:0:
344,76,94590,2,0,P|370:135|353:197,1,131.99999597168,10|2,0:0|0:0,0:0:0:0:
277,143,95044,1,0,0:0:0:0:
184,160,95196,2,0,P|155:143|136:117,1,65.9999979858399,2|0,0:0|0:0,0:0:0:0:
120,228,95499,2,0,P|128:259|123:291,1,65.9999979858399,2|0,0:0|0:0,0:0:0:0:
196,351,95802,2,0,P|260:341|297:278,1,131.99999597168,10|2,0:0|0:0,0:0:0:0:
207,257,96257,1,0,0:0:0:0:
120,228,96408,6,0,P|155:174|219:165,2,131.99999597168,2|2|8,0:0|0:0|0:0,0:0:0:0:
207,257,97166,1,0,0:0:0:0:
296,228,97317,2,0,L|344:160,1,65.9999979858399,2|0,0:0|0:0,0:0:0:0:
228,48,97620,5,2,0:0:0:0:
136,64,97772,1,2,0:0:0:0:
60,116,97923,1,0,0:0:0:0:
28,204,98075,1,2,0:0:0:0:
52,292,98226,2,0,P|71:318|99:336,1,65.9999979858399,8|2,0:0|0:0,0:0:0:0:
191,321,98529,2,0,P|215:299|246:287,1,65.9999979858399,2|2,0:0|0:0,0:0:0:0:
328,328,98832,6,0,B|376:316|396:271|396:271|433:257,1,131.99999597168,2|2,0:0|0:0,0:0:0:0:
457,168,99287,2,0,L|383:193,1,65.9999979858399,0|10,0:0|0:0,0:0:0:0:
256,68,99741,1,2,0:0:0:0:
184,328,100044,6,0,B|135:316|115:271|115:271|78:257,1,131.99999597168,2|2,0:0|0:0,0:0:0:0:
55,168,100499,2,0,L|128:193,1,65.9999979858399,0|10,0:0|0:0,0:0:0:0:
256,68,100954,1,2,0:0:0:0:
256,68,101105,1,0,0:0:0:0:
172,108,101257,6,0,L|208:164,1,65.9999979858399,2|0,0:0|0:0,0:0:0:0:
256,240,101560,2,0,L|292:184,2,65.9999979858399,2|0|10,0:0|0:0|0:0,0:0:0:0:
328,300,102014,1,0,0:0:0:0:
420,288,102166,1,2,0:0:0:0:
328,300,102317,1,0,0:0:0:0:
420,288,102469,6,0,P|444:248|444:224,1,65.9999979858399,2|0,0:0|0:0,0:0:0:0:
379,164,102772,2,0,P|360:190|355:222,1,65.9999979858399,2|0,0:0|0:0,0:0:0:0:
428,84,103075,2,0,P|416:38|399:21,1,65.9999979858399,10|2,0:0|0:0,0:0:0:0:
312,24,103378,2,0,P|323:69|340:86,1,65.9999979858399,2|2,0:0|0:0,0:0:0:0:
256,192,103681,6,0,P|232:128|176:92,1,131.99999597168,6|2,0:0|0:0,0:0:0:0:
92,112,104135,2,0,P|112:152|138:167,1,65.9999979858399,0|10,0:0|0:0,0:0:0:0:
296,84,104590,1,2,0:0:0:0:
448,188,104893,2,0,P|410:241|349:262,1,131.99999597168,2|2,0:0|0:0,0:0:0:0:
256,262,105347,2,0,P|268:218|296:190,1,65.9999979858399,0|10,0:0|0:0,0:0:0:0:
100,252,105802,1,2,0:0:0:0:
100,252,105954,1,0,0:0:0:0:
100,252,106105,6,0,L|152:304,1,65.9999979858399,2|0,0:0|0:0,0:0:0:0:
184,208,106408,2,0,L|132:156,1,65.9999979858399,2|0,0:0|0:0,0:0:0:0:
241,281,106711,2,0,P|313:261|353:205,1,131.99999597168,10|2,0:0|0:0,0:0:0:0:
325,129,107166,1,0,0:0:0:0:
257,193,107317,2,0,P|192:196|137:161,1,131.99999597168,2|2,0:0|0:0,0:0:0:0:
44,168,107772,1,0,0:0:0:0:
84,252,107923,6,0,P|132:295|146:358,2,131.99999597168,10|0|2,0:0|0:0|0:0,0:0:0:0:
256,192,108832,1,2,0:0:0:0:
346,171,108984,1,0,0:0:0:0:
428,132,109135,2,0,P|380:89|366:26,2,131.99999597168,10|0|2,0:0|0:0|0:0,0:0:0:0:
346,171,109893,2,0,L|304:116,1,65.9999979858399,0|2,0:0|0:0,0:0:0:0:
213,111,110196,2,0,L|222:42,2,65.9999979858399,0|10|0,0:0|0:0|0:0,0:0:0:0:
256,192,110650,1,2,0:0:0:0:
333,243,110802,1,0,0:0:0:0:
263,303,110954,6,0,P|199:289|156:241,1,131.99999597168,2|2,0:0|0:0,0:0:0:0:
256,192,111408,1,0,0:0:0:0:
355,142,111560,2,0,P|312:94|249:81,1,131.99999597168,10|2,0:0|0:0,0:0:0:0:
256,192,112014,1,0,0:0:0:0:
256,192,112166,1,4,0:0:0:0:
256,192,112317,12,6,113378,0:0:0:0:
444,124,113681,5,2,0:0:0:0:
423,215,113832,1,0,0:0:0:0:
350,274,113984,2,0,P|291:247|255:190,1,131.99999597168,10|2,0:0|0:0,0:0:0:0:
256,8,114590,1,2,0:0:0:0:
68,124,114893,5,2,0:0:0:0:
89,215,115044,1,0,0:0:0:0:
161,274,115196,2,0,P|220:247|257:190,1,131.99999597168,10|2,0:0|0:0,0:0:0:0:
256,8,115802,1,2,0:0:0:0:
444,124,116105,5,2,0:0:0:0:
423,215,116257,1,0,0:0:0:0:
350,274,116408,1,10,0:0:0:0:
265,235,116560,1,0,0:0:0:0:
256,144,116711,6,0,P|224:124|208:88,1,65.9999979858399,2|0,0:0|0:0,0:0:0:0:
132,48,117014,2,0,P|116:76|116:109,1,65.9999979858399,2|2,0:0|0:0,0:0:0:0:
32,152,117317,2,0,P|49:179|77:196,1,65.9999979858399,2|0,0:0|0:0,0:0:0:0:
120,276,117620,2,0,P|147:258|164:230,1,65.9999979858399,10|0,0:0|0:0,0:0:0:0:
204,144,117923,2,0,P|232:160|250:188,1,65.9999979858399,2|0,0:0|0:0,0:0:0:0:
336,224,118226,6,0,P|400:172|412:92,2,131.99999597168,2|0|10,0:0|0:0|0:0,0:0:0:0:
152,192,119135,1,2,0:0:0:0:
236,152,119287,1,0,0:0:0:0:
328,140,119438,6,0,P|327:74|290:21,2,131.99999597168,2|0|10,0:0|0:0|0:0,0:0:0:0:
280,320,120347,1,2,0:0:0:0:
193,286,120499,1,0,0:0:0:0:
119,230,120650,6,0,P|136:168|188:128,1,131.99999597168,2|2,0:0|0:0,0:0:0:0:
256,192,121105,1,0,0:0:0:0:
324,256,121257,2,0,P|375:216|392:153,1,131.99999597168,10|2,0:0|0:0,0:0:0:0:
308,116,121711,5,2,0:0:0:0:
256,192,121863,2,0,L|196:256,1,65.9999979858399,0|2,0:0|0:0,0:0:0:0:
168,156,122166,2,0,L|220:99,1,65.9999979858399,0|2,0:0|0:0,0:0:0:0:
228,332,122469,2,0,P|160:320|124:256,1,131.99999597168,10|0,0:0|0:0,0:0:0:0:
256,60,123075,5,6,0:0:0:0:
274,250,123378,1,2,0:0:0:0:
274,250,123529,1,0,0:0:0:0:
274,250,123681,1,10,0:0:0:0:
147,107,123984,1,2,0:0:0:0:
334,147,124287,5,2,0:0:0:0:
158,225,124590,1,2,0:0:0:0:
158,225,124741,1,0,0:0:0:0:
158,225,124893,1,10,0:0:0:0:
256,60,125196,1,2,0:0:0:0:
158,225,125499,6,0,P|128:168|147:107,1,131.99999597168,2|2,0:0|0:0,0:0:0:0:
222,160,125953,2,0,P|245:190|247:237,1,65.9999979858399,0|10,0:0|0:0,0:0:0:0:
432,260,126408,1,2,0:0:0:0:
432,260,126560,1,0,0:0:0:0:
432,260,126711,2,0,L|470:206,1,65.9999979858399,2|0,0:0|0:0,0:0:0:0:
320,200,127014,2,0,L|281:253,1,65.9999979858399,2|0,0:0|0:0,0:0:0:0:
236,104,127317,2,0,L|274:50,1,65.9999979858399,10|0,0:0|0:0,0:0:0:0:
348,164,127620,1,2,0:0:0:0:
216,144,127772,1,0,0:0:0:0:
392,155,127923,6,0,P|434:106|435:42,1,131.99999597168,2|0,0:0|0:0,0:0:0:0:
345,73,128378,1,0,0:0:0:0:
345,73,128530,1,10,0:0:0:0:
256,232,128832,1,2,0:0:0:0:
212,150,128984,1,0,0:0:0:0:
119,155,129135,6,0,P|77:106|76:42,1,131.99999597168,2|0,0:0|0:0,0:0:0:0:
166,73,129590,1,0,0:0:0:0:
166,73,129742,1,10,0:0:0:0:
328,160,130044,1,2,0:0:0:0:
408,208,130196,1,0,0:0:0:0:
383,85,130347,2,0,B|343:63|303:73|303:73|263:33,1,131.99999597168,2|2,0:0|0:0,0:0:0:0:
192,92,130802,2,0,P|172:64|140:48,1,65.9999979858399,0|10,0:0|0:0,0:0:0:0:
112,136,131105,1,0,0:0:0:0:
168,224,131257,6,0,L|216:176,1,65.9999979858399,2|0,0:0|0:0,0:0:0:0:
312,192,131560,2,0,L|265:238,1,65.9999979858399,2|0,0:0|0:0,0:0:0:0:
96,264,131863,2,0,P|92:192|163:142,1,131.99999597168,2|10,0:0|0:0,0:0:0:0:
168,224,132317,1,0,0:0:0:0:
236,286,132469,1,2,0:0:0:0:
324,260,132620,1,2,0:0:0:0:
256,192,132772,5,6,0:0:0:0:
473,124,137620,6,0,P|417:152|385:204,1,110,2|0,0:0|0:0,0:0:0:0:
319,179,138075,2,0,P|327:149|343:127,1,55,0|10,0:0|0:0,0:0:0:0:
338,52,138378,2,0,P|311:57|287:71,1,55,0|2,0:0|0:0,0:0:0:0:
244,136,138681,1,2,0:0:0:0:
172,168,138832,2,0,P|124:132|104:72,2,110,2|2|10,0:0|0:0|0:0,0:0:0:0:
292,68,139741,1,2,0:0:0:0:
368,204,140044,6,0,P|318:226|287:270,1,110,2|0,0:0|0:0,0:0:0:0:
216,304,140499,2,0,P|193:254|149:223,1,110,2|0,0:0|0:0,0:0:0:0:
84,264,140954,1,2,0:0:0:0:
296,328,141257,2,0,L|331:285,1,55,2|0,0:0|0:0,0:0:0:0:
407,274,141560,2,0,L|401:211,1,55,2|0,0:0|0:0,0:0:0:0:
440,152,141863,6,0,P|396:128|364:64,1,110,10|0,0:0|0:0,0:0:0:0:
300,40,142317,1,0,0:0:0:0:
224,48,142469,2,0,P|200:76|192:108,1,55,2|0,0:0|0:0,0:0:0:0:
128,132,142772,2,0,P|117:106|117:79,1,55,0|2,0:0|0:0,0:0:0:0:
60,168,143075,1,10,0:0:0:0:
124,208,143226,2,0,P|138:256|115:323,1,110,2|2,0:0|0:0,0:0:0:0:
272,276,143832,6,0,L|316:224,1,55,0|2,0:0|0:0,0:0:0:0:
384,244,144135,1,0,0:0:0:0:
432,184,144287,2,0,P|432:152|420:120,2,55,10|0|2,0:0|0:0|0:0,0:0:0:0:
356,168,144741,1,0,0:0:0:0:
282,145,144893,2,0,P|295:121|315:102,2,55,2|0|2,0:0|0:0|0:0,0:0:0:0:
128,136,145499,1,2,0:0:0:0:
184,280,145802,6,0,P|216:264|236:228,1,55,2|0,0:0|0:0,0:0:0:0:
164,208,146105,2,0,P|132:224|112:260,1,55,6|0,0:0|0:0,0:0:0:0:
276,308,146408,1,2,0:0:0:0:
348,284,146560,1,0,0:0:0:0:
400,228,146711,2,0,P|418:173|383:120,1,110,10|0,0:0|0:0,0:0:0:0:
338,182,147166,1,0,0:0:0:0:
281,234,147317,6,0,P|257:185|276:134,2,110,2|0|10,0:0|0:0|0:0,0:0:0:0:
128,248,148226,2,0,P|108:220|104:192,1,55,2|0,0:0|0:0,0:0:0:0:
156,144,148529,2,0,P|176:171|180:199,1,55,2|0,0:0|0:0,0:0:0:0:
60,284,148832,1,2,0:0:0:0:
60,284,148984,1,0,0:0:0:0:
60,284,149135,2,0,P|32:240|32:180,1,110,10|0,0:0|0:0,0:0:0:0:
81,124,149590,1,0,0:0:0:0:
156,144,149741,6,0,P|184:188|184:248,1,110,2|0,0:0|0:0,0:0:0:0:
204,320,150196,2,0,L|248:288,1,55,0|10,0:0|0:0,0:0:0:0:
316,328,150499,2,0,L|271:359,2,55,0|2|0,0:0|0:0|0:0,0:0:0:0:
124,316,150954,2,0,P|104:292|96:260,1,55,2|0,0:0|0:0,0:0:0:0:
139,207,151257,2,0,P|158:228|167:254,1,55,2|0,0:0|0:0,0:0:0:0:
68,176,151560,2,0,P|109:135|184:145,1,110,10|0,0:0|0:0,0:0:0:0:
416,284,152166,6,0,P|460:244|464:196,1,110,2|0,0:0|0:0,0:0:0:0:
416,136,152620,1,0,0:0:0:0:
356,184,152772,2,0,P|312:144|308:96,1,110,10|0,0:0|0:0,0:0:0:0:
256,40,153226,1,0,0:0:0:0:
184,68,153378,2,0,L|212:128,1,55,2|0,0:0|0:0,0:0:0:0:
164,180,153681,2,0,L|215:198,1,55,2|0,0:0|0:0,0:0:0:0:
92,212,153984,2,0,P|68:148|80:100,1,110,10|0,0:0|0:0,0:0:0:0:
144,76,154438,1,0,0:0:0:0:
212,116,154590,6,0,P|254:82|273:31,1,110,2|2,0:0|0:0,0:0:0:0:
352,28,155044,1,0,0:0:0:0:
416,68,155196,1,10,0:0:0:0:
436,144,155347,2,0,L|400:200,2,55,2|0|2,0:0|0:0|0:0,0:0:0:0:
256,192,155802,12,4,157014,0:0:0:0:
218,208,157317,5,0,0:0:0:0:
218,208,157469,1,2,0:0:0:0:
152,168,157620,2,0,L|196:136,1,55,10|0,0:0|0:0,0:0:0:0:
192,60,157923,2,0,L|245:68,1,55,2|0,0:0|0:0,0:0:0:0:
312,108,158226,2,0,L|268:140,1,55,2|0,0:0|0:0,0:0:0:0:
272,216,158529,2,0,L|219:208,1,55,2|2,0:0|0:0,0:0:0:0:
156,256,158832,6,0,P|179:269|195:291,1,55,8|2,0:0|0:0,0:0:0:0:
267,321,159135,2,0,P|295:325|339:305,1,55,2|0,0:0|0:0,0:0:0:0:
380,268,159438,2,0,P|400:212|384:164,1,110,2|0,0:0|0:0,0:0:0:0:
308,155,159893,2,0,P|256:172|204:155,1,110,2|0,0:0|0:0,0:0:0:0:
126,165,160347,2,0,P|112:217|132:268,1,110,2|0,0:0|0:0,0:0:0:0:
192,316,160802,2,0,P|208:288|208:260,1,55,0|2,0:0|0:0,0:0:0:0:
302,265,161105,2,0,P|305:292|320:316,1,55,2|8,0:0|0:0,0:0:0:0:
408,164,161408,6,0,L|432:112,2,55,2|0|2,0:0|0:0|0:0,0:0:0:0:
376,232,161863,2,0,P|348:212|336:184,1,55,2|0,0:0|0:0,0:0:0:0:
266,221,162166,2,0,P|260:187|271:158,1,55,2|0,0:0|0:0,0:0:0:0:
194,136,162469,2,0,P|213:108|242:96,2,55,10|0|2,0:0|0:0|0:0,0:0:0:0:
265,167,162923,1,0,0:0:0:0:
306,102,163075,2,0,B|342:78|342:78|354:54|354:54|388:34,1,110,2|0,0:0|0:0,0:0:0:0:
457,66,163529,1,2,0:0:0:0:
447,142,163681,1,10,0:0:0:0:
322,175,163832,6,0,L|370:147,1,55,0|2,0:0|0:0,0:0:0:0:
391,220,164135,2,0,L|331:256,1,55,0|2,0:0|0:0,0:0:0:0:
395,304,164438,2,0,L|442:275,2,55,0|2|0,0:0|0:0|0:0,0:0:0:0:
327,340,164893,2,0,P|271:320|243:260,1,110,10|0,0:0|0:0,0:0:0:0:
183,324,165347,2,0,P|172:265|210:211,1,110,2|0,0:0|0:0,0:0:0:0:
243,162,165802,2,0,P|263:181|271:208,1,55,2|0,0:0|0:0,0:0:0:0:
195,223,166105,5,10,0:0:0:0:
216,64,166408,1,2,0:0:0:0:
340,216,166711,6,0,P|372:172|364:112,1,110,6|0,0:0|0:0,0:0:0:0:
293,95,167166,2,0,P|289:127|296:149,1,55,0|10,0:0|0:0,0:0:0:0:
144,112,167620,2,0,L|110:68,1,55,2|0,0:0|0:0,0:0:0:0:
71,143,167923,2,0,P|72:176|64:200,1,55,2|0,0:0|0:0,0:0:0:0:
104,264,168226,1,2,0:0:0:0:
180,284,168378,2,0,P|228:256|260:184,1,110,2|0,0:0|0:0,0:0:0:0:
327,184,168832,2,0,P|348:166|374:156,1,55,2|0,0:0|0:0,0:0:0:0:
363,299,169135,6,0,L|318:254,1,55,2|0,0:0|0:0,0:0:0:0:
256,344,169438,1,2,0:0:0:0:
148,299,169590,2,0,L|193:254,1,55,0|10,0:0|0:0,0:0:0:0:
104,192,169893,1,0,0:0:0:0:
147,83,170044,2,0,L|186:122,1,55,2|0,0:0|0:0,0:0:0:0:
256,40,170347,5,2,0:0:0:0:
363,84,170499,2,0,L|324:122,1,55,0|2,0:0|0:0,0:0:0:0:
408,192,170802,1,0,0:0:0:0:
363,299,170954,2,0,L|318:254,1,55,10|0,0:0|0:0,0:0:0:0:
256,344,171257,1,2,0:0:0:0:
256,344,171408,1,0,0:0:0:0:
256,344,171560,6,0,P|292:304|292:250,1,110,2|0,0:0|0:0,0:0:0:0:
219,277,172014,1,0,0:0:0:0:
144,303,172166,2,0,P|143:249|180:210,1,110,10|0,0:0|0:0,0:0:0:0:
256,192,172620,1,0,0:0:0:0:
331,174,172772,6,0,P|368:134|367:80,1,110,2|0,0:0|0:0,0:0:0:0:
293,107,173226,1,0,0:0:0:0:
219,133,173378,2,0,P|219:79|256:40,1,110,10|0,0:0|0:0,0:0:0:0:
293,107,173832,1,0,0:0:0:0:
293,107,173984,1,2,0:0:0:0:
256,192,174135,12,6,176408,0:0:0:0:
104,164,185802,5,0,0:0:0:0:
104,164,186105,6,0,P|176:164|224:212,1,110,2|0,0:0|0:0,0:0:0:0:
268,228,186560,2,0,P|336:204|376:120,1,165,2|0,0:0|0:0,0:0:0:0:
228,80,187317,2,0,B|184:88|160:76|160:76|120:104|64:96,2,165,2|2|2,0:0|0:0|0:0,0:0:0:0:
132,200,188529,2,0,B|106:236|81:245|81:245|72:293|27:327,2,165,2|2|2,0:0|0:0|0:0,0:0:0:0:
256,112,189741,1,2,0:0:0:0:
384,196,190044,1,0,0:0:0:0:
324,336,190347,6,0,L|208:328,1,110,2|0,0:0|0:0,0:0:0:0:
68,272,190954,1,2,0:0:0:0:
52,120,191257,1,0,0:0:0:0:
188,48,191560,2,0,L|304:56,1,110,2|0,0:0|0:0,0:0:0:0:
444,112,192167,1,2,0:0:0:0:
460,264,192470,1,0,0:0:0:0:
324,336,192772,1,2,0:0:0:0:
196,252,193075,6,0,P|152:216|88:204,1,110,0|2,0:0|0:0,0:0:0:0:
308,104,193832,2,0,P|352:140|464:156,1,165,2|2,0:0|0:0,0:0:0:0:
256,192,194590,12,0,196408,0:0:0:0:
332,126,197014,6,0,P|300:150|287:182,1,65.9999979858399,6|0,0:0|0:0,0:0:0:0:
375,207,197317,1,2,0:0:0:0:
456,255,197468,2,0,P|404:299|340:295,1,131.99999597168,2|2,0:0|0:0,0:0:0:0:
256,267,197922,1,0,0:0:0:0:
168,235,198074,2,0,P|160:275|176:307,1,65.9999979858399,0|2,0:0|0:0,0:0:0:0:
343,297,198377,2,0,P|352:266|344:235,1,65.9999979858399,2|2,0:0|0:0,0:0:0:0:
276,172,198680,2,0,P|220:148|180:88,1,131.99999597168,2|2,0:0|0:0,0:0:0:0:
272,80,199135,2,0,P|260:52|264:16,1,65.9999979858399,2|0,0:0|0:0,0:0:0:0:
353,37,199438,6,0,P|409:61|449:121,1,131.99999597168,2|2,0:0|0:0,0:0:0:0:
464,208,199892,2,0,L|424:268,1,65.9999979858399,2|8,0:0|0:0,0:0:0:0:
336,272,200195,2,0,L|348:336,1,65.9999979858399,2|2,0:0|0:0,0:0:0:0:
256,336,200498,1,0,0:0:0:0:
164,316,200650,6,0,L|124:256,1,65.9999979858399,2|0,0:0|0:0,0:0:0:0:
164,176,200953,2,0,L|127:121,1,65.9999979858399,2|0,0:0|0:0,0:0:0:0:
256,188,201256,2,0,P|285:213|315:223,1,65.9999979858399,10|0,0:0|0:0,0:0:0:0:
328,132,201559,2,0,P|304:110|274:98,1,65.9999979858399,2|0,0:0|0:0,0:0:0:0:
388,207,201862,6,0,P|410:183|422:153,1,65.9999979858399,2|0,0:0|0:0,0:0:0:0:
304,244,202166,1,2,0:0:0:0:
171,287,202317,2,0,L|212:236,1,65.9999979858399,2|8,0:0|0:0,0:0:0:0:
84,260,202620,2,0,L|92:330,1,65.9999979858399,2|0,0:0|0:0,0:0:0:0:
144,188,202923,1,0,0:0:0:0:
180,104,203074,2,0,L|230:146,1,65.9999979858399,2|0,0:0|0:0,0:0:0:0:
276,68,203377,2,0,L|225:25,1,65.9999979858399,2|0,0:0|0:0,0:0:0:0:
320,148,203680,6,0,P|368:104|360:32,1,131.99999597168,10|2,0:0|0:0,0:0:0:0:
276,68,204135,1,0,0:0:0:0:
276,68,204286,1,2,0:0:0:0:
184,276,204589,5,2,0:0:0:0:
116,212,204741,1,0,0:0:0:0:
120,120,204892,1,10,0:0:0:0:
392,120,205195,1,2,0:0:0:0:
396,212,205347,1,0,0:0:0:0:
328,276,205498,1,2,0:0:0:0:
256,220,205650,1,0,0:0:0:0:
256,220,205801,6,0,L|304:172,1,65.9999979858399,2|0,0:0|0:0,0:0:0:0:
396,212,206104,2,0,L|349:258,1,65.9999979858399,10|0,0:0|0:0,0:0:0:0:
440,304,206407,2,0,L|486:257,1,65.9999979858399,2|0,0:0|0:0,0:0:0:0:
356,344,206710,6,0,P|288:340|232:276,1,131.99999597168,6|2,0:0|0:0,0:0:0:0:
240,208,207165,1,0,0:0:0:0:
300,136,207317,2,0,P|368:140|424:204,1,131.99999597168,10|2,0:0|0:0,0:0:0:0:
384,268,207771,1,0,0:0:0:0:
297,300,207923,2,0,P|289:268|297:236,1,65.9999979858399,2|0,0:0|0:0,0:0:0:0:
203,299,208226,2,0,P|179:321|146:330,1,65.9999979858399,2|0,0:0|0:0,0:0:0:0:
130,238,208529,5,10,0:0:0:0:
108,148,208680,1,0,0:0:0:0:
185,97,208832,1,2,0:0:0:0:
260,152,208983,1,0,0:0:0:0:
221,235,209135,6,0,P|284:244|335:205,1,131.99999597168,2|2,0:0|0:0,0:0:0:0:
260,152,209589,1,0,0:0:0:0:
185,97,209741,2,0,P|235:57|299:67,2,131.99999597168,10|2|2,0:0|0:0|0:0,0:0:0:0:
328,247,210650,5,2,0:0:0:0:
256,304,210801,1,0,0:0:0:0:
184,248,210953,2,0,P|164:219|165:182,2,65.9999979858399,10|0|2,0:0|0:0|0:0,0:0:0:0:
256,192,211407,1,0,0:0:0:0:
328,136,211559,6,0,P|358:192|311:256,1,131.99999597168,2|2,0:0|0:0,0:0:0:0:
256,192,212014,1,0,0:0:0:0:
183,136,212165,2,0,P|154:192|184:248,1,131.99999597168,10|2,0:0|0:0,0:0:0:0:
256,192,212620,1,0,0:0:0:0:
328,136,212771,6,0,L|298:76,1,65.9999979858399,2|0,0:0|0:0,0:0:0:0:
405,291,213074,2,0,L|465:262,1,65.9999979858399,2|0,0:0|0:0,0:0:0:0:
224,17,213377,2,0,L|204:80,1,65.9999979858399,10|0,0:0|0:0,0:0:0:0:
399,198,213680,2,0,L|420:136,1,65.9999979858399,2|0,0:0|0:0,0:0:0:0:
335,239,213983,6,0,B|376:280|376:280|400:280|400:280|436:316,1,131.99999597168,2|2,0:0|0:0,0:0:0:0:
256,192,214438,1,0,0:0:0:0:
176,239,214589,2,0,B|136:280|136:280|112:280|112:280|76:316,1,131.99999597168,10|2,0:0|0:0,0:0:0:0:
256,192,215044,1,0,0:0:0:0:
256,192,215195,1,6,0:0:0:0:
256,192,215347,12,6,216407,0:0:0:0:
66,152,216710,5,2,0:0:0:0:
87,243,216862,1,0,0:0:0:0:
159,302,217014,2,0,P|218:275|255:218,1,131.99999597168,10|2,0:0|0:0,0:0:0:0:
263,127,217468,1,0,0:0:0:0:
255,34,217620,5,2,0:0:0:0:
62,202,217923,1,2,0:0:0:0:
105,285,218074,1,0,0:0:0:0:
190,323,218226,2,0,P|240:282|261:217,1,131.99999597168,10|2,0:0|0:0,0:0:0:0:
245,127,218680,1,0,0:0:0:0:
214,39,218832,5,2,0:0:0:0:
90,246,219135,1,2,0:0:0:0:
154,315,219286,1,0,0:0:0:0:
226,335,219438,2,0,P|263:283|267:214,1,131.99999597168,10|2,0:0|0:0,0:0:0:0:
228,132,219892,1,0,0:0:0:0:
175,55,220044,5,2,0:0:0:0:
136,136,220195,1,2,0:0:0:0:
228,132,220347,2,0,P|256:104|264:76,1,65.9999979858399,2|0,0:0|0:0,0:0:0:0:
360,182,220650,2,0,P|361:149|348:120,1,65.9999979858399,10|0,0:0|0:0,0:0:0:0:
492,135,220953,2,0,P|470:111|440:100,1,65.9999979858399,2|0,0:0|0:0,0:0:0:0:
207,142,221256,6,0,P|159:194|80:188,1,131.99999597168,2|2,0:0|0:0,0:0:0:0:
122,107,221710,2,0,P|146:73|184:58,1,65.9999979858399,0|10,0:0|0:0,0:0:0:0:
323,174,222165,1,2,0:0:0:0:
323,174,222317,1,0,0:0:0:0:
323,174,222468,6,0,P|302:106|347:41,1,131.99999597168,2|2,0:0|0:0,0:0:0:0:
396,118,222923,2,0,P|414:156|408:196,1,65.9999979858399,0|10,0:0|0:0,0:0:0:0:
237,259,223377,1,2,0:0:0:0:
237,259,223529,1,0,0:0:0:0:
237,259,223680,6,0,P|306:275|340:346,1,131.99999597168,2|2,0:0|0:0,0:0:0:0:
249,350,224135,2,0,P|207:346|175:321,1,65.9999979858399,0|10,0:0|0:0,0:0:0:0:
237,259,224438,1,0,0:0:0:0:
308,200,224589,6,0,P|342:198|371:182,1,65.9999979858399,2|0,0:0|0:0,0:0:0:0:
315,107,224892,2,0,P|338:81|348:49,1,65.9999979858399,2|2,0:0|0:0,0:0:0:0:
256,34,225195,2,0,P|232:59|223:91,1,65.9999979858399,2|0,0:0|0:0,0:0:0:0:
441,61,225498,2,0,P|439:26|423:-3,1,65.9999979858399,10|0,0:0|0:0,0:0:0:0:
130,80,225801,2,0,P|131:114|147:143,1,65.9999979858399,2|0,0:0|0:0,0:0:0:0:
330,308,226104,6,0,P|394:298|430:245,1,131.99999597168,6|2,0:0|0:0,0:0:0:0:
344,220,226559,1,0,0:0:0:0:
256,191,226710,2,0,P|290:138|354:127,1,131.99999597168,10|2,0:0|0:0,0:0:0:0:
344,220,227165,1,0,0:0:0:0:
81,138,227317,6,0,P|117:85|181:75,1,131.99999597168,2|2,0:0|0:0,0:0:0:0:
168,164,227771,1,0,0:0:0:0:
157,256,227923,2,0,P|221:245|255:192,1,131.99999597168,10|2,0:0|0:0,0:0:0:0:
168,164,228377,1,0,0:0:0:0:
168,164,228529,5,2,0:0:0:0:
256,192,228680,1,0,0:0:0:0:
336,148,228832,2,0,P|361:128|378:100,1,65.9999979858399,2|0,0:0|0:0,0:0:0:0:
336,240,229135,2,0,P|364:244|415:227,2,65.9999979858399,10|0|2,0:0|0:0|0:0,0:0:0:0:
256,288,229589,5,0,0:0:0:0:
176,240,229741,1,2,0:0:0:0:
176,148,229892,1,2,0:0:0:0:
256,100,230044,1,2,0:0:0:0:
336,148,230195,1,0,0:0:0:0:
336,240,230347,2,0,P|372:220|392:184,1,65.9999979858399,10|0,0:0|0:0,0:0:0:0:
468,240,230650,2,0,P|479:200|468:160,1,65.9999979858399,2|0,0:0|0:0,0:0:0:0:
256,288,230953,6,0,P|200:244|204:164,1,131.99999597168,2|2,0:0|0:0,0:0:0:0:
104,188,231407,2,0,P|102:230|111:261,1,65.9999979858399,0|10,0:0|0:0,0:0:0:0:
284,204,231862,1,2,0:0:0:0:
284,204,232014,1,0,0:0:0:0:
284,204,232165,6,0,P|340:160|336:80,1,131.99999597168,2|2,0:0|0:0,0:0:0:0:
436,104,232620,2,0,P|438:146|429:177,1,65.9999979858399,0|10,0:0|0:0,0:0:0:0:
256,116,233074,1,2,0:0:0:0:
284,204,233226,1,0,0:0:0:0:
248,291,233377,6,0,P|312:291|364:252,1,131.99999597168,2|2,0:0|0:0,0:0:0:0:
200,212,233832,1,0,0:0:0:0:
108,216,233983,2,0,P|61:261|53:325,1,131.99999597168,10|2,0:0|0:0,0:0:0:0:
356,279,234589,6,0,P|384:262|401:235,1,65.9999979858399,2|0,0:0|0:0,0:0:0:0:
285,106,234892,2,0,P|253:97|221:104,1,65.9999979858399,2|0,0:0|0:0,0:0:0:0:
256,192,235195,2,0,P|287:200|319:193,1,65.9999979858399,10|0,0:0|0:0,0:0:0:0:
185,19,235498,2,0,P|156:35|139:62,1,65.9999979858399,2|2,0:0|0:0,0:0:0:0:
256,192,235801,1,6,0:0:0:0:
256,192,235953,12,2,240650,0:0:0:0:
177,184,240953,6,0,P|145:184|117:200,1,55,2|0,0:0|0:0,0:0:0:0:
164,260,241256,2,0,P|216:252|256:188,1,110,10|0,0:0|0:0,0:0:0:0:
256,56,241862,2,0,P|204:64|164:128,1,110,2|2,0:0|0:0,0:0:0:0:
241,130,242317,2,0,P|275:130|302:116,1,55,0|10,0:0|0:0,0:0:0:0:
432,192,242771,2,0,P|424:248|372:284,1,110,0|2,0:0|0:0,0:0:0:0:
256,192,243377,6,0,L|208:152,2,55,2|0|10,0:0|0:0|0:0,0:0:0:0:
408,216,243983,2,0,L|412:270,1,55,2|2,0:0|0:0,0:0:0:0:
336,258,244286,2,0,L|340:312,1,55,2|0,0:0|0:0,0:0:0:0:
264,298,244589,2,0,L|268:352,1,55
192,336,244892,5,10,0:0:0:0:
120,304,245044,1,0,0:0:0:0:
97,229,245195,1,2,0:0:0:0:
132,160,245347,1,2,0:0:0:0:
204,188,245498,6,0,P|256:184|316:132,1,110,2|2,0:0|0:0,0:0:0:0:
356,96,245953,1,0,0:0:0:0:
356,96,246104,1,10,0:0:0:0:
372,248,246407,2,0,L|336:196,1,55,2|0,0:0|0:0,0:0:0:0:
264,220,246710,2,0,L|275:157,1,55,2|0,0:0|0:0,0:0:0:0:
208,124,247014,2,0,L|260:88,1,55,2|0,0:0|0:0,0:0:0:0:
324,60,247317,2,0,P|380:60|420:124,1,110,10|0,0:0|0:0,0:0:0:0:
348,132,247771,1,0,0:0:0:0:
280,167,247923,6,0,P|318:205|372:204,2,110,2|2|10,0:0|0:0|0:0,0:0:0:0:
204,184,248680,1,0,0:0:0:0:
128,168,248832,2,0,P|154:121|205:108,2,110,2|2|2,0:0|0:0|0:0,0:0:0:0:
148,244,249589,1,0,0:0:0:0:
224,264,249741,5,10,0:0:0:0:
280,212,249892,1,0,0:0:0:0:
268,136,250044,1,2,0:0:0:0:
200,104,250195,1,2,0:0:0:0:
128,168,250347,6,0,B|120:204|96:224|96:224|108:252|112:288,1,110,2|2,0:0|0:0,0:0:0:0:
168,316,250801,2,0,L|228:284,1,55,0|10,0:0|0:0,0:0:0:0:
272,240,251104,1,0,0:0:0:0:
343,205,251256,2,0,P|325:184|302:170,1,55,2|0,0:0|0:0,0:0:0:0:
232,203,251559,2,0,P|248:225|271:239,1,55,2|0,0:0|0:0,0:0:0:0:
194,136,251862,2,0,P|172:154|158:177,1,55,2|0,0:0|0:0,0:0:0:0:
257,95,252165,2,0,P|209:59|149:75,1,110,10|2,0:0|0:0,0:0:0:0:
194,136,252620,1,0,0:0:0:0:
194,136,252771,1,2,0:0:0:0:
244,295,253074,5,2,0:0:0:0:
320,303,253226,1,0,0:0:0:0:
376,251,253377,1,10,0:0:0:0:
304,115,253680,2,0,B|316:159|316:159|292:187|292:227,2,110,2|2|2,0:0|0:0|0:0,0:0:0:0:
228,123,254438,1,0,0:0:0:0:
160,163,254589,6,0,P|188:191|224:199,1,55,10|2,0:0|0:0,0:0:0:0:
228,123,254892,2,0,P|200:95|164:87,1,55,2|2,0:0|0:0,0:0:0:0:
256,192,255195,12,0,258832,0:0:0:0:
