osu file format v14

[General]
AudioFilename: Sayonara Noz.mp3
AudioLeadIn: 0
PreviewTime: 88974
Countdown: 0
SampleSet: Soft
StackLeniency: 0.7
Mode: 0
LetterboxInBreaks: 0
WidescreenStoryboard: 0

[Editor]
Bookmarks: 36065,70974,75065,79701,83792,109155,113246,117882,121973,148155,152791,156882,199700,219063,261609,266245,292427,309881
DistanceSpacing: 1.5
BeatDivisor: 4
GridSize: 4
TimelineZoom: 3.699999

[Metadata]
Title:Sayonara I Love You feat. jyA-Me
TitleUnicode:サヨナラ I Love You feat. jyA-Me
Artist:CLIFF EDGE
ArtistUnicode:クリフエッジ
Creator:Xinely
Version:Farewell
Source:
Tags:PLATINUM HEARTS
BeatmapID:1130622
BeatmapSetID:533689

[Difficulty]
HPDrainRate:6.5
CircleSize:4.5
OverallDifficulty:8.5
ApproachRate:9.2
SliderMultiplier:1.85
SliderTickRate:1

[Events]
//Background and Video events
0,0,"sayonara.jpg",0,0
//Break Periods
//Storyboard Layer 0 (Background)
//Storyboard Layer 1 (Fail)
//Storyboard Layer 2 (Pass)
//Storyboard Layer 3 (Foreground)
//Storyboard Sound Samples

[TimingPoints]
1156,545.454545454546,4,2,2,50,1,0
1156,-133.333333333333,4,2,2,50,0,0
9883,-133.333333333333,4,2,2,60,0,0
36065,-100,4,2,1,50,0,0
69883,-100,4,2,1,40,0,0
70019,-100,4,2,1,30,0,0
70156,-100,4,2,1,20,0,0
70701,-100,4,2,1,65,0,0
70974,-71.4285714285714,4,2,1,65,0,0
75269,-71.4285714285714,4,2,0,5,0,0
75337,-71.4285714285714,4,2,1,65,0,0
77451,-71.4285714285714,4,2,0,5,0,0
77519,-71.4285714285714,4,2,1,65,0,0
83996,-71.4285714285714,4,2,1,5,0,0
84065,-71.4285714285714,4,2,1,65,0,0
91701,545.454545454546,4,2,1,100,1,1
91701,-71.4285714285714,4,2,1,100,0,1
113451,-71.4285714285714,4,2,0,5,0,1
113519,-71.4285714285714,4,2,1,100,0,1
122178,-71.4285714285714,4,2,1,5,0,1
122246,-71.4285714285714,4,2,1,100,0,1
125928,-71.4285714285714,4,2,1,70,0,1
126064,-71.4285714285714,4,2,1,100,0,1
126337,-71.4285714285714,4,2,1,70,0,1
126473,-71.4285714285714,4,2,1,100,0,1
126610,-100,4,2,1,70,0,0
134246,-71.4285714285714,4,2,1,70,0,0
135269,-71.4285714285714,4,2,1,5,0,0
135337,-71.4285714285714,4,2,1,70,0,0
143996,-71.4285714285714,4,2,1,5,0,0
144064,-71.4285714285714,4,2,1,70,0,0
148360,-71.4285714285714,4,2,1,5,0,0
148428,-71.4285714285714,4,2,1,70,0,0
157087,-71.4285714285714,4,2,1,5,0,0
157155,-71.4285714285714,4,2,1,70,0,0
159337,-71.4285714285714,4,2,2,80,0,0
161246,-71.4285714285714,4,2,1,70,0,0
164791,545.454545454546,4,2,1,100,1,1
164791,-71.4285714285714,4,2,1,100,0,1
180063,-71.4285714285714,4,2,2,100,0,1
181154,-71.4285714285714,4,2,1,60,0,1
182245,-133.333333333333,4,2,2,50,0,0
199700,-133.333333333333,4,2,1,50,0,0
199836,-71.4285714285714,4,2,1,70,0,0
208359,-71.4285714285714,4,2,1,5,0,0
208427,-71.4285714285714,4,2,1,70,0,0
222609,545.454545454546,4,2,1,100,1,1
222609,-71.4285714285714,4,2,1,100,0,1
261813,-71.4285714285714,4,2,0,5,0,1
261881,-71.4285714285714,4,2,1,100,0,1
270540,-71.4285714285714,4,2,1,5,0,1
270609,-71.4285714285714,4,2,1,100,0,1
274972,-71.4285714285714,4,2,1,80,0,0
309881,-133.333333333333,4,2,2,50,0,0
312063,612.244897959184,4,2,2,50,1,0
313440,-133.333333333333,4,2,2,20,0,0
315736,-133.333333333333,4,2,2,5,0,0

[Colours]
Combo1 : 198,140,255
Combo2 : 128,64,64
Combo3 : 116,116,116
Combo4 : 177,101,101
Combo5 : 187,187,187
Combo6 : 255,128,128
Combo7 : 255,62,62
Combo8 : 159,64,255

[HitObjects]
72,292,1156,6,0,P|120:316|216:292,1,138.750005292893,4|2,0:0|0:0,0:0:0:0:
284,240,1974,1,2,0:0:0:0:
152,196,2246,2,0,P|136:140|164:52,1,138.750005292893,2|2,0:0|0:0,0:0:0:0:
396,108,3337,5,6,0:0:0:0:
300,292,3883,1,2,0:0:0:0:
144,152,4428,1,2,0:0:0:0:
432,260,4974,1,2,0:0:0:0:
140,290,5519,6,0,L|144:152,1,138.750005292893,6|0,0:0|0:0,0:0:0:0:
256,304,6337,1,4,0:0:0:0:
312,164,6610,1,4,0:0:0:0:
364,252,6883,1,0,0:0:0:0:
416,164,7156,1,2,0:0:0:0:
220,273,7701,6,0,L|220:203,1,69.3750026464463,4|0,0:0|0:0,0:0:0:0:
364,88,8246,2,0,L|364:160,1,69.3750026464463,4|0,0:0|0:0,0:0:0:0:
296,312,8792,2,0,P|248:348|164:336,1,138.750005292893,6|0,0:0|0:0,0:0:0:0:
96,272,9610,1,0,0:0:0:0:
184,200,9883,6,0,B|200:160|200:160|184:88,2,104.06250396967,4|0|2,0:0|0:0|0:0,0:0:0:0:
260,272,10974,2,0,P|296:284|336:280,1,69.3750026464463
372,308,11383,2,0,P|360:248|396:200,1,104.06250396967,2|0,0:0|0:0,0:0:0:0:
304,104,12065,6,0,L|232:96,1,69.3750026464463,4|0,0:0|0:0,0:0:0:0:
184,84,12474,2,0,B|208:136|208:136|196:196,1,104.06250396967,2|0,0:0|0:0,0:0:0:0:
140,268,13156,1,2,0:0:0:0:
240,296,13428,1,0,0:0:0:0:
240,296,13565,2,0,P|332:296|360:312,1,104.06250396967,2|0,0:0|0:0,0:0:0:0:
484,352,14246,6,0,L|488:232,2,104.06250396967,4|0|2,0:0|0:0|0:0,0:0:0:0:
408,284,15337,2,0,L|412:200,1,69.3750026464463
428,164,15746,2,0,P|380:180|324:172,1,104.06250396967,2|0,0:0|0:0,0:0:0:0:
192,48,16428,5,2,0:0:0:0:
276,56,16701,1,0,0:0:0:0:
332,116,16974,1,2,0:0:0:0:
324,200,17246,1,0,0:0:0:0:
276,268,17519,2,0,P|200:292|140:268,1,138.750005292893,2|0,0:0|0:0,0:0:0:0:
80,164,18337,1,2,0:0:0:0:
232,40,18610,70,0,B|292:36|292:36|344:64,2,104.06250396967,4|2|2,0:0|0:0|0:0,0:0:0:0:
100,124,19701,2,0,L|136:188,1,69.3750026464463
176,188,20110,2,0,P|268:180|288:196,1,104.06250396967,2|0,0:0|0:0,0:0:0:0:
400,348,20792,5,4,0:0:0:0:
444,252,21065,1,0,0:0:0:0:
444,252,21201,2,0,L|444:132,1,104.06250396967,2|0,0:0|0:0,0:0:0:0:
344,28,21883,1,2,0:0:0:0:
272,152,22156,1,0,0:0:0:0:
272,152,22292,2,0,L|272:248,1,69.3750026464463,2|0,0:0|0:0,0:0:0:0:
272,304,22701,1,2,0:0:0:0:
156,280,22974,6,0,P|112:264|44:264,2,104.06250396967,4|2|0,0:0|0:0|0:0,0:0:0:0:
272,304,24065,2,0,P|318:276|372:272,2,104.06250396967,2|2|0,0:0|0:0|0:0,0:0:0:0:
88,344,25156,6,0,B|56:308|56:308|44:252|84:216,1,138.750005292893,4|0,0:0|0:0,0:0:0:0:
144,140,25974,1,4,0:0:0:0:
232,192,26246,2,0,B|272:200|272:200|380:180,2,138.750005292893,4|4|4,0:0|0:0|0:0,0:0:0:0:
256,192,27474,12,2,31701,0:0:0:0:
324,160,31974,70,0,L|324:224,2,34.6875013232232,2|0|2,0:0|0:0|0:0,0:0:0:0:
208,44,32519,1,0,0:0:0:0:
72,160,32792,1,2,0:0:0:0:
72,304,33065,1,2,0:0:0:0:
84,328,33201,1,0,0:0:0:0:
104,348,33337,2,0,L|180:324,1,69.3750026464463,2|0,0:0|0:0,0:0:0:0:
384,300,33883,5,2,0:0:0:0:
388,160,34156,1,0,0:0:0:0:
375,130,34292,1,0,0:0:0:0:
362,100,34428,1,2,0:0:0:0:
164,208,34701,1,2,0:0:0:0:
164,208,34837,1,0,0:0:0:0:
164,208,34974,6,0,B|156:248|168:284|172:300|212:320|212:320|316:304,1,208.125007939339,6|0,0:0|3:0,0:0:0:0:
311,306,35928,1,0,3:0:0:0:
344,300,36065,22,0,L|350:200,1,92.5,2|0,0:0|0:0,0:0:0:0:
260,100,36610,1,0,0:0:0:0:
404,132,36883,1,2,0:0:0:0:
404,132,37019,1,8,0:0:0:0:
404,132,37156,2,0,L|392:208,1,46.25,8|0,0:0|0:0,0:0:0:0:
280,188,37428,2,0,L|300:248,1,46.25,2|0,0:3|0:0,0:0:0:0:
388,292,37701,2,0,L|372:356,1,46.25
276,360,37974,1,2,0:0:0:0:
496,256,38246,5,2,0:0:0:0:
368,124,38519,1,0,0:0:0:0:
368,124,38656,1,2,0:0:0:0:
368,124,38792,2,0,L|252:128,1,92.5,0|2,0:0|0:0,0:0:0:0:
108,200,39337,2,0,L|132:256,1,46.25,8|0,0:0|0:0,0:0:0:0:
180,132,39610,1,2,0:3:0:0:
180,132,39746,2,0,L|204:180,2,46.25,0|2|0,0:0|0:3|0:0,0:0:0:0:
256,56,40156,2,0,L|284:108,1,46.25,2|0,0:3|0:0,0:0:0:0:
340,196,40428,6,0,P|352:248|336:288,1,92.5,2|0,0:0|0:0,0:0:0:0:
171,240,40974,2,0,L|264:240,1,92.5,0|2,0:0|0:0,0:0:0:0:
339,283,41383,1,8,0:0:0:0:
339,283,41519,2,0,L|331:355,1,46.25,8|0,0:0|0:0,0:0:0:0:
244,292,41792,2,0,L|256:344,1,46.25,2|0,0:3|0:0,0:0:0:0:
148,312,42065,2,0,L|184:372,1,46.25
96,240,42337,1,2,0:0:0:0:
312,212,42610,5,2,0:0:0:0:
164,144,42883,1,0,0:0:0:0:
136,60,43019,2,0,L|144:-8,1,46.25,2|0,0:0|0:0,0:0:0:0:
324,32,43428,1,2,0:0:0:0:
312,212,43701,2,0,L|304:284,1,46.25,8|0,0:0|0:0,0:0:0:0:
408,156,43974,2,0,L|400:208,1,46.25,2|0,0:3|0:0,0:0:0:0:
260,112,44246,2,0,L|248:184,2,46.25,2|0|2,0:3|0:0|0:3,0:0:0:0:
112,224,44792,70,0,L|92:332,1,92.5,2|0,0:0|0:0,0:0:0:0:
236,352,45337,2,0,L|348:352,1,92.5,0|8,0:0|0:0,0:0:0:0:
352,348,45746,1,8,0:0:0:0:
372,336,45883,1,8,0:0:0:0:
288,128,46156,1,2,0:3:0:0:
392,244,46428,1,2,0:3:0:0:
240,232,46701,1,2,0:0:0:0:
468,272,46974,6,0,B|496:220|496:220|468:145,1,138.75,2|2,0:0|0:0,0:0:0:0:
412,108,47519,2,0,L|528:100,1,92.5,0|2,0:0|0:0,0:0:0:0:
268,164,48065,2,0,B|208:144|208:144|148:172|148:172|80:156,1,185,8|2,0:0|0:3,0:0:0:0:
216,272,48883,2,0,L|212:352,1,46.25
300,364,49156,6,0,P|349:350|416:360,2,92.5,2|0|2,0:0|0:0|0:3,0:0:0:0:
132,336,49974,1,2,0:0:0:0:
92,276,50110,1,8,0:0:0:0:
128,216,50246,1,8,0:0:0:0:
344,132,50519,2,0,L|344:220,1,46.25,2|2,0:3|0:3,0:0:0:0:
380,264,50792,2,0,P|328:264|272:288,1,92.5,0|2,0:0|0:0,0:0:0:0:
224,308,51201,1,2,0:0:0:0:
92,276,51337,6,0,L|84:164,1,92.5,2|8,0:0|0:1,0:0:0:0:
176,160,51746,2,0,P|216:184|256:184,1,46.25,2|2,0:0|0:0,0:0:0:0:
419,240,52156,2,0,P|379:264|339:264,1,46.25,2|8,0:0|0:1,0:0:0:0:
264,264,52428,69,8,0:1:0:0:
264,264,53110,1,0,0:0:0:0:
215,183,53246,1,8,0:0:0:0:
264,96,53383,1,2,0:0:0:0:
372,84,53519,6,0,P|376:144|372:204,1,92.5,2|0,0:0|0:0,0:0:0:0:
176,180,54065,1,0,0:0:0:0:
304,332,54337,1,2,0:0:0:0:
304,332,54474,1,8,0:0:0:0:
304,332,54610,2,0,L|192:320,1,92.5,8|2,0:0|0:3,0:0:0:0:
68,268,55019,1,0,0:0:0:0:
132,320,55156,2,0,P|148:272|135:227,1,92.5,0|2,0:0|0:0,0:0:0:0:
20,56,55701,5,2,0:0:0:0:
197,82,55974,1,2,0:3:0:0:
197,82,56110,1,2,0:0:0:0:
197,82,56246,2,0,L|305:82,1,92.5,0|2,0:0|0:0,0:0:0:0:
452,200,56792,2,0,L|452:128,1,46.25,8|0,0:0|0:0,0:0:0:0:
288,176,57065,2,0,L|288:223,1,46.25,2|0,0:3|0:0,0:0:0:0:
372,288,57337,2,0,L|372:192,1,92.5,2|0,0:3|0:0,0:0:0:0:
376,104,57746,1,2,0:3:0:0:
288,223,57883,6,0,P|241:221|188:204,2,92.5,2|0|0,0:0|0:0|0:0,0:0:0:0:
488,272,58701,1,2,0:0:0:0:
488,236,58837,1,8,0:0:0:0:
488,200,58974,2,0,L|488:104,2,92.5,8|0|0,0:0|0:0|0:0,0:0:0:0:
296,156,59792,1,2,0:0:0:0:
148,284,60065,70,0,P|176:340|244:360,1,92.5,2|0,0:0|0:0,0:0:0:0:
288,300,60474,2,0,P|364:292|412:312,1,92.5,2|0,0:0|0:0,0:0:0:0:
476,324,60883,2,0,L|484:224,1,92.5
360,136,61428,2,0,L|324:176,1,46.25,2|0,0:3|0:0,0:0:0:0:
168,176,61701,2,0,L|204:224,1,46.25,2|0,0:3|0:0,0:0:0:0:
348,264,61974,2,0,L|312:312,1,46.25,2|0,0:3|0:0,0:0:0:0:
168,348,62246,6,0,P|112:328|100:264,1,92.5,2|0,0:3|0:0,0:0:0:0:
168,100,62792,2,0,P|224:120|236:184,1,92.5,0|2,0:0|0:0,0:0:0:0:
300,248,63201,1,8,0:0:0:0:
352,168,63337,2,0,L|408:156,1,46.25,8|0,0:0|0:0,0:0:0:0:
436,152,63542,2,0,L|448:176,2,23.125,2|2|2,0:3|0:3|0:3,0:0:0:0:
388,44,63815,2,0,L|272:68,1,115.625,0|2,0:0|0:0,0:0:0:0:
168,100,64292,1,0,0:0:0:0:
231,223,64428,6,0,P|239:271|219:311,1,92.5,2|0,0:0|0:0,0:0:0:0:
64,232,64837,2,0,L|184:264,1,92.5,2|0,0:0|0:0,0:0:0:0:
221,310,65246,2,0,L|281:334,2,46.25,2|0|8,0:3|0:0|0:0,0:0:0:0:
164,153,65792,2,0,L|176:96,1,46.25,2|0,0:3|0:0,0:0:0:0:
424,168,66337,2,0,L|464:160,2,30.8333333333333,2|0|0,0:3|0:0|0:0,0:0:0:0:
368,224,66610,5,2,0:0:0:0:
320,104,66746,2,0,L|340:40,2,46.25
252,168,67156,2,0,L|132:172,1,92.5,0|2,0:0|0:0,0:0:0:0:
60,172,67565,1,8,0:0:0:0:
192,300,67701,2,0,B|248:312|248:312|292:288,1,92.5,8|2,0:0|0:3,0:0:0:0:
382,217,68110,2,0,P|371:173|340:140,1,92.5
228,100,68519,2,0,L|228:148,1,46.25,2|0,0:0|0:0,0:0:0:0:
140,300,68792,70,0,P|128:256|140:196,1,92.5,2|0,0:0|0:0,0:0:0:0:
296,252,69201,2,0,P|302:297|290:341,1,92.5,2|0,0:0|0:0,0:0:0:0:
184,368,69610,2,0,L|108:376,1,46.25,2|2,0:0|0:0,0:0:0:0:
12,316,69883,5,8,0:0:0:0:
0,300,70019,1,0,0:0:0:0:
0,280,70156,1,0,0:0:0:0:
8,264,70292,1,0,0:0:0:0:
140,152,70701,6,0,L|140:92,1,46.25
264,16,70974,6,0,P|328:19|412:52,1,129.499996047974,2|8,0:0|0:1,0:0:0:0:
440,132,71383,1,0,0:0:0:0:
388,232,71519,2,0,L|416:320,2,64.7499980239869,8|0|0,0:1|0:0|0:0,0:0:0:0:
336,140,71928,1,2,0:0:0:0:
212,208,72065,70,0,P|176:216|136:260,1,64.7499980239869,2|0,0:0|0:0,0:0:0:0:
388,232,72337,2,0,P|361:214|330:208,1,64.7499980239869
208,332,72610,2,0,L|352:324,1,129.499996047974,8|2,0:1|0:0,0:0:0:0:
444,300,73019,1,0,0:0:0:0:
376,156,73156,5,2,0:0:0:0:
448,64,73292,1,0,0:0:0:0:
312,60,73428,2,0,P|276:64|232:76,1,64.7499980239869,2|0,0:0|0:0,0:0:0:0:
84,152,73701,1,8,0:1:0:0:
224,256,73838,2,0,P|221:223|213:192,1,64.7499980239869
108,276,74110,1,2,0:0:0:0:
328,244,74246,5,2,0:0:0:0:
376,156,74383,1,0,0:0:0:0:
312,60,74519,2,0,L|247:62,1,64.7499980239869
124,64,74792,2,0,L|59:61,1,64.7499980239869,8|0,0:1|0:0,0:0:0:0:
12,168,75065,2,0,P|29:212|68:239,1,97.1249970359803,2|0,0:3|0:0,0:0:0:0:
136,220,75337,70,0,P|196:192|288:208,1,129.499996047974,2|2,0:0|0:0,0:0:0:0:
460,204,75746,1,0,0:0:0:0:
372,262,75883,2,0,P|352:202|376:140,1,129.499996047974,8|0,0:1|0:0,0:0:0:0:
456,316,76292,1,2,0:0:0:0:
260,304,76428,70,0,L|248:208,1,64.7499980239869,2|0,0:0|0:0,0:0:0:0:
308,152,76701,1,0,0:0:0:0:
164,88,76837,1,0,0:0:0:0:
310,87,76974,2,0,L|308:152,1,64.7499980239869,8|0,0:1|0:0,0:0:0:0:
251,239,77246,2,0,L|148:224,1,97.1249970359803,2|0,0:0|0:0,0:0:0:0:
96,264,77519,6,0,P|128:201|84:121,1,129.499996047974,2|8,0:0|0:1,0:0:0:0:
344,144,78065,2,0,P|329:205|361:260,1,129.499996047974,8|0,0:1|0:0,0:0:0:0:
460,300,78474,1,8,0:1:0:0:
424,112,78610,6,0,P|380:64|300:72,1,129.499996047974,2|0,0:0|0:0,0:0:0:0:
110,108,79019,2,0,P|152:61|215:59,1,129.499996047974,2|0,0:0|0:0,0:0:0:0:
264,148,79428,2,0,L|264:228,1,64.7499980239869,8|0,0:1|0:0,0:0:0:0:
333,297,79701,22,0,P|396:287|460:300,1,129.499996047974,2|2,0:0|0:0,0:0:0:0:
108,328,80246,2,0,P|171:318|234:330,1,129.499996047974,8|0,0:1|0:0,0:0:0:0:
333,297,80656,1,8,0:1:0:0:
152,200,80792,6,0,L|272:196,1,64.7499980239869,2|0,0:0|0:0,0:0:0:0:
312,152,81065,2,0,L|300:56,1,64.7499980239869
428,172,81337,2,0,L|416:312,1,129.499996047974,8|2,0:1|0:0,0:0:0:0:
308,304,81746,1,0,0:0:0:0:
112,260,81883,5,2,0:0:0:0:
172,160,82019,1,0,0:0:0:0:
104,60,82156,1,2,0:0:0:0:
16,136,82292,1,0,0:0:0:0:
172,160,82428,2,0,L|256:140,1,64.7499980239869,8|0,0:1|0:0,0:0:0:0:
364,140,82701,2,0,L|444:156,1,64.7499980239869,0|2,0:0|0:0,0:0:0:0:
304,264,82974,6,0,L|304:344,1,64.7499980239869,2|0,0:0|0:0,0:0:0:0:
192,188,83246,2,0,L|184:260,1,64.7499980239869
296,120,83519,2,0,L|316:192,1,64.7499980239869,8|0,0:1|0:0,0:0:0:0:
232,312,83792,2,0,P|188:328|120:296,1,97.1249970359803,2|0,0:3|0:0,0:0:0:0:
56,276,84065,6,0,P|72:220|108:128,1,129.499996047974,2|2,0:0|0:0,0:0:0:0:
168,60,84474,1,0,0:0:0:0:
240,172,84610,2,0,P|244:204|247:236,1,64.7499980239869,8|0,0:1|0:0,0:0:0:0:
148,332,84883,2,0,P|152:296|156:267,1,64.7499980239869,0|2,0:0|0:0,0:0:0:0:
240,172,85156,6,0,P|310:171|360:228,1,129.499996047974,2|0,0:0|0:0,0:0:0:0:
396,296,85565,1,2,0:0:0:0:
312,360,85701,2,0,P|248:363|199:323,1,129.499996047974,8|0,0:1|0:0,0:0:0:0:
100,168,86246,6,0,L|84:32,1,129.499996047974,2|0,0:0|0:0,0:0:0:0:
0,132,86656,1,0,0:0:0:0:
108,256,86792,2,0,L|88:348,1,64.7499980239869,8|0,0:1|0:0,0:0:0:0:
188,368,87065,1,0,0:0:0:0:
208,144,87337,5,2,0:0:0:0:
384,256,87610,1,0,0:0:0:0:
432,164,87746,1,8,0:1:0:0:
296,104,87883,2,8,L|320:180,1,64.7499980239869,8|0,0:1|0:0,0:1:0:0:
200,100,88156,2,0,L|224:36,1,64.7499980239869,2|0,0:0|0:0,0:0:0:0:
228,196,88428,70,0,P|160:184|76:196,1,129.499996047974,2|0,0:0|0:0,0:0:0:0:
260,292,88837,2,0,P|195:268|110:264,1,129.499996047974,2|0,0:0|0:0,0:0:0:0:
280,384,89246,2,0,P|245:368|198:356,1,64.7499980239869,2|0,0:0|0:0,0:0:0:0:
320,184,89519,1,2,0:0:0:0:
256,192,89656,12,8,90610,0:1:0:0:
424,112,90883,6,0,L|420:196,1,64.7499980239869,4|0,3:0|0:0,0:0:0:0:
264,144,91156,2,0,L|268:228,1,64.7499980239869
348,128,91428,1,0,0:0:0:0:
352,248,91565,1,0,0:0:0:0:
184,360,91701,6,0,P|140:324|164:244,1,129.499996047974,4|2,0:0|0:0,0:0:0:0:
220,200,92110,1,0,0:0:0:0:
196,100,92246,2,0,L|188:20,1,64.7499980239869,8|0,0:0|0:0,0:0:0:0:
100,100,92519,1,2,0:0:0:0:
148,257,92655,2,0,P|184:273|248:266,1,64.7499980239869,0|2,0:0|0:0,0:0:0:0:
306,240,92928,5,0,0:0:0:0:
150,192,93064,2,0,P|146:224|148:257,1,64.7499980239869,2|2,0:0|0:0,0:0:0:0:
390,260,93337,2,0,P|391:227|387:195,1,64.7499980239869,8|0,0:0|0:0,0:0:0:0:
260,88,93610,1,2,0:0:0:0:
392,40,93746,1,2,0:0:0:0:
260,88,93882,70,0,P|188:84|124:120,1,129.499996047974,2|2,0:0|0:0,0:0:0:0:
52,168,94291,1,0,0:0:0:0:
200,200,94428,2,0,L|188:288,1,64.7499980239869,8|0,0:0|0:0,0:0:0:0:
36,264,94701,2,0,L|48:352,1,64.7499980239869,0|2,0:0|0:0,0:0:0:0:
192,344,94973,6,0,P|256:340|328:296,1,129.499996047974,2|0,0:0|0:0,0:0:0:0:
380,208,95382,2,0,P|369:173|347:140,1,64.7499980239869,2|8,0:0|0:0,0:0:0:0:
140,100,95791,1,0,0:0:0:0:
292,216,96064,6,0,L|272:356,1,129.499996047974,2|2,0:0|0:0,0:0:0:0:
152,308,96473,2,0,L|176:168,1,129.499996047974,2|0,0:0|0:0,0:0:0:0:
276,84,96882,2,0,L|208:60,1,64.7499980239869,2|0,0:0|0:0,0:0:0:0:
292,216,97155,6,0,L|444:196,1,129.499996047974,2|0,0:0|0:0,0:0:0:0:
244,152,97564,2,0,P|216:216|272:296,1,129.499996047974,2|0,0:0|0:0,0:0:0:0:
324,312,97973,2,0,L|316:380,1,64.7499980239869,2|2,0:0|0:0,0:0:0:0:
140,312,98246,70,0,P|68:288|8:312,2,129.499996047974,2|2|8,0:0|0:0|0:0,0:0:0:0:
324,312,99064,1,2,0:0:0:0:
380,244,99201,1,2,0:0:0:0:
256,192,99337,6,0,L|252:268,1,64.7499980239869,4|0,0:0|0:0,0:0:0:0:
248,348,99610,1,2,0:0:0:0:
164,160,99746,2,0,L|160:236,1,64.7499980239869,4|0,0:0|0:0,0:0:0:0:
156,316,100019,1,2,0:3:0:0:
72,140,100155,2,0,L|68:216,1,64.7499980239869,12|0,0:0|0:0,0:0:0:0:
248,348,100428,6,0,P|317:340|404:288,1,129.499996047974,6|2,0:0|0:0,0:0:0:0:
204,144,100837,2,0,P|186:206|182:270,1,129.499996047974,2|0,0:0|0:0,0:0:0:0:
403,214,101246,2,0,P|392:188|360:148,1,64.7499980239869,2|0,0:0|0:0,0:0:0:0:
296,80,101519,6,0,L|308:4,2,64.7499980239869,2|0|0,0:0|0:0|0:0,0:0:0:0:
192,48,101928,2,0,P|124:44|36:92,1,129.499996047974,2|0,0:0|0:0,0:0:0:0:
40,160,102337,2,0,L|40:260,1,64.7499980239869,2|2,0:0|0:0,0:0:0:0:
212,304,102610,70,0,B|244:272|244:272|248:224|212:176,1,129.499996047974,2|2,0:0|0:0,0:0:0:0:
152,120,103019,2,0,B|184:88|184:88|232:84|280:120,1,129.499996047974
360,124,103428,2,0,L|372:20,1,64.7499980239869,2|2,0:0|0:0,0:0:0:0:
444,180,103701,6,0,P|408:244|424:308,1,129.499996047974,2|0,0:0|0:0,0:0:0:0:
500,332,104110,1,0,0:0:0:0:
292,272,104246,1,8,0:0:0:0:
292,272,104519,2,0,L|200:276,1,64.7499980239869
104,264,104791,6,0,P|108:204|104:120,1,129.499996047974,2|2,0:0|0:0,0:0:0:0:
280,68,105201,2,0,P|276:136|284:212,1,129.499996047974
376,232,105610,2,0,L|372:332,1,64.7499980239869,2|2,0:0|0:0,0:0:0:0:
200,300,105882,6,0,L|184:176,2,97.1249970359803,2|0|2,0:0|0:0|0:0,0:0:0:0:
376,232,106428,1,8,0:0:0:0:
248,72,106701,1,2,0:0:0:0:
152,72,106837,1,2,0:0:0:0:
56,72,106973,70,0,P|72:160|236:156,1,258.999992095948,4|8,0:0|0:0,0:0:0:0:
464,180,107791,1,2,0:0:0:0:
440,80,107928,1,2,0:0:0:0:
344,264,108064,5,4,0:0:0:0:
248,200,108201,1,0,0:0:0:0:
344,152,108337,1,2,0:0:0:0:
344,264,108473,5,2,0:0:0:0:
256,116,108610,1,8,0:0:0:0:
264,312,108746,1,2,0:3:0:0:
172,104,108882,1,8,0:1:0:0:
184,344,109019,1,0,0:0:0:0:
344,264,109155,6,0,L|356:160,1,64.7499980239869,4|0,0:0|0:0,0:0:0:0:
364,108,109428,1,0,0:0:0:0:
256,312,109564,2,0,L|268:220,1,64.7499980239869,0|8,0:0|0:0,0:0:0:0:
280,152,109837,1,0,0:0:0:0:
164,352,109973,2,0,L|176:248,1,64.7499980239869,2|0,0:0|0:0,0:0:0:0:
168,80,110246,70,0,P|130:72|80:76,1,64.7499980239869,2|0,0:0|0:0,0:0:0:0:
20,124,110519,1,0,0:0:0:0:
216,159,110655,2,0,P|254:151|304:155,2,64.7499980239869,2|8|0,0:0|0:0|0:0,0:0:0:0:
72,248,111064,1,2,0:0:0:0:
184,320,111201,1,2,0:0:0:0:
116,160,111337,6,0,L|124:80,1,64.7499980239869,2|0,0:0|0:0,0:0:0:0:
244,240,111610,2,0,L|180:244,1,64.7499980239869,2|0,0:0|0:0,0:0:0:0:
304,92,111882,2,0,L|314:155,1,64.7499980239869,8|0,0:0|0:0,0:0:0:0:
179,35,112155,2,0,L|244:32,1,64.7499980239869,2|2,0:0|0:0,0:0:0:0:
432,143,112428,6,0,P|376:171|296:139,1,129.499996047974,2|0,0:0|0:0,0:0:0:0:
216,124,112837,2,0,P|156:108|68:140,1,129.499996047974,2|0,0:0|0:0,0:0:0:0:
40,224,113246,2,0,P|36:296|56:332,1,97.1249970359803,2|0,0:3|0:0,0:0:0:0:
132,336,113519,22,0,P|200:312|261:332,1,129.499996047974,2|2,0:0|0:0,0:0:0:0:
324,356,113928,1,0,0:0:0:0:
224,236,114064,2,0,L|240:80,1,129.499996047974,8|2,0:0|0:0,0:0:0:0:
320,184,114473,1,0,0:0:0:0:
276,32,114610,38,0,B|240:16|240:16|188:16|164:72,1,129.499996047974,2|0,0:0|0:0,0:0:0:0:
44,144,115019,2,0,B|80:128|80:128|132:128|156:184,1,129.499996047974,2|0,0:0|0:0,0:0:0:0:
244,248,115428,2,0,L|264:164,1,64.7499980239869,2|0,0:0|0:0,0:0:0:0:
364,120,115701,6,0,P|428:120|485:149,1,129.499996047974,2|2,0:0|0:0,0:0:0:0:
452,344,116246,2,0,P|387:343|330:314,1,129.499996047974,8|2,0:0|0:0,0:0:0:0:
144,136,116791,5,4,0:0:0:0:
216,108,116928,1,0,0:0:0:0:
284,148,117064,1,0,0:0:0:0:
92,64,117201,5,6,0:0:0:0:
220,24,117337,1,0,0:0:0:0:
332,88,117473,1,0,0:0:0:0:
204,256,117610,2,2,L|211:192,1,64.7499980239869,6|2,0:0|0:0,0:0:0:0:
388,144,117882,86,0,L|400:248,1,64.7499980239869,4|0,0:0|0:0,0:0:0:0:
464,56,118155,1,2,0:0:0:0:
300,132,118291,2,0,L|312:224,1,64.7499980239869,0|8,0:0|0:0,0:0:0:0:
364,40,118564,1,0,0:0:0:0:
212,128,118700,2,0,L|224:232,1,64.7499980239869,2|2,0:0|0:0,0:0:0:0:
224,320,118973,6,0,P|186:328|136:324,1,64.7499980239869,2|0,0:0|0:0,0:0:0:0:
64,284,119246,1,0,0:0:0:0:
248,236,119382,2,0,P|286:244|336:240,2,64.7499980239869,2|8|0,0:0|0:0|0:0,0:0:0:0:
116,160,119791,1,2,0:0:0:0:
228,88,119928,1,2,0:0:0:0:
160,248,120064,6,0,L|168:328,1,64.7499980239869,2|0,0:0|0:0,0:0:0:0:
288,168,120337,2,0,L|224:164,1,64.7499980239869,2|0,0:0|0:0,0:0:0:0:
348,316,120609,2,0,L|358:253,1,64.7499980239869,8|0,0:0|0:0,0:0:0:0:
223,373,120882,2,0,L|288:376,1,64.7499980239869,2|0,0:0|0:0,0:0:0:0:
476,265,121155,6,0,P|420:237|340:269,1,129.499996047974,2|0,0:0|0:0,0:0:0:0:
260,304,121564,2,0,P|200:320|112:288,1,129.499996047974,2|0,0:0|0:0,0:0:0:0:
60,224,121973,2,0,P|56:152|76:116,1,97.1249970359803,2|0,0:3|0:0,0:0:0:0:
120,80,122246,6,0,P|188:104|249:84,1,129.499996047974,2|2,0:0|0:0,0:0:0:0:
352,24,122655,1,0,0:0:0:0:
456,132,122791,1,8,0:0:0:0:
452,24,122928,1,0,0:0:0:0:
360,144,123064,2,0,L|360:248,1,64.7499980239869,2|0,0:0|0:0,0:0:0:0:
416,344,123337,6,0,L|260:344,1,129.499996047974,2|0,0:0|0:0,0:0:0:0:
192,292,123746,2,0,P|164:232|168:148,1,129.499996047974,2|0,0:0|0:0,0:0:0:0:
232,92,124155,2,0,P|250:118|260:180,1,64.7499980239869,2|0,0:0|0:0,0:0:0:0:
252,332,124428,37,4,0:0:0:0:
284,336,124973,1,0,0:0:0:0:
336,152,125519,5,2,0:0:0:0:
376,56,125655,1,0,0:0:0:0:
440,136,125791,1,0,0:0:0:0:
200,176,125928,5,8,0:1:0:0:
120,96,126064,1,0,0:0:0:0:
236,64,126201,1,0,0:0:0:0:
244,272,126337,5,8,0:1:0:0:
176,352,126473,1,0,0:0:0:0:
88,288,126610,6,0,P|52:272|28:208,2,92.5,4|0|8,0:0|0:0|0:1,0:0:0:0:
256,352,127428,1,0,0:0:0:0:
352,252,127701,2,0,L|364:188,2,46.25,2|0|0,0:0|0:0|0:0,0:0:0:0:
212,236,128246,2,0,L|232:128,1,92.5,8|0,0:1|0:0,0:0:0:0:
252,48,128655,1,2,0:0:0:0:
252,48,128791,6,0,L|144:52,1,92.5,2|0,0:0|0:0,0:0:0:0:
88,88,129201,1,2,0:0:0:0:
136,148,129337,2,0,L|136:216,1,46.25,8|0,0:1|0:0,0:0:0:0:
208,220,129610,2,0,L|212:284,1,46.25,0|2,0:0|0:0,0:0:0:0:
288,288,129882,2,0,P|324:264|384:264,2,92.5,2|0|8,0:0|0:0|0:1,0:0:0:0:
136,336,130701,2,0,L|84:308,1,46.25
40,260,130973,6,0,P|40:216|44:164,1,92.5,2|0,0:0|0:0,0:0:0:0:
172,76,131519,2,0,L|168:136,2,46.25,8|0|2,0:1|0:0|0:0,0:0:0:0:
324,120,132064,2,0,L|320:184,1,46.25,2|0,0:0|0:0,0:0:0:0:
368,228,132337,2,0,L|364:292,1,46.25,0|2,0:0|0:0,0:0:0:0:
304,324,132610,2,0,B|260:320|260:320|204:340,1,92.5,8|0,0:1|0:0,0:0:0:0:
108,296,133019,1,2,0:0:0:0:
108,296,133155,6,0,L|108:200,1,92.5,2|2,0:0|0:0,0:0:0:0:
208,248,133564,1,0,0:0:0:0:
208,248,133701,2,0,L|204:144,1,92.5,8|2,0:1|0:0,0:0:0:0:
268,92,134110,1,2,0:0:0:0:
116,72,134246,70,0,P|106:110|108:144,1,64.7499980239869,4|0,0:0|0:0,0:0:0:0:
268,92,134519,2,0,P|251:64|228:41,1,64.7499980239869,4|0,0:0|0:0,0:0:0:0:
176,200,134791,2,0,P|208:199|239:190,1,64.7499980239869,8|0,0:1|0:0,0:0:0:0:
380,128,135064,2,0,P|436:124|484:152,1,97.1249970359803,8|0,0:1|0:0,0:0:0:0:
500,216,135337,6,0,L|496:352,1,129.499996047974,4|0,0:0|0:0,0:0:0:0:
396,356,135746,1,2,0:0:0:0:
324,272,135882,2,0,P|276:256|180:272,1,129.499996047974,8|0,0:1|0:0,0:0:0:0:
128,352,136291,1,0,0:0:0:0:
48,224,136428,6,0,L|44:140,1,64.7499980239869,2|0,0:0|0:0,0:0:0:0:
184,164,136701,1,2,0:0:0:0:
36,68,136837,1,2,0:0:0:0:
156,84,136973,2,0,L|236:68,1,64.7499980239869,8|0,0:1|0:0,0:0:0:0:
312,40,137246,1,0,0:0:0:0:
416,132,137382,1,2,0:0:0:0:
300,264,137519,6,0,L|232:260,2,64.7499980239869,2|0|0,0:0|0:0|0:0,0:0:0:0:
428,348,137928,2,0,P|468:308|480:280,1,64.7499980239869,2|8,0:0|0:1,0:0:0:0:
400,184,138201,1,0,0:0:0:0:
472,120,138337,1,0,0:0:0:0:
492,216,138473,1,2,0:0:0:0:
352,96,138610,70,0,P|321:89|272:96,1,64.7499980239869,2|0,0:0|0:0,0:0:0:0:
152,200,138882,2,0,P|182:206|232:200,1,64.7499980239869,0|2,0:0|0:0,0:0:0:0:
336,192,139155,2,0,P|420:184|472:216,1,129.499996047974,8|0,0:1|0:0,0:0:0:0:
488,296,139564,1,0,0:0:0:0:
336,192,139701,6,0,P|324:156|336:108,1,64.7499980239869,2|0,0:0|0:0,0:0:0:0:
472,64,139973,2,0,P|473:96|462:126,1,64.7499980239869,0|2,0:0|0:0,0:0:0:0:
326,129,140246,2,0,L|174:133,1,129.499996047974,8|0,0:1|0:0,0:0:0:0:
76,144,140655,1,0,0:0:0:0:
224,232,140791,6,0,L|220:308,1,64.7499980239869,2|0,0:0|0:0,0:0:0:0:
356,284,141064,2,0,L|365:348,1,64.7499980239869,2|0,0:0|0:0,0:0:0:0:
336,192,141337,1,8,0:1:0:0:
280,360,141473,2,0,P|248:364|200:372,2,64.7499980239869,0|0|2,0:0|0:0|0:0,0:0:0:0:
420,256,141882,5,4,0:0:0:0:
408,164,142019,1,0,0:0:0:0:
352,272,142155,1,2,0:0:0:0:
403,136,142291,1,0,0:0:0:0:
468,312,142428,1,8,0:1:0:0:
352,272,142564,85,0,0:0:0:0:
396,108,142701,1,2,0:0:0:0:
480,236,142837,1,2,0:0:0:0:
268,168,142973,102,0,L|180:156,1,64.7499980239869,4|0,0:0|0:0,0:0:0:0:
112,148,143246,1,2,0:0:0:0:
268,280,143382,2,0,P|264:320|256:352,2,64.7499980239869,2|0|0,0:0|0:0|0:0,0:0:0:0:
348,196,143791,2,0,P|395:187|443:195,1,97.1249970359803,2|0,0:0|0:0,0:0:0:0:
488,128,144064,6,0,P|464:88|436:68,1,64.7499980239869,4|0,0:0|0:0,0:0:0:0:
284,108,144337,1,2,0:0:0:0:
360,24,144473,1,0,0:0:0:0:
348,196,144610,2,0,L|340:272,1,64.7499980239869,8|0,0:1|0:0,0:0:0:0:
232,348,144882,1,0,0:0:0:0:
356,356,145019,1,2,0:0:0:0:
236,260,145155,6,0,L|229:195,1,64.7499980239869,2|0,0:0|0:0,0:0:0:0:
337,132,145428,2,0,L|347:198,1,64.7499980239869,2|0,0:0|0:0,0:0:0:0:
232,348,145701,2,0,P|168:352|100:312,1,129.499996047974,8|2,0:1|0:0,0:0:0:0:
32,236,146110,1,0,0:0:0:0:
197,115,146246,6,0,P|196:148|191:180,1,64.7499980239869,2|0,0:0|0:0,0:0:0:0:
320,176,146519,2,0,P|314:144|313:111,1,64.7499980239869,2|0,0:0|0:0,0:0:0:0:
256,244,146791,1,8,0:1:0:0:
412,140,146928,1,0,0:0:0:0:
352,284,147064,2,0,L|360:372,1,64.7499980239869,0|2,0:0|0:0,0:0:0:0:
208,340,147337,70,0,P|149:321|68:340,2,129.499996047974,2|0|8,0:0|0:0|0:1,0:0:0:0:
332,272,148155,2,0,P|360:248|320:212,1,97.1249970359803,2|0,0:3|0:0,0:0:0:0:
280,192,148428,54,0,L|416:172,1,129.499996047974,2|2,0:0|0:0,0:0:0:0:
208,108,148837,2,0,L|344:88,1,129.499996047974
468,124,149246,1,2,0:0:0:0:
424,20,149382,1,2,0:0:0:0:
368,184,149519,6,0,P|344:252|356:320,1,129.499996047974,2|0,0:0|0:0,0:0:0:0:
212,340,149928,2,0,P|218:276|195:216,1,129.499996047974
84,224,150337,1,2,0:0:0:0:
195,216,150473,1,2,0:0:0:0:
108,84,150610,6,0,L|44:56,1,64.7499980239869,2|0,0:0|0:0,0:0:0:0:
212,84,150882,2,0,L|276:52,1,64.7499980239869,2|0,0:0|0:0,0:0:0:0:
412,52,151155,2,0,P|432:76|444:128,1,64.7499980239869,8|0,0:1|0:0,0:0:0:0:
364,240,151428,1,0,0:0:0:0:
496,196,151564,1,2,0:0:0:0:
328,144,151701,6,0,P|265:134|184:144,1,129.499996047974,2|0,0:0|0:0,0:0:0:0:
56,184,152110,1,2,0:0:0:0:
192,296,152246,2,0,P|255:306|336:296,1,129.499996047974,8|0,0:1|0:0,0:0:0:0:
65,58,152791,6,0,P|47:120|56:184,1,129.499996047974,4|0,0:0|0:0,0:0:0:0:
192,296,153337,2,0,P|255:306|336:296,1,129.499996047974,8|0,0:1|0:0,0:0:0:0:
440,284,153746,1,2,0:0:0:0:
298,129,153882,6,0,P|286:159|284:192,1,64.7499980239869,2|0,0:0|0:0,0:0:0:0:
452,120,154155,1,0,0:0:0:0:
344,32,154291,1,0,0:0:0:0:
360,224,154428,2,0,L|360:256|360:300,1,64.7499980239869,8|0,0:1|0:0,0:0:0:0:
216,352,154701,1,2,0:0:0:0:
216,352,154837,1,0,0:0:0:0:
112,188,154973,6,0,P|102:156|104:116,1,64.7499980239869,2|0,0:0|0:0,0:0:0:0:
228,172,155246,2,0,P|227:204|218:235,1,64.7499980239869,2|0,0:0|0:0,0:0:0:0:
120,300,155519,2,0,L|48:296,1,64.7499980239869,8|0,0:1|0:0,0:0:0:0:
216,352,155791,2,0,L|296:348,1,64.7499980239869,2|2,0:0|0:0,0:0:0:0:
424,232,156064,6,0,P|428:193|424:148,1,64.7499980239869,2|0,0:0|0:0,0:0:0:0:
364,76,156337,1,0,0:0:0:0:
460,28,156473,1,0,0:0:0:0:
336,192,156610,2,8,B|300:200|300:200|272:196,1,64.7499980239869,8|0,0:1|0:0,0:1:0:0:
176,164,156882,2,0,L|72:128,1,97.1249970359803,2|0,0:3|0:0,0:0:0:0:
16,132,157155,6,0,P|80:128|120:68,1,129.499996047974,2|2,0:0|0:0,0:0:0:0:
240,76,157564,2,0,P|279:125|341:128,1,129.499996047974
440,136,157973,2,0,L|516:136,1,64.7499980239869,0|2,0:0|0:0,0:0:0:0:
364,264,158246,6,0,L|220:264,1,129.499996047974,2|0,0:0|0:0,0:0:0:0:
92,256,158655,2,0,B|124:196|124:196|96:132,1,129.499996047974
56,52,159064,2,0,L|148:52,1,64.7499980239869,2|0,0:0|0:0,0:0:0:0:
304,52,159337,6,0,P|376:48|468:144,2,194.249994071961,4|4|4,0:0|0:0|0:0,0:0:0:0:
304,52,160973,1,4,0:0:0:0:
112,52,161246,1,8,0:1:0:0:
188,152,161519,6,0,P|172:216|147:274,1,129.499996047974,2|0,0:0|0:0,0:0:0:0:
328,148,161928,2,0,P|344:212|368:270,1,129.499996047974,2|0,0:0|0:0,0:0:0:0:
256,100,162337,2,0,L|256:36,1,64.7499980239869,2|2,0:0|0:0,0:0:0:0:
256,192,162610,1,0,0:0:0:0:
256,192,162678,12,8,163701,0:1:0:0:
280,156,163973,70,0,L|284:76,1,64.7499980239869
368,184,164246,2,0,P|352:216|308:244,1,64.7499980239869
188,192,164519,1,0,0:0:0:0:
280,156,164655,1,0,0:0:0:0:
208,328,164791,6,0,B|152:344|152:344|108:332|100:276,1,129.499996047974,4|2,0:0|0:0,0:0:0:0:
68,212,165200,1,0,0:0:0:0:
84,124,165336,2,0,P|88:96|120:48,1,64.7499980239869,8|0,0:0|0:0,0:0:0:0:
212,24,165609,1,2,0:0:0:0:
324,48,165745,2,0,P|339:76|344:108,1,64.7499980239869,2|2,0:0|0:0,0:0:0:0:
224,224,166018,5,0,0:0:0:0:
360,312,166154,2,0,B|364:276|364:276|357:247,1,64.7499980239869,0|2,0:0|0:0,0:0:0:0:
208,308,166427,2,0,B|201:336|201:336|205:372,1,64.7499980239869,8|0,0:0|0:0,0:0:0:0:
384,384,166700,1,2,0:0:0:0:
472,252,166836,1,2,0:0:0:0:
376,136,166972,6,0,P|304:132|240:168,1,129.499996047974,2|2,0:0|0:0,0:0:0:0:
200,252,167381,1,0,0:0:0:0:
128,168,167518,2,0,L|136:103,1,64.7499980239869,8|0,0:0|0:0,0:0:0:0:
32,192,167791,2,0,L|44:280,1,64.7499980239869,2|0,0:0|0:0,0:0:0:0:
144,340,168063,70,0,P|208:336|292:324,1,129.499996047974,2|0,0:0|0:0,0:0:0:0:
384,292,168472,2,0,P|395:322|398:354,1,64.7499980239869,2|8,0:0|0:0,0:0:0:0:
200,252,168881,1,2,0:0:0:0:
392,176,169154,6,0,B|419:128|419:128|460:136|496:88,1,129.499996047974,2|2,0:0|0:0,0:0:0:0:
340,24,169563,2,0,B|322:63|348:94|348:94|321:142,1,129.499996047974,2|0,0:0|0:0,0:0:0:0:
220,104,169972,2,0,L|152:80,1,64.7499980239869,2|0,0:0|0:0,0:0:0:0:
52,200,170245,6,0,P|32:260|56:318,1,129.499996047974,2|0,0:0|0:0,0:0:0:0:
228,360,170654,2,0,P|252:301|232:241,1,129.499996047974
352,320,171063,2,0,L|432:320,1,64.7499980239869,2|2,0:0|0:0,0:0:0:0:
488,128,171336,6,0,B|444:136|428:160|428:160|400:128|356:128,2,129.499996047974,2|2|8,0:0|0:0|0:0,0:0:0:0:
352,320,172154,1,2,0:0:0:0:
404,240,172291,1,2,0:0:0:0:
260,192,172427,70,0,L|176:188,1,64.7499980239869,4|0,0:0|0:0,0:0:0:0:
84,188,172700,1,2,0:0:0:0:
272,104,172836,2,0,L|356:100,1,64.7499980239869,4|0,0:0|0:0,0:0:0:0:
448,100,173109,1,0,0:0:0:0:
224,40,173245,2,0,L|140:36,1,64.7499980239869,12|0,0:0|0:0,0:0:0:0:
24,160,173518,6,0,P|32:229|84:316,1,129.499996047974,4|2,0:0|0:0,0:0:0:0:
176,360,173927,2,0,P|202:301|209:237,1,129.499996047974
136,116,174336,2,0,L|220:100,1,64.7499980239869,2|0,0:0|0:0,0:0:0:0:
384,136,174609,6,0,L|472:116,2,64.7499980239869,2|0|0,0:0|0:0|0:0,0:0:0:0:
248,204,175018,2,0,B|216:264|216:264|236:276|252:316,1,129.499996047974,2|0,0:0|0:0,0:0:0:0:
400,356,175427,2,0,L|400:292,1,64.7499980239869,2|2,0:0|0:0,0:0:0:0:
304,144,175700,6,0,B|272:112|272:112|224:108|176:144,1,129.499996047974,2|2,0:0|0:0,0:0:0:0:
40,232,176109,2,0,B|72:264|72:264|120:268|168:232,1,129.499996047974
267,231,176518,2,0,L|260:296,1,64.7499980239869,2|2,0:0|0:0,0:0:0:0:
392,200,176791,70,0,L|376:352,1,129.499996047974,2|0,0:0|0:0,0:0:0:0:
267,231,177200,1,0,0:0:0:0:
276,56,177336,1,8,0:0:0:0:
276,56,177609,2,0,L|184:60,1,64.7499980239869,2|0,0:0|0:0,0:0:0:0:
108,112,177881,6,0,B|124:156|88:196|108:244,1,129.499996047974,2|0,0:0|0:0,0:0:0:0:
228,332,178291,2,0,B|246:288|210:248|226:204,1,129.499996047974
324,136,178700,2,0,L|396:120,1,64.7499980239869,2|2,0:0|0:0,0:0:0:0:
192,44,178972,6,0,L|80:36,2,97.1249970359803,2|0|0,0:0|0:0|0:0,0:0:0:0:
408,72,179518,1,8,0:0:0:0:
264,16,179791,1,2,0:0:0:0:
250,96,179927,1,2,0:0:0:0:
237,178,180063,6,0,B|168:144|148:208|208:284|300:312|300:312|360:260|412:204|388:116|328:112|308:160,1,517.999984191895,4|2,0:0|0:0,0:0:0:0:
132,100,181427,2,0,L|132:36,1,64.7499980239869,8|8,3:0|3:0,0:0:0:0:
308,94,181836,2,0,L|308:158,1,64.7499980239869,8|8,3:0|0:1,0:0:0:0:
440,192,182245,70,0,B|452:144|452:144|440:80,2,104.06250396967,4|0|2,0:0|0:0|0:0,0:0:0:0:
348,236,183336,2,0,P|312:248|272:244,1,69.3750026464463
228,256,183745,2,0,P|240:196|204:148,1,104.06250396967,2|0,0:0|0:0,0:0:0:0:
256,64,184427,6,0,L|328:56,1,69.3750026464463,4|0,0:0|0:0,0:0:0:0:
372,40,184836,2,0,B|348:88|348:88|356:108|360:148,1,104.06250396967,2|0,0:0|0:0,0:0:0:0:
352,236,185518,1,2,0:0:0:0:
256,196,185790,1,0,0:0:0:0:
256,196,185927,2,0,P|164:196|136:212,1,104.06250396967,2|2,0:0|0:0,0:0:0:0:
52,216,186608,6,0,L|48:88,2,104.06250396967,4|0|2,0:0|0:0|0:0,0:0:0:0:
100,308,187699,2,0,P|128:296|172:288,1,69.3750026464463
220,288,188108,2,0,P|270:286|320:259,1,104.06250396967,2|0,0:0|0:0,0:0:0:0:
396,172,188791,5,2,0:0:0:0:
417,91,189063,1,0,0:0:0:0:
349,44,189335,1,2,0:0:0:0:
283,96,189608,1,0,0:0:0:0:
311,174,189881,2,0,L|320:320,1,138.750005292893,2|0,0:0|0:0,0:0:0:0:
424,216,190699,1,2,0:0:0:0:
296,36,190972,70,0,B|240:36|240:36|200:72,2,104.06250396967,4|0|2,0:0|0:0|0:0,0:0:0:0:
328,124,192063,2,0,L|320:196,1,69.3750026464463
336,244,192472,2,0,P|244:236|224:252,1,104.06250396967,2|0,0:0|0:0,0:0:0:0:
148,292,193154,5,4,0:0:0:0:
52,252,193427,1,0,0:0:0:0:
52,252,193563,2,0,L|52:132,1,104.06250396967,2|0,0:0|0:0,0:0:0:0:
124,72,194245,1,2,0:0:0:0:
192,152,194518,1,0,0:0:0:0:
192,152,194654,2,0,L|192:248,1,69.3750026464463,2|0,0:0|0:0,0:0:0:0:
192,296,195063,1,2,0:0:0:0:
352,260,195336,6,0,P|396:244|464:244,2,104.06250396967,4|2|0,0:0|0:0|0:0,0:0:0:0:
256,220,196427,2,0,P|240:176|244:104,2,104.06250396967,2|2|0,0:0|0:0|0:0,0:0:0:0:
128,264,197518,6,0,B|92:232|92:232|36:220|0:260,1,138.750005292893,4|0,0:0|0:0,0:0:0:0:
64,340,198336,1,4,0:0:0:0:
168,340,198609,2,0,B|216:340|216:340|252:324|252:324|324:324,2,138.750005292893,4|4|4,0:0|0:0|0:0,0:0:0:0:
88,264,199836,5,0,0:0:0:0:
208,192,199972,2,0,P|220:116|216:100,1,64.7499980239869,2|0,0:0|0:0,0:0:0:0:
16,124,200245,2,0,L|164:144,1,129.499996047974,8|0,0:1|0:0,0:0:0:0:
292,208,200654,1,0,0:0:0:0:
372,136,200791,6,0,P|436:128|484:136,1,64.7499980239869,2|0,0:0|0:0,0:0:0:0:
336,288,201063,2,0,P|272:296|224:288,1,64.7499980239869
152,216,201336,2,0,P|76:192|12:220,1,129.499996047974,8|2,0:1|0:0,0:0:0:0:
84,304,201745,1,0,0:0:0:0:
30,206,201881,6,0,L|28:120,1,64.7499980239869,2|0,0:0|0:0,0:0:0:0:
152,216,202154,1,2,0:0:0:0:
232,88,202291,1,2,0:0:0:0:
296,196,202427,2,0,P|301:228|296:260,1,64.7499980239869,8|0,0:1|0:0,0:0:0:0:
204,332,202700,1,0,0:0:0:0:
152,216,202836,1,2,0:0:0:0:
296,196,202972,6,0,P|324:204|359:208,1,64.7499980239869,2|0,0:0|0:0,0:0:0:0:
256,124,203245,2,0,P|284:116|317:103,1,64.7499980239869
192,64,203518,2,0,P|212:43|234:15,1,64.7499980239869,8|0,0:1|0:0,0:0:0:0:
92,64,203791,2,0,P|100:36|104:0,1,64.7499980239869,2|0,0:0|0:0,0:0:0:0:
16,152,204063,70,0,L|20:296,1,129.499996047974,2|2,0:0|0:0,0:0:0:0:
116,336,204472,1,0,0:0:0:0:
212,216,204609,2,0,P|284:209|384:220,1,129.499996047974,8|0,0:1|0:0,0:0:0:0:
444,256,205018,1,2,0:0:0:0:
328,116,205154,6,0,L|332:40,1,64.7499980239869,2|0,0:0|0:0,0:0:0:0:
432,152,205427,2,0,L|432:84,1,64.7499980239869
248,152,205700,2,0,P|184:132|104:132,1,129.499996047974,8|2,0:1|0:0,0:0:0:0:
16,168,206109,1,0,0:0:0:0:
180,284,206245,6,0,P|208:309|233:336,2,64.7499980239869,2|0|2,0:0|0:0|0:0,0:0:0:0:
72,256,206654,1,0,0:0:0:0:
236,192,206791,1,8,0:1:0:0:
84,108,206927,1,0,0:0:0:0:
258,88,207063,2,0,P|255:120|239:176,1,64.7499980239869,0|2,0:0|0:0,0:0:0:0:
72,256,207336,6,0,L|0:200,2,64.7499980239869,4|0|0,0:0|0:0|0:0,0:0:0:0:
256,340,207745,2,0,L|308:288,2,64.7499980239869,4|0|0,0:0|0:0|0:0,0:0:0:0:
172,168,208154,2,0,L|276:140,1,97.1249970359803,4|0,0:0|0:0,0:0:0:0:
336,104,208427,70,0,P|304:124|300:224,1,129.499996047974,4|2,0:0|0:0,0:0:0:0:
368,336,208836,1,0,0:0:0:0:
472,196,208972,1,8,0:1:0:0:
368,336,209109,1,0,0:0:0:0:
376,176,209245,1,0,0:0:0:0:
468,348,209381,1,2,0:0:0:0:
300,256,209518,6,0,L|170:256,1,129.499996047974,2|0,0:0|0:0,0:0:0:0:
24,312,209927,1,0,0:0:0:0:
104,184,210063,1,8,0:1:0:0:
120,340,210200,1,0,0:0:0:0:
12,204,210336,1,2,0:0:0:0:
196,176,210472,1,0,0:0:0:0:
24,312,210609,5,2,0:0:0:0:
224,283,210745,2,0,P|256:279|304:267,1,64.7499980239869,0|2,0:0|0:0,0:0:0:0:
368,176,211018,1,0,0:0:0:0:
428,288,211154,2,0,L|428:353,1,64.7499980239869,8|0,0:1|0:0,0:0:0:0:
500,188,211427,2,0,L|500:252,1,64.7499980239869,0|2,0:0|0:0,0:0:0:0:
368,104,211700,6,0,L|368:252,2,129.499996047974,2|0|8,0:0|0:0|0:1,0:0:0:0:
264,48,212381,2,0,P|216:40|192:48,1,64.7499980239869,0|2,0:0|0:0,0:0:0:0:
108,100,212654,1,0,0:0:0:0:
264,196,212791,70,0,P|260:268|248:340,1,129.499996047974,2|2,0:0|0:0,0:0:0:0:
140,332,213200,1,0,0:0:0:0:
52,208,213336,2,0,P|51:170|60:116,1,64.7499980239869,8|0,0:1|0:0,0:0:0:0:
128,52,213609,2,0,P|141:81|158:109,1,64.7499980239869,0|2,0:0|0:0,0:0:0:0:
288,120,213881,6,0,P|352:108|436:116,2,129.499996047974,2|0|8,0:0|0:0|0:1,0:0:0:0:
92,224,214700,2,0,P|64:215|36:168,1,64.7499980239869,2|0,0:0|0:0,0:0:0:0:
128,52,214972,6,0,B|208:32|208:32|264:40,1,129.499996047974,4|2,0:0|0:0,0:0:0:0:
336,88,215381,1,0,0:0:0:0:
218,210,215518,2,0,B|138:230|138:230|82:222,1,129.499996047974,8|0,0:1|0:0,0:0:0:0:
284,156,215927,6,0,P|300:220|260:288,1,129.499996047974
172,296,216336,2,0,P|168:332|172:368,1,64.7499980239869,0|2,0:0|0:0,0:0:0:0:
274,275,216609,2,0,L|418:267,1,129.499996047974,8|2,0:1|0:0,0:0:0:0:
184,176,217154,6,0,P|172:120|188:28,1,129.499996047974,2|0,0:0|0:0,0:0:0:0:
96,176,217563,2,0,P|84:120|100:28,1,129.499996047974,2|0,0:0|0:0,0:0:0:0:
8,176,217972,2,0,P|0:132|8:88,1,64.7499980239869,2|0,0:0|0:0,0:0:0:0:
331,48,218245,6,0,P|340:112|328:176,1,129.499996047974,2|0,0:0|0:0,0:0:0:0:
419,48,218654,2,0,P|428:112|416:176,1,129.499996047974,2|0,0:0|0:0,0:0:0:0:
510,112,219063,2,0,P|511:144|504:176,1,64.7499980239869,2|0,0:0|0:0,0:0:0:0:
332,256,219336,6,0,P|272:244|200:284,1,129.499996047974,2|0,0:0|0:0,0:0:0:0:
60,152,219745,2,0,P|120:164|192:124,1,129.499996047974,2|0,0:0|0:0,0:0:0:0:
260,24,220154,2,0,L|280:96,1,64.7499980239869,2|0,0:0|0:0,0:0:0:0:
332,256,220427,1,2,0:0:0:0:
256,192,220495,12,8,221518,0:1:0:0:
408,336,221791,5,0,0:0:0:0:
416,248,221927,1,0,0:0:0:0:
420,160,222063,2,0,P|392:96|320:92,1,129.499996047974
244,100,222472,1,0,0:0:0:0:
116,192,222609,70,0,B|104:228|72:260|72:260|96:276|128:292,1,129.499996047974,4|2,0:0|0:0,0:0:0:0:
188,324,223018,1,0,0:0:0:0:
288,272,223154,2,0,P|248:252|208:236,1,64.7499980239869,8|0,0:0|0:0,0:0:0:0:
264,360,223427,1,0,0:0:0:0:
320,192,223563,2,0,P|360:172|400:156,1,64.7499980239869,2|2,0:0|0:0,0:0:0:0:
388,264,223836,5,0,0:0:0:0:
288,272,223972,1,0,0:0:0:0:
224,120,224109,1,2,0:0:0:0:
336,32,224245,2,0,P|339:64|338:96,1,64.7499980239869,8|0,0:0|0:0,0:0:0:0:
216,200,224518,1,2,0:0:0:0:
140,32,224654,1,2,0:0:0:0:
32,156,224790,6,0,P|6:214|28:280,1,129.499996047974,2|2,0:0|0:0,0:0:0:0:
132,212,225199,1,0,0:0:0:0:
212,288,225336,2,0,L|200:376,1,64.7499980239869,8|0,0:0|0:0,0:0:0:0:
24,275,225609,2,0,L|36:363,1,64.7499980239869,2|0,0:0|0:0,0:0:0:0:
280,356,225881,6,0,P|344:352|416:308,1,129.499996047974,2|2,0:0|0:0,0:0:0:0:
444,152,226290,2,0,P|464:176|478:205,1,64.7499980239869,0|8,0:0|0:0,0:0:0:0:
252,204,226563,1,0,0:0:0:0:
200,32,226699,1,0,0:0:0:0:
372,60,226836,1,0,0:0:0:0:
252,204,226972,70,0,L|116:192,1,129.499996047974,2|2,0:0|0:0,0:0:0:0:
332,120,227381,2,0,L|344:272,1,129.499996047974,2|0,0:0|0:0,0:0:0:0:
200,292,227790,2,0,L|128:284,1,64.7499980239869,2|0,0:0|0:0,0:0:0:0:
342,249,228063,6,0,P|407:246|491:208,1,129.499996047974,2|0,0:0|0:0,0:0:0:0:
380,28,228472,2,0,P|315:31|231:69,1,129.499996047974,2|0,0:0|0:0,0:0:0:0:
140,124,228881,2,0,L|144:228,1,64.7499980239869
256,340,229154,6,0,L|408:344,2,129.499996047974,2|2|8,0:0|0:0|0:0,0:0:0:0:
144,308,229836,1,0,0:0:0:0:
264,248,229972,1,2,0:0:0:0:
156,208,230109,1,0,0:0:0:0:
328,144,230245,6,0,L|408:144,1,64.7499980239869,4|0,0:0|0:0,0:0:0:0:
484,144,230518,1,0,0:0:0:0:
268,56,230654,2,0,L|360:56,1,64.7499980239869,4|0,0:0|0:0,0:0:0:0:
428,56,230927,1,0,0:0:0:0:
184,140,231063,2,0,L|252:140,1,64.7499980239869,4|0,0:0|0:0,0:0:0:0:
96,80,231336,70,0,P|78:144|105:202,1,129.499996047974,4|2,0:0|0:0,0:0:0:0:
248,348,231745,2,0,P|271:289|254:227,1,129.499996047974,0|2,0:0|0:0,0:0:0:0:
184,140,232154,2,0,L|256:132,1,64.7499980239869,2|2,0:0|0:0,0:0:0:0:
184,24,232427,6,0,L|120:16,2,64.7499980239869,2|0|0,0:0|0:0|0:0,0:0:0:0:
324,48,232836,2,0,P|384:25|448:30,1,129.499996047974,2|0,0:0|0:0,0:0:0:0:
496,144,233245,2,0,L|496:244,1,64.7499980239869,2|2,0:0|0:0,0:0:0:0:
328,316,233518,6,0,B|296:336|296:336|252:312|184:324,1,129.499996047974,2|2,0:0|0:0,0:0:0:0:
76,200,233927,2,0,B|108:220|108:220|152:196|220:208,1,129.499996047974
288,132,234336,2,0,L|300:28,1,64.7499980239869,2|0,0:0|0:0,0:0:0:0:
400,220,234609,6,0,P|417:289|424:372,2,129.499996047974,2|0|8,0:0|0:0|0:0,0:0:0:0:
400,220,235427,2,0,L|335:222,1,64.7499980239869,2|0,0:0|0:0,0:0:0:0:
106,209,235699,70,0,P|112:144|108:80,1,129.499996047974,2|2,0:0|0:0,0:0:0:0:
272,68,236109,2,0,P|268:136|276:212,1,129.499996047974
372,284,236518,2,0,L|368:384,1,64.7499980239869,2|0,0:0|0:0,0:0:0:0:
184,276,236790,6,0,L|168:152,2,97.1249970359803,2|0|0,0:0|0:0|0:0,0:0:0:0:
400,176,237336,1,8,0:0:0:0:
252,72,237609,1,2,0:0:0:0:
176,72,237745,1,2,0:0:0:0:
96,76,237881,6,0,P|112:164|276:160,1,258.999992095948,4|8,0:0|0:0,0:0:0:0:
468,180,238699,1,2,0:0:0:0:
448,80,238836,1,2,0:0:0:0:
348,264,238972,5,4,0:0:0:0:
328,176,239109,1,0,0:0:0:0:
312,88,239245,1,2,0:0:0:0:
162,221,239381,69,2,0:0:0:0:
328,176,239518,1,8,0:1:0:0:
152,112,239654,5,0,0:0:0:0:
312,88,239790,1,2,0:0:0:0:
348,264,239927,1,0,0:0:0:0:
166,309,240063,6,0,P|106:297|162:221,1,194.249994071961,4|0,0:0|0:0,0:0:0:0:
272,188,240608,2,0,L|364:152,1,64.7499980239869,8|0,0:0|0:0,0:0:0:0:
416,80,240881,1,2,0:0:0:0:
252,16,241017,2,0,P|246:49|252:91,2,64.7499980239869,2|2|0,0:0|0:0|0:0,0:0:0:0:
416,80,241426,6,0,P|420:120|416:156,1,64.7499980239869,0|2,0:0|0:0,0:0:0:0:
269,252,241699,2,0,P|268:219|272:187,1,64.7499980239869,8|0,0:0|0:0,0:0:0:0:
324,84,241972,1,2,0:0:0:0:
376,204,242108,1,2,0:0:0:0:
216,56,242245,70,0,B|160:40|160:40|88:76,1,129.499996047974,2|0,0:0|0:0,0:0:0:0:
28,152,242653,1,0,0:0:0:0:
72,248,242790,2,0,L|84:336,1,64.7499980239869,8|0,0:0|0:0,0:0:0:0:
200,180,243063,2,0,L|188:268,1,64.7499980239869,2|0,0:0|0:0,0:0:0:0:
268,348,243336,6,0,P|331:356|400:312,1,129.499996047974,2|2,0:0|0:0,0:0:0:0:
440,172,243745,1,0,0:0:0:0:
240,172,243881,1,8,0:0:0:0:
344,252,244018,1,0,0:0:0:0:
340,96,244154,2,0,L|340:32,1,64.7499980239869,2|0,0:0|0:0,0:0:0:0:
148,164,244426,6,0,P|124:228|156:288,1,129.499996047974,2|2,0:0|0:0,0:0:0:0:
268,348,244836,2,0,P|291:289|267:231,1,129.499996047974,2|0,0:0|0:0,0:0:0:0:
228,120,245244,2,0,L|296:96,1,64.7499980239869,2|0,0:0|0:0,0:0:0:0:
148,164,245517,6,0,L|4:120,1,129.499996047974,2|0,0:0|0:0,0:0:0:0:
228,120,245926,2,0,B|248:180|248:180|200:264,1,129.499996047974,2|0,0:0|0:0,0:0:0:0:
160,320,246335,2,0,L|232:336,1,64.7499980239869,2|2,0:0|0:0,0:0:0:0:
368,312,246609,70,0,P|440:288|500:312,2,129.499996047974,2|2|8,0:0|0:0|0:0,0:0:0:0:
292,372,247290,1,0,0:0:0:0:
196,364,247426,1,2,0:0:0:0:
120,312,247563,1,2,0:0:0:0:
252,192,247699,6,0,L|256:268,1,64.7499980239869,4|0,0:0|0:0,0:0:0:0:
260,348,247972,1,0,0:0:0:0:
344,120,248108,2,0,L|348:196,1,64.7499980239869,4|0,0:0|0:0,0:0:0:0:
352,276,248381,1,0,0:0:0:0:
432,64,248517,2,0,L|436:140,1,64.7499980239869,4|0,0:0|0:0,0:0:0:0:
260,348,248790,6,0,P|191:340|104:288,1,129.499996047974,4|2,0:0|0:0,0:0:0:0:
304,144,249199,2,0,P|322:206|326:270,1,129.499996047974
105,214,249608,2,0,P|116:188|148:148,1,64.7499980239869,2|2,0:0|0:0,0:0:0:0:
212,80,249881,6,0,L|200:4,2,64.7499980239869,2|0|0,0:0|0:0|0:0,0:0:0:0:
352,52,250290,2,0,P|420:48|508:96,1,129.499996047974,2|0,0:0|0:0,0:0:0:0:
504,200,250699,1,2,0:0:0:0:
444,320,250836,1,2,0:0:0:0:
296,304,250972,70,0,B|256:264|256:264|288:232|296:176,1,129.499996047974,2|2,0:0|0:0,0:0:0:0:
144,200,251381,2,0,B|146:231|178:263|178:263|138:303,1,129.499996047974
24,260,251790,2,0,L|12:156,1,64.7499980239869,2|2,0:0|0:0,0:0:0:0:
100,56,252063,6,0,P|168:43|248:32,1,129.499996047974,2|0,0:0|0:0,0:0:0:0:
336,24,252472,1,0,0:0:0:0:
328,164,252609,1,8,0:0:0:0:
328,164,252881,2,0,L|420:168,1,64.7499980239869,2|0,0:0|0:0,0:0:0:0:
212,124,253154,6,0,P|212:188|216:253,1,129.499996047974,2|2,0:0|0:0,0:0:0:0:
324,384,253563,2,0,P|328:319|324:252,1,129.499996047974
216,253,253972,2,0,L|220:353,1,64.7499980239869,2|2,0:0|0:0,0:0:0:0:
424,256,254244,6,0,L|440:132,2,97.1249970359803,2|0|0,0:0|0:0|0:0,0:0:0:0:
200,176,254790,1,8,0:0:0:0:
304,16,255063,1,2,0:0:0:0:
312,112,255199,1,2,0:0:0:0:
320,208,255335,70,0,B|284:256|280:336|280:336|220:284|140:292,1,258.999992095948,4|2,0:0|0:0,0:0:0:0:
40,60,256154,2,0,P|32:92|36:124,1,64.7499980239869
160,267,256426,5,6,0:0:0:0:
232,120,256563,1,2,0:0:0:0:
304,264,256699,1,0,0:0:0:0:
160,267,256836,5,2,0:0:0:0:
92,204,256972,1,0,0:0:0:0:
132,124,257108,1,0,0:0:0:0:
336,128,257245,5,8,0:1:0:0:
368,204,257381,1,0,0:0:0:0:
160,267,257517,70,0,L|148:163,1,64.7499980239869,4|0,0:0|0:0,0:0:0:0:
68,260,257790,1,2,0:0:0:0:
252,276,257926,2,0,L|240:184,1,64.7499980239869,0|8,0:0|0:0,0:0:0:0:
160,267,258199,1,0,0:0:0:0:
344,284,258335,2,0,L|332:180,1,64.7499980239869,2|2,0:0|0:0,0:0:0:0:
328,88,258608,6,0,P|366:80|416:84,1,64.7499980239869,2|0,0:0|0:0,0:0:0:0:
488,124,258881,1,0,0:0:0:0:
304,172,259017,2,0,P|266:164|216:168,2,64.7499980239869,2|8|0,0:0|0:0|0:0,0:0:0:0:
436,248,259426,1,2,0:0:0:0:
316,344,259563,1,2,0:0:0:0:
392,160,259699,6,0,L|384:80,1,64.7499980239869,2|0,0:0|0:0,0:0:0:0:
224,244,259972,2,0,L|288:248,1,64.7499980239869,2|0,0:0|0:0,0:0:0:0:
132,92,260244,2,0,L|122:155,1,64.7499980239869,8|0,0:0|0:0,0:0:0:0:
292,24,260517,2,2,L|227:21,1,64.7499980239869,2|0,0:0|0:0,0:0:0:0:
3,143,260790,6,0,P|59:171|139:139,1,129.499996047974,2|0,0:0|0:0,0:0:0:0:
388,128,261199,2,0,P|325:112|263:128,1,129.499996047974,2|0,0:0|0:0,0:0:0:0:
216,224,261608,2,0,P|220:296|200:332,1,97.1249970359803,2|0,0:3|0:0,0:0:0:0:
152,352,261881,6,0,P|214:337|273:361,1,129.499996047974,2|2,0:0|0:0,0:0:0:0:
428,348,262290,1,0,0:0:0:0:
320,268,262426,2,0,B|300:216|300:216|320:116,1,129.499996047974,8|2,0:0|0:0,0:0:0:0:
432,220,262835,1,0,0:0:0:0:
360,48,262972,6,0,B|316:76|284:69|284:69|236:112,1,129.499996047974,2|0,0:0|0:0,0:0:0:0:
88,124,263381,2,0,B|134:139|134:139|144:170|190:194,1,129.499996047974,2|0,0:0|0:0,0:0:0:0:
240,292,263790,2,0,L|236:360,1,64.7499980239869,2|2,0:0|0:0,0:0:0:0:
24,316,264063,38,0,L|24:184,1,129.499996047974,2|2,0:0|0:0,0:0:0:0:
132,360,264609,2,0,L|132:228,1,129.499996047974,8|2,0:0|0:0,0:0:0:0:
364,136,265153,5,4,0:0:0:0:
292,108,265290,1,0,0:0:0:0:
224,148,265426,1,0,0:0:0:0:
404,56,265563,5,6,0:0:0:0:
284,24,265699,1,0,0:0:0:0:
176,88,265835,1,0,0:0:0:0:
308,252,265972,2,0,L|301:188,1,64.7499980239869,6|0,0:0|0:0,0:0:0:0:
120,144,266244,6,0,L|108:248,1,64.7499980239869,4|0,0:0|0:0,0:0:0:0:
96,320,266517,1,2,0:0:0:0:
208,132,266653,2,0,L|200:224,1,64.7499980239869,0|8,0:0|0:0,0:0:0:0:
188,320,266926,1,0,0:0:0:0:
296,128,267062,2,0,L|284:232,1,64.7499980239869,2|2,0:0|0:0,0:0:0:0:
284,320,267335,70,0,P|322:328|372:324,1,64.7499980239869,2|0,0:0|0:0,0:0:0:0:
444,284,267608,1,0,0:0:0:0:
260,224,267745,2,0,P|222:232|172:228,1,64.7499980239869,2|8,0:0|0:0,0:0:0:0:
296,128,268018,1,0,0:0:0:0:
440,144,268153,1,2,0:0:0:0:
376,16,268290,1,2,0:0:0:0:
348,248,268426,6,0,L|340:328,1,64.7499980239869,2|0,0:0|0:0,0:0:0:0:
224,312,268699,2,0,L|160:316,1,64.7499980239869,2|0,0:0|0:0,0:0:0:0:
338,185,268972,2,0,L|348:248,1,64.7499980239869,8|0,0:0|0:0,0:0:0:0:
160,316,269244,2,0,L|96:304,1,64.7499980239869,2|0,0:0|0:0,0:0:0:0:
348,248,269517,6,0,P|408:248|484:252,1,129.499996047974,2|0,0:0|0:0,0:0:0:0:
284,336,269927,2,0,P|344:336|420:340,1,129.499996047974,2|0,0:0|0:0,0:0:0:0:
477,251,270336,2,0,P|481:179|461:143,1,97.1249970359803,2|0,0:3|0:0,0:0:0:0:
424,76,270609,22,0,P|356:100|295:80,1,129.499996047974,2|2,0:0|0:0,0:0:0:0:
184,24,271018,1,0,0:0:0:0:
64,64,271153,1,8,0:0:0:0:
188,112,271290,1,0,0:0:0:0:
72,160,271426,2,0,L|72:225,1,64.7499980239869,2|2,0:0|0:0,0:0:0:0:
112,352,271699,6,0,P|172:332|240:320,1,129.499996047974,2|0,0:0|0:0,0:0:0:0:
348,328,272109,1,2,0:0:0:0:
404,176,272245,2,0,L|400:100,1,64.7499980239869,8|0,0:0|0:0,0:0:0:0:
228,76,272518,2,0,L|232:141,1,64.7499980239869,2|2,0:0|0:0,0:0:0:0:
232,368,272790,37,4,0:0:0:0:
232,368,273063,2,0,L|232:280,1,64.7499980239869,2|0,0:0|0:0,0:0:0:0:
284,224,273336,1,8,0:0:0:0:
168,240,273472,2,0,L|104:252,1,64.7499980239869,0|2,0:0|0:0,0:0:0:0:
231,140,273745,1,2,0:0:0:0:
357,277,273881,5,4,0:0:0:0:
368,188,274018,1,0,0:0:0:0:
376,100,274154,5,0,0:0:0:0:
252,256,274290,1,2,0:0:0:0:
464,276,274427,5,8,0:0:0:0:
472,184,274563,1,0,0:0:0:0:
264,164,274699,69,0,0:0:0:0:
252,256,274836,1,2,0:0:0:0:
371,382,274972,6,0,L|367:230,1,129.499996047974,4|0,0:0|0:0,0:0:0:0:
368,252,275518,2,0,L|368:188,1,64.7499980239869,8|0,0:0|0:0,0:0:0:0:
456,136,275790,2,0,L|456:56,1,64.7499980239869,2|0,0:0|0:0,0:0:0:0:
332,32,276063,6,0,P|276:24|196:36,1,129.499996047974
116,76,276472,1,2,0:0:0:0:
176,152,276609,2,0,L|184:240,1,64.7499980239869,8|0,0:0|0:0,0:0:0:0:
276,188,276881,2,0,L|268:276,1,64.7499980239869,2|2,0:0|0:0,0:0:0:0:
188,304,277154,6,0,L|56:304,1,129.499996047974,2|2,0:0|0:0,0:0:0:0:
46,152,277699,2,0,L|176:152,1,129.499996047974,8|2,0:0|0:0,0:0:0:0:
276,152,278109,1,0,0:0:0:0:
372,144,278245,70,0,P|384:64|356:8,1,129.499996047974,2|0,0:0|0:0,0:0:0:0:
292,84,278654,1,2,0:0:0:0:
372,144,278790,2,0,L|468:148,1,64.7499980239869,8|0,0:0|0:0,0:0:0:0:
464,240,279063,2,0,L|380:232,1,64.7499980239869,2|0,0:0|0:0,0:0:0:0:
280,196,279336,6,0,P|212:191|140:200,1,129.499996047974,2|2,0:0|0:0,0:0:0:0:
292,332,279881,2,0,P|359:336|432:328,1,129.499996047974,8|2,0:0|0:0,0:0:0:0:
488,260,280290,1,2,0:0:0:0:
400,216,280427,6,0,P|412:160|444:80,1,129.499996047974,2|0,0:0|0:0,0:0:0:0:
380,16,280836,1,2,0:0:0:0:
316,92,280972,2,0,P|260:80|180:88,1,129.499996047974,8|2,0:0|0:0,0:0:0:0:
92,108,281381,1,2,0:0:0:0:
160,180,281518,6,0,P|187:246|199:303,1,129.499996047974,2|2,0:0|0:0,0:0:0:0:
432,352,282063,2,0,P|446:288|471:229,1,129.499996047974,8|2,0:0|0:0,0:0:0:0:
504,144,282472,1,2,0:0:0:0:
360,280,282609,6,0,L|351:216,1,64.7499980239869,4|0,0:0|0:0,0:0:0:0:
319,132,282881,1,0,0:0:0:0:
257,280,283018,2,0,L|263:216,1,64.7499980239869,4|8,0:0|0:0,0:0:0:0:
231,128,283290,1,0,0:0:0:0:
160,275,283427,2,0,L|171:212,1,64.7499980239869,4|0,0:0|0:0,0:0:0:0:
191,360,283699,54,0,P|256:351|320:355,1,129.499996047974,4|2,0:0|0:0,0:0:0:0:
496,272,284245,2,0,P|504:232|496:192,1,64.7499980239869,8|0,0:0|0:0,0:0:0:0:
398,140,284517,2,0,P|396:172|404:204,1,64.7499980239869,2|0,0:0|0:0,0:0:0:0:
316,280,284790,6,0,P|260:272|180:284,1,129.499996047974,2|0,0:0|0:0,0:0:0:0:
92,288,285199,1,2,0:0:0:0:
8,216,285336,2,0,L|2:151,1,64.7499980239869,8|0,0:0|0:0,0:0:0:0:
116,124,285608,2,0,L|108:212,1,64.7499980239869,2|2,0:0|0:0,0:0:0:0:
92,288,285881,6,0,L|221:288,1,129.499996047974,2|2,0:0|0:0,0:0:0:0:
116,124,286426,2,0,L|246:124,1,129.499996047974,8|2,0:0|0:0,0:0:0:0:
340,92,286836,1,2,0:0:0:0:
416,152,286972,6,0,P|436:212|421:275,1,129.499996047974,2|0,0:0|0:0,0:0:0:0:
340,324,287381,1,2,0:0:0:0:
268,260,287517,2,0,L|203:257,1,64.7499980239869,8|0,0:0|0:0,0:0:0:0:
44,192,287790,2,0,L|108:185,1,64.7499980239869,2|0,0:0|0:0,0:0:0:0:
196,160,288063,70,0,L|325:163,1,129.499996047974,2|2,0:0|0:0,0:0:0:0:
48,36,288609,2,0,L|177:39,1,129.499996047974,8|0,0:0|0:0,0:0:0:0:
276,44,289017,1,2,0:0:0:0:
364,88,289154,6,0,P|360:156|353:217,1,129.499996047974,2|2,0:0|0:0,0:0:0:0:
328,312,289563,1,2,0:0:0:0:
240,96,289699,2,0,P|259:161|274:220,1,129.499996047974,8|2,0:0|0:0,0:0:0:0:
328,312,290108,1,2,0:0:0:0:
128,132,290245,6,0,P|168:184|202:237,1,129.499996047974,4|0,0:0|0:0,0:0:0:0:
364,88,290790,2,0,B|444:80|444:80|508:100,1,129.499996047974,8|0,0:0|0:0,0:0:0:0:
472,192,291199,1,0,0:0:0:0:
232,132,291336,21,4,0:0:0:0:
292,36,291472,1,0,0:0:0:0:
336,144,291609,1,0,0:0:0:0:
128,132,291745,5,8,0:1:0:0:
76,32,291881,1,0,0:0:0:0:
188,40,292018,1,2,0:0:0:0:
28,136,292154,2,0,L|31:200,1,64.7499980239869,8|0,0:1|0:1,0:1:0:0:
144,324,292427,6,0,P|207:332|263:303,1,129.499996047974,4|2,0:0|0:0,0:0:0:0:
296,220,292836,1,0,0:0:0:0:
236,156,292972,2,0,P|172:147|116:176,1,129.499996047974,8|2,0:0|0:0,0:0:0:0:
192,244,293381,1,2,0:0:0:0:
352,196,293518,6,0,L|352:116,1,64.7499980239869,2|0,0:0|0:0,0:0:0:0:
453,72,293790,2,0,L|464:136,1,64.7499980239869,0|2,0:0|0:0,0:0:0:0:
360,20,294063,2,0,P|296:24|230:20,1,129.499996047974,8|2,0:0|0:0,0:0:0:0:
132,24,294472,1,2,0:0:0:0:
48,72,294609,6,0,P|44:145|36:208,1,129.499996047974,2|2,0:0|0:0,0:0:0:0:
24,344,295154,2,0,L|184:344,1,129.499996047974,8|2,0:0|0:0,0:0:0:0:
248,316,295563,1,2,0:0:0:0:
312,244,295699,6,0,L|308:180,1,64.7499980239869,2|0,0:0|0:0,0:0:0:0:
136,124,295972,1,0,0:0:0:0:
232,96,296109,1,2,0:0:0:0:
204,188,296245,2,0,L|176:264,1,64.7499980239869,8|0,0:0|0:0,0:0:0:0:
340,128,296518,2,0,L|360:212,1,64.7499980239869,2|0,0:0|0:0,0:0:0:0:
344,336,296790,6,0,B|276:320|276:320|196:336,1,129.499996047974,2|2,0:0|0:0,0:0:0:0:
36,260,297336,2,0,P|64:212|40:136,1,129.499996047974,8|2,0:0|0:0,0:0:0:0:
84,40,297745,1,2,0:0:0:0:
160,128,297881,1,2,0:0:0:0:
480,120,298154,5,2,0:0:0:0:
400,52,298290,1,0,0:0:0:0:
396,168,298427,2,0,P|392:240|402:297,1,129.499996047974,8|2,0:0|0:0,0:0:0:0:
320,352,298836,1,2,0:0:0:0:
240,296,298972,70,0,P|250:232|246:167,1,129.499996047974,2|2,0:0|0:0,0:0:0:0:
68,88,299518,2,0,L|204:52,1,129.499996047974,8|2,0:0|0:0,0:0:0:0:
292,56,299927,1,2,0:0:0:0:
216,220,300063,6,0,P|186:207|154:203,1,64.7499980239869,4|0,0:0|0:0,0:0:0:0:
168,312,300336,1,0,0:0:0:0:
320,212,300472,2,0,P|348:200|388:196,1,64.7499980239869,4|8,0:0|0:0,0:0:0:0:
380,312,300745,1,0,0:0:0:0:
260,152,300881,2,0,P|243:116|241:88,1,64.7499980239869,4|0,0:0|0:0,0:0:0:0:
448,128,301154,6,0,P|477:185|466:247,1,129.499996047974,4|2,0:0|0:0,0:0:0:0:
380,312,301563,1,0,0:0:0:0:
312,244,301699,2,0,P|300:181|329:124,1,129.499996047974,8|2,0:0|0:0,0:0:0:0:
404,52,302108,1,2,0:0:0:0:
244,80,302245,6,0,L|156:64,1,64.7499980239869,2|0,0:0|0:0,0:0:0:0:
48,168,302518,2,0,L|111:156,1,64.7499980239869,2|0,0:0|0:0,0:0:0:0:
244,80,302790,2,0,P|308:64|384:64,1,129.499996047974,8|2,0:0|0:0,0:0:0:0:
472,76,303199,1,2,0:0:0:0:
489,176,303336,6,0,L|484:324,1,129.499996047974,2|2,0:0|0:0,0:0:0:0:
380,140,303881,2,0,L|375:288,1,129.499996047974,8|2,0:0|0:0,0:0:0:0:
304,336,304290,1,2,0:0:0:0:
244,260,304427,6,0,P|237:229|240:196,1,64.7499980239869,2|0,0:0|0:0,0:0:0:0:
268,104,304699,1,0,0:0:0:0:
336,36,304836,1,2,0:0:0:0:
240,28,304972,2,0,L|164:28,1,64.7499980239869,8|0,0:0|0:0,0:0:0:0:
56,100,305245,2,0,L|132:100,1,64.7499980239869,2|0,0:0|0:0,0:0:0:0:
239,196,305517,6,0,L|91:196,1,129.499996047974,2|2,0:0|0:0,0:0:0:0:
112,176,306063,2,0,L|272:176,1,129.499996047974,8|2,0:0|0:0,0:0:0:0:
352,180,306472,1,2,0:0:0:0:
376,88,306608,1,2,0:0:0:0:
172,76,306881,5,0,0:0:0:0:
76,52,307017,1,2,0:0:0:0:
12,128,307154,2,0,P|0:200|5:257,1,129.499996047974,8|2,0:0|0:0,0:0:0:0:
56,340,307563,1,2,0:0:0:0:
164,208,307699,6,0,P|219:202|319:198,1,129.499996047974,4|2,0:0|0:0,0:0:0:0:
289,174,308245,2,0,P|224:177|160:184,1,129.499996047974,8|0,0:0|0:0,0:0:0:0:
68,216,308654,1,2,0:0:0:0:
120,92,308790,6,0,L|116:0,1,64.7499980239869,4|0,0:0|0:0,0:0:0:0:
276,44,309063,1,0,0:0:0:0:
188,204,309199,2,0,L|196:124,1,64.7499980239869,6|8,0:0|0:0,0:0:0:0:
316,124,309472,1,0,0:0:0:0:
113,291,309609,2,0,L|97:215,1,64.7499980239869,4|0,0:0|0:0,0:0:0:0:
188,204,309881,6,0,L|336:200,1,138.750005292893,4|4,0:0|0:0,0:0:0:0:
432,196,310699,1,0,0:0:0:0:
512,132,310972,2,0,P|508:84|424:52,1,138.750005292893,4|4,0:0|0:0,0:0:0:0:
320,60,311790,1,0,0:0:0:0:
200,80,312063,6,0,L|4:52,2,185,4|4|4,0:0|0:0|0:0,0:0:0:0:
256,192,313440,12,0,315736,0:0:0:0:
