osu file format v12

[General]
AudioFilename: 04 - (instrumental).mp3
AudioLeadIn: 0
PreviewTime: 79635
Countdown: 0
SampleSet: Soft
StackLeniency: 0.7
Mode: 0
LetterboxInBreaks: 1
WidescreenStoryboard: 1

[Editor]
Bookmarks: 9097,10334,22706,42499,62293,72190,82087,101881,121675,141468,158788,161262,169922,171159,181056,182912,183530,190953,198376,200850,220644,240438,260231,277551
DistanceSpacing: 1
BeatDivisor: 1
GridSize: 4

[Metadata]
Title:Namidaboshi (instrumental)
TitleUnicode:ナミダボシ (instrumental)
Artist:CLIFF EDGE
ArtistUnicode:CLIFF EDGE
Creator:- Miomio Chii -
Version:Honest
Source:2nd Maxi Single "Namidaboshi feat. Shion"
Tags:MmC JUN SHIN DJ GEORGIA Shion
BeatmapID:317912
BeatmapSetID:124789

[Difficulty]
HPDrainRate:1
CircleSize:2
OverallDifficulty:1
ApproachRate:2
SliderMultiplier:1
SliderTickRate:1

[Events]
//Background and Video events
0,0,"BG.jpg",0,0
//Break Periods
2,102103,110240
2,161485,169003
//Storyboard Layer 0 (Background)
//Storyboard Layer 1 (Fail)
//Storyboard Layer 2 (Pass)
//Storyboard Layer 3 (Foreground)
//Storyboard Sound Samples
//Background Colour Transformations
3,100,163,162,255

[TimingPoints]
460,618.556701030928,4,2,1,70,1,0
10356,-100,4,2,1,60,0,0
22728,-100,4,2,1,70,0,0
32006,-100,4,2,10,70,0,0
32315,-100,4,2,1,70,0,0
36954,-100,4,2,10,70,0,0
37264,-100,4,2,1,70,0,0
41903,-100,4,2,10,70,0,0
42212,-100,4,2,1,70,0,0
42831,-100,4,2,2,60,0,0
45614,-100,4,2,20,60,0,0
45923,-100,4,2,2,60,0,0
60460,-100,4,2,20,60,0,0
60769,-100,4,2,2,60,0,0
82109,-100,4,2,1,80,0,1
86439,-100,4,2,10,80,0,1
86748,-100,4,2,1,80,0,1
90150,-100,4,2,10,80,0,1
90460,-100,4,2,1,80,0,1
92624,-100,4,2,10,80,0,1
92934,-100,4,2,1,80,0,1
96336,-100,4,2,10,80,0,1
96645,-100,4,2,1,80,0,1
101284,-100,4,2,10,80,0,1
101594,-100,4,2,1,80,0,1
101903,-100,4,2,2,60,0,0
122315,-100,4,2,20,60,0,0
122624,-100,4,2,2,60,0,0
128501,-100,4,2,20,60,0,0
128810,-100,4,2,2,60,0,0
132212,-100,4,2,20,60,0,0
132521,-100,4,2,2,60,0,0
138398,-100,4,2,20,60,0,0
138707,-100,4,2,2,60,0,0
141490,-100,4,2,1,80,0,1
147057,-100,4,2,10,80,0,1
147367,-100,4,2,1,80,0,1
149532,-100,4,2,10,80,0,1
149841,-100,4,2,1,80,0,1
152006,-100,4,2,10,80,0,1
152315,-100,4,2,1,80,0,1
154480,-100,4,2,10,80,0,1
154789,-100,4,2,1,80,0,1
156954,-100,4,2,10,80,0,1
157264,-100,4,2,1,80,0,1
158810,-100,4,2,2,60,0,0
171800,-100,4,2,20,60,0,0
172109,-100,4,2,2,60,0,0
181078,-100,4,2,2,50,0,0
183552,-100,4,2,2,60,0,0
186645,-100,4,2,20,60,0,0
186954,-100,4,2,2,60,0,0
189119,-100,4,2,20,60,0,0
189429,-100,4,2,2,60,0,0
190975,-100,4,2,1,60,0,1
198398,-100,4,2,1,60,0,0
200872,-100,4,2,1,80,0,1
203965,-100,4,2,10,80,0,1
204274,-100,4,2,1,80,0,1
206439,-100,4,2,10,80,0,1
206748,-100,4,2,1,80,0,1
208913,-100,4,2,10,80,0,1
209222,-100,4,2,1,80,0,1
213862,-100,4,2,10,80,0,1
214171,-100,4,2,1,80,0,1
218191,-100,4,2,1,70,0,0
220666,-100,4,2,1,80,0,1
224996,-100,4,2,10,80,0,1
225305,-100,4,2,1,80,0,1
228707,-100,4,2,10,80,0,1
229016,-100,4,2,1,80,0,1
231181,-100,4,2,10,80,0,1
231490,-100,4,2,1,80,0,1
234892,-100,4,2,10,80,0,1
235202,-100,4,2,1,80,0,1
239841,-100,4,2,10,80,0,1
240150,-100,4,2,1,80,0,1
240460,-100,4,2,1,80,0,0
243552,-100,4,2,10,80,0,0
243862,-100,4,2,1,80,0,0
246027,-100,4,2,10,80,0,0
246336,-100,4,2,1,80,0,0
255923,-100,4,2,10,80,0,0
256233,-100,4,2,1,80,0,0
262728,-100,4,2,1,70,0,0
265202,-100,4,2,1,60,0,0
265820,-100,4,2,10,60,0,0
266130,-100,4,2,1,60,0,0
267676,-100,4,2,1,50,0,0
268295,-100,4,2,10,50,0,0
268604,-100,4,2,1,50,0,0
268913,-100,4,2,1,40,0,0
270150,-100,4,2,1,30,0,0
272006,-100,4,2,10,30,0,0
272315,-100,4,2,1,30,0,0
272624,-100,4,2,1,20,0,0
275099,-100,4,2,1,15,0,0
276336,-100,4,2,1,10,0,0
277573,-100,4,2,1,5,0,0

[Colours]
Combo1 : 0,128,128
Combo2 : 128,128,192

[HitObjects]
256,192,10356,2,0,P|160:168|84:224,1,200,4|0,0:0|0:0,0:0:0:0:
264,312,12831,2,0,P|360:328|448:280,1,200,4|0,0:0|0:0,0:0:0:0:
348,108,15305,2,0,B|288:108|256:80|256:80|224:108|160:108,1,200,4|0,0:0|0:0,0:0:0:0:
132,308,17779,6,0,P|192:268|208:228,1,100,4|0,0:0|0:0,0:0:0:0:
304,244,19016,2,0,P|343:292|377:308,1,100
472,276,20253,2,0,B|464:240|420:228|420:228|352:224|396:128,1,200
248,88,22728,6,0,P|200:96|160:128,1,100,4|8,0:0|0:0,0:0:0:0:
100,208,23965,2,0,P|156:232|180:264,1,100,0|8,0:0|0:0,0:0:0:0:
240,184,25202,6,0,P|300:200|336:192,1,100,0|8,0:0|0:0,0:0:0:0:
296,100,26439,1,0,0:0:0:0:
396,108,27057,2,8,P|452:168|448:280,1,200
348,272,28913,5,0,0:0:0:0:
256,316,29532,2,0,P|204:324|156:320,1,100,8|0,0:0|0:0,0:0:0:0:
100,240,30769,1,8,0:0:0:0:
4,208,31387,2,0,P|52:156|172:172,1,200,0|4,0:0|0:0,0:0:0:0:
232,248,33243,5,8,0:0:0:0:
272,156,33862,2,0,B|300:144|312:120|312:120|332:116|352:92,1,100,0|8,0:0|0:0,0:0:0:0:
432,152,35099,2,0,B|416:196|448:216|432:252,1,100,0|8,0:0|0:0,0:0:0:0:
340,288,36336,2,0,P|244:276|140:288,1,200,0|4,0:0|0:0,0:0:0:0:
84,204,38191,5,8,0:0:0:0:
164,144,38810,2,0,P|116:112|72:108,1,100,0|8,0:0|0:0,0:0:0:0:
12,184,40047,2,0,P|36:236|72:260,1,100,0|8,0:0|0:0,0:0:0:0:
152,200,41284,2,0,P|236:152|316:200,1,200,0|4,0:0|0:0,0:0:0:0:
404,248,43140,5,8,0:0:0:0:
456,336,43758,2,0,P|404:344|356:336,1,100
300,252,44996,2,0,B|232:252|164:320|112:320,1,200
92,224,46851,2,0,P|72:172|72:128,1,100,8|0,0:0|0:0,0:0:0:0:
172,116,48088,5,0,0:0:0:0:
268,80,48707,1,0,0:0:0:0:
328,160,49325,2,0,P|352:220|380:240,1,100,8|4,0:0|0:0,0:0:0:0:
428,152,50563,2,8,B|452:140|472:124|472:124|472:272,1,200
396,336,52418,1,4,0:0:0:0:
296,324,53037,1,8,0:0:0:0:
204,284,53655,5,0,0:0:0:0:
280,220,54274,2,0,P|328:208|376:224,1,100,8|0,0:0|0:0,0:0:0:0:
456,284,55511,2,8,P|476:184|460:88,1,200
360,108,57367,2,0,P|268:112|244:108,1,100,0|8,0:0|0:0,0:0:0:0:
172,64,58604,1,0,0:0:0:0:
76,32,59222,5,8,0:0:0:0:
32,120,59841,2,0,B|32:180|112:244|112:300,1,200
196,248,61697,1,8,0:0:0:0:
256,164,62315,6,0,B|289:122|292:74|292:74|365:74|407:129|401:213,1,300,4|0,0:0|0:0,0:0:0:0:
324,276,64789,2,0,B|264:240|196:272|196:272|152:356|56:332,1,300
100,240,67264,2,0,B|140:168|244:160|244:160|292:124|276:44,1,300
184,80,69738,2,0,B|144:100|116:132|116:132|180:204|180:332,1,300
280,324,72212,5,4,0:0:0:0:
368,276,72831,1,8,0:0:0:0:
444,208,73449,2,0,P|372:180|304:196,1,150,0|8,0:0|0:0,0:0:0:0:
176,116,75305,5,8,0:0:0:0:
84,156,75923,2,0,P|64:212|80:300,1,150,0|8,0:0|0:0,0:0:0:0:
212,232,77779,1,2,0:0:0:0:
296,284,78398,2,0,P|372:288|396:280,1,100,0|2,0:0|0:0,0:0:0:0:
448,196,79635,2,0,B|388:184|344:204|344:204|280:180|224:220,1,200
208,88,82109,5,4,0:0:0:0:
148,168,82728,2,0,P|184:212|192:256,1,100,8|2,0:0|0:0,0:0:0:0:
292,236,83965,2,0,P|284:176|296:140,1,100,8|4,0:0|0:0,0:0:0:0:
380,192,85202,1,8,0:0:0:0:
376,292,85820,2,0,P|276:324|188:296,1,200,2|4,0:0|0:0,0:0:0:0:
148,204,87676,5,8,0:0:0:0:
84,284,88295,2,0,P|48:224|48:184,1,100,2|8,0:0|0:0,0:0:0:0:
112,120,89532,2,0,P|200:88|300:116,1,200,4|2,0:0|0:0,0:0:0:0:
344,204,91387,1,8,0:0:0:0:
244,204,92006,6,0,P|270:279|378:302,1,200,4|2,0:0|0:0,0:0:0:0:
460,244,93862,1,8,0:0:0:0:
436,148,94480,2,0,P|394:118|373:74,1,100,4|8,0:0|0:0,0:0:0:0:
276,64,95717,2,0,P|180:44|80:64,1,200,2|4,0:0|0:0,0:0:0:0:
104,160,97573,5,8,0:0:0:0:
200,192,98191,2,0,P|242:172|295:181,1,100,2|8,0:0|0:0,0:0:0:0:
352,264,99429,2,0,P|300:280|252:272,1,100,4|8,0:0|0:0,0:0:0:0:
156,264,100666,2,0,B|104:176|104:176|180:112,1,200,2|4,0:0|0:0,0:0:0:0:
256,192,111800,5,4,0:0:0:0:
216,100,112418,2,8,P|156:180|188:272,1,200
284,284,114274,2,0,L|384:284,1,100,0|8,0:0|0:0,0:0:0:0:
424,192,115511,2,0,L|324:192,1,100,0|8,0:0|0:0,0:0:0:0:
260,116,116748,5,4,0:0:0:0:
356,92,117367,2,0,P|416:76|444:52,1,100,8|0,0:0|0:0,0:0:0:0:
472,148,118604,2,0,L|472:248,1,100,8|4,0:0|0:0,0:0:0:0:
384,300,119841,5,8,0:0:0:0:
288,272,120460,1,2,0:0:0:0:
196,316,121078,1,2,0:0:0:0:
108,268,121697,6,0,P|164:184|160:88,1,200,4|0,0:0|0:0,0:0:0:0:
72,132,123552,1,8,0:0:0:0:
24,220,124171,2,0,P|11:270|23:317,1,100,0|8,0:0|0:0,0:0:0:0:
112,268,125408,1,0,0:0:0:0:
196,324,126027,2,0,B|232:308|276:332|308:316,1,100,8|4,0:0|0:0,0:0:0:0:
356,244,127264,5,8,0:0:0:0:
436,184,127882,2,0,P|352:144|268:196,1,200,0|4,0:0|0:0,0:0:0:0:
184,252,129738,1,8,0:0:0:0:
116,180,130356,2,0,P|140:120|144:84,1,100,0|8,0:0|0:0,0:0:0:0:
248,80,131594,6,0,P|340:92|436:52,1,200,4|0,0:0|0:0,0:0:0:0:
464,148,133449,2,0,P|480:204|468:244,1,100,8|4,0:0|0:0,0:0:0:0:
380,200,134686,1,8,0:0:0:0:
300,260,135305,2,0,L|300:360,1,100,0|8,0:0|0:0,0:0:0:0:
212,308,136542,6,0,P|160:296|120:316,1,100,4|8,0:0|0:0,0:0:0:0:
28,280,137779,2,0,P|0:184|36:92,1,200,0|4,0:0|0:0,0:0:0:0:
100,168,139635,2,0,P|104:224|144:248,1,100
432,112,141490,6,0,L|332:112,1,100,4|8,0:0|0:0,0:0:0:0:
292,204,142728,2,0,L|392:204,1,100,2|8,0:0|0:0,0:0:0:0:
352,296,143965,1,4,0:0:0:0:
252,300,144583,2,0,P|208:264|192:224,1,100,8|2,0:0|0:0,0:0:0:0:
140,140,145820,1,8,0:0:0:0:
56,84,146439,6,0,P|152:48|228:96,1,200,4|2,0:0|0:0,0:0:0:0:
256,192,148295,1,8,0:0:0:0:
356,176,148913,2,0,B|416:168|440:128|440:128|400:84|416:36,1,200,4|2,0:0|0:0,0:0:0:0:
316,48,150769,1,8,0:0:0:0:
228,96,151387,6,0,B|196:124|196:168|196:168|196:288,1,200,4|2,0:0|0:0,0:0:0:0:
96,288,153243,1,8,0:0:0:0:
96,188,153862,2,0,B|136:164|176:164|176:164|292:164,1,200,4|2,0:0|0:0,0:0:0:0:
352,244,155717,1,8,0:0:0:0:
420,316,156336,6,0,B|448:296|448:268|448:268|448:124,1,200,4|2,0:0|0:0,0:0:0:0:
352,156,158191,1,8,0:0:0:0:
268,104,158810,1,4,0:0:0:0:
256,192,159429,12,4,161285,0:0:0:0:
288,76,170563,5,8,0:0:0:0:
296,176,171181,2,0,B|244:172|208:136|208:136|161:179|168:224,1,200,4|0,0:0|0:0,0:0:0:0:
92,288,173037,1,8,0:0:0:0:
40,204,173655,2,0,P|40:144|48:104,1,100,0|8,0:0|0:0,0:0:0:0:
136,56,174892,2,0,P|144:116|140:156,1,100,0|8,0:0|0:0,0:0:0:0:
188,244,176130,5,4,0:0:0:0:
184,344,176748,2,8,B|240:336|272:300|272:300|300:336|360:344,1,200
356,244,178604,2,0,L|356:144,1,100,0|8,0:0|0:0,0:0:0:0:
272,88,179841,1,0,0:0:0:0:
180,124,180460,1,8,0:0:0:0:
144,216,181078,6,0,L|40:216,1,100,4|0,0:0|0:0,0:0:0:0:
220,312,182934,1,8,0:0:0:0:
312,272,183552,2,0,B|360:256|400:292|400:292|488:232,1,200,4|0,0:0|0:0,0:0:0:0:
408,168,185408,1,8,0:0:0:0:
324,116,186027,6,0,P|232:88|136:120,1,200
164,216,187882,1,8,0:0:0:0:
144,312,188501,2,0,P|236:344|328:308,1,200,4|0,0:0|0:0,0:0:0:0:
284,220,190356,1,8,0:0:0:0:
324,128,190975,6,0,L|420:96,1,100,6|8,0:0|0:0,0:0:0:0:
352,24,192212,2,0,L|256:56,1,100,2|8,0:0|0:0,0:0:0:0:
196,136,193449,1,6,0:0:0:0:
96,132,194068,1,8,0:0:0:0:
140,224,194686,2,0,L|36:224,1,100,2|8,0:0|0:0,0:0:0:0:
88,312,195923,5,6,0:0:0:0:
184,336,196542,2,0,L|264:276,1,100,8|2,0:0|0:0,0:0:0:0:
356,312,197779,1,8,0:0:0:0:
392,220,198398,2,0,B|412:188|444:124|444:124|440:128|440:128|440:120|440:120|436:124|436:124|476:132|508:116,1,200,4|0,0:0|0:0,0:0:0:0:
260,84,200872,2,0,P|304:120|320:160,1,100,4|8,0:0|0:0,0:0:0:0:
372,244,202109,1,2,0:0:0:0:
464,200,202728,1,8,0:0:0:0:
380,252,203346,6,0,P|284:292|212:240,1,200,4|2,0:0|0:0,0:0:0:0:
300,200,205202,1,8,0:0:0:0:
220,144,205820,2,0,B|177:100|131:105|131:105|120:164|72:180,1,200,4|2,0:0|0:0,0:0:0:0:
108,272,207676,1,8,0:0:0:0:
188,336,208295,6,0,B|220:308|220:264|220:264|220:144,1,200,4|2,0:0|0:0,0:0:0:0:
316,120,210150,1,8,0:0:0:0:
400,172,210769,1,4,0:0:0:0:
312,220,211387,2,0,B|272:244|232:244|232:244|116:244,1,200,8|8,0:0|0:0,0:0:0:0:
52,168,213243,6,0,B|28:188|24:216|24:216|24:360,1,200,4|2,0:0|0:0,0:0:0:0:
124,364,215099,1,8,0:0:0:0:
208,308,215717,1,4,0:0:0:0:
272,232,216336,2,0,B|256:120|256:120|308:132|340:112,1,200,8|8,0:0|0:0,0:0:0:0:
256,192,218191,12,4,219429,0:0:0:0:
304,296,220666,5,4,0:0:0:0:
364,216,221284,2,0,P|328:172|320:128,1,100,8|2,0:0|0:0,0:0:0:0:
220,148,222521,2,0,P|228:208|216:244,1,100,8|4,0:0|0:0,0:0:0:0:
132,192,223758,1,8,0:0:0:0:
136,92,224377,2,0,P|236:60|324:88,1,200,2|4,0:0|0:0,0:0:0:0:
364,180,226233,5,8,0:0:0:0:
428,100,226851,2,0,P|464:160|464:200,1,100,2|8,0:0|0:0,0:0:0:0:
400,264,228088,2,0,P|312:296|212:268,1,200,4|2,0:0|0:0,0:0:0:0:
168,180,229944,1,8,0:0:0:0:
268,180,230563,6,0,P|242:105|134:82,1,200,4|2,0:0|0:0,0:0:0:0:
52,140,232418,1,8,0:0:0:0:
76,236,233037,2,0,P|118:266|139:310,1,100,4|8,0:0|0:0,0:0:0:0:
236,320,234274,2,0,P|332:340|432:320,1,200,2|4,0:0|0:0,0:0:0:0:
408,224,236130,5,8,0:0:0:0:
316,184,236748,2,0,P|274:204|221:195,1,100,2|8,0:0|0:0,0:0:0:0:
164,120,237985,2,0,P|216:104|264:112,1,100,4|8,0:0|0:0,0:0:0:0:
360,120,239222,2,0,P|352:188|456:248,1,200,2|4,0:0|0:0,0:0:0:0:
456,148,241078,5,8,0:0:0:0:
360,120,241697,2,0,L|272:68,1,100,0|8,0:0|0:0,0:0:0:0:
172,64,242934,2,0,B|140:104|92:124|92:124|100:176|76:220,1,200,4|0,0:0|0:0,0:0:0:0:
160,276,244789,1,8,0:0:0:0:
200,184,245408,6,0,P|256:248|224:352,1,200,4|0,0:0|0:0,0:0:0:0:
324,372,247264,1,8,0:0:0:0:
376,288,247882,2,0,P|424:248|460:248,1,100,4|8,0:0|0:0,0:0:0:0:
460,148,249119,2,0,P|416:148|368:120,1,100,0|8,0:0|0:0,0:0:0:0:
292,56,250356,6,0,L|196:96,1,100,4|8,0:0|0:0,0:0:0:0:
256,176,251594,2,0,L|356:176,1,100,0|8,0:0|0:0,0:0:0:0:
320,268,252831,1,4,0:0:0:0:
420,276,253449,2,0,P|400:216|376:188,1,100,8|0,0:0|0:0,0:0:0:0:
472,156,254686,1,8,0:0:0:0:
396,92,255305,6,0,P|296:76|200:96,1,200,4|0,0:0|0:0,0:0:0:0:
132,168,257161,1,8,0:0:0:0:
176,256,257779,2,0,P|228:272|256:308,2,100,4|8|0,0:0|0:0|0:0,0:0:0:0:
184,156,259635,1,8,0:0:0:0:
264,100,260253,6,0,P|328:140|368:140,1,100,4|8,0:0|0:0,0:0:0:0:
388,236,261490,1,0,0:0:0:0:
288,240,262109,1,8,0:0:0:0:
288,240,262728,6,0,P|224:220|188:228,1,100,4|8,0:0|0:0,0:0:0:0:
112,284,263965,1,0,0:0:0:0:
44,212,264583,1,8,0:0:0:0:
96,128,265202,2,0,P|168:92|276:128,1,200,4|0,0:0|0:0,0:0:0:0:
356,188,267057,1,8,0:0:0:0:
444,140,267676,6,0,L|444:340,1,200,4|0,0:0|0:0,0:0:0:0:
348,308,269532,2,0,P|268:312|244:328,1,100,8|4,0:0|0:0,0:0:0:0:
168,268,270769,1,8,0:0:0:0:
76,232,271387,2,0,P|64:132|116:52,1,200
188,124,273243,5,8,0:0:0:0:
284,92,273862,2,0,P|336:108|384:104,2,100,0|8|4,0:0|0:0|0:0,0:0:0:0:
256,192,275717,12,4,277573,0:0:0:0:
