osu file format v13

[General]
AudioFilename: CLIFF EDGE feat. Nakamura Maiko - Endless Tears.mp3
AudioLeadIn: 1000
PreviewTime: 112772
Countdown: 0
SampleSet: Soft
StackLeniency: 0.7
Mode: 2
LetterboxInBreaks: 1
EpilepsyWarning: 1
WidescreenStoryboard: 0

[Editor]
Bookmarks: 248832
DistanceSpacing: 0.8
BeatDivisor: 4
GridSize: 16
TimelineZoom: 1.8

[Metadata]
Title:Endless Tears feat. Nakamura Maiko
TitleUnicode:Endless Tears feat. 中村舞子
Artist:CLIFF EDGE
ArtistUnicode:クリフエッジ
Creator:CLSW
Version:Tears
Source:
Tags:Kanari xXCrystalMoonAnimeXx THE BEST ~You’re the only one~ of Love Album
BeatmapID:468824
BeatmapSetID:197689

[Difficulty]
HPDrainRate:6
CircleSize:4
OverallDifficulty:9
ApproachRate:9
SliderMultiplier:3.2
SliderTickRate:4

[Events]
//Background and Video events
0,0,"52.jpg",0,0
//Break Periods
2,50547,53990
//Storyboard Layer 0 (Background)
//Storyboard Layer 1 (Fail)
//Storyboard Layer 2 (Pass)
//Storyboard Layer 3 (Foreground)
//Storyboard Sound Samples

[TimingPoints]
651,606.060606060606,4,2,1,50,1,0
651,-125,4,2,1,50,0,0
9173,-125,4,2,1,20,0,0
10347,-125,4,2,1,50,0,0
30347,-125,4,3,1,40,0,0
30954,606.060606060606,4,2,1,70,1,1
38832,-100,4,2,2,70,0,1
38984,-100,4,2,1,70,0,1
41257,-100,4,2,2,70,0,1
41408,-100,4,2,1,70,0,1
42469,-100,4,2,2,70,0,1
42620,-100,4,2,1,70,0,1
44893,-100,4,2,1,75,0,1
45499,-100,4,2,1,70,0,1
48529,-100,4,2,2,70,0,1
48681,-100,4,2,1,70,0,1
50347,-100,4,2,1,40,0,0
54590,-100,4,3,1,40,0,0
55196,-125,4,2,1,40,0,0
63075,-125,4,2,2,40,0,0
63226,-125,4,2,1,40,0,0
72772,-125,4,2,2,40,0,0
72923,-125,4,2,1,40,0,0
74590,-125,4,2,1,50,0,0
78984,-125,4,2,1,60,0,0
93416,-125,4,2,1,20,0,0
93984,-100,4,2,1,70,0,1
101863,-100,4,2,2,70,0,1
102014,-100,4,2,1,70,0,1
104287,-100,4,2,2,70,0,1
104438,-100,4,2,1,70,0,1
105499,-100,4,2,2,70,0,1
105650,-100,4,2,1,70,0,1
107923,-100,4,2,1,75,0,1
108529,-100,4,2,1,70,0,1
111560,-100,4,2,2,70,0,1
111711,-100,4,2,1,70,0,1
112166,-100,4,2,1,60,0,0
113378,-100,4,2,1,70,0,1
121863,-100,4,2,1,60,0,0
123075,-100,4,2,1,70,0,1
132772,-100,4,2,1,60,0,0
137014,-100,4,3,1,40,0,0
137620,-100,4,2,1,50,0,0
140650,-100,4,2,2,50,0,0
140802,-100,4,2,1,50,0,0
155802,-100,4,2,1,40,0,0
175499,-100,4,2,1,60,0,0
176408,-125,4,2,1,40,0,0
196863,-125,4,2,1,80,0,0
197014,606.060606060606,4,2,1,70,1,1
201256,-100,4,2,1,75,0,1
201862,-100,4,2,1,70,0,1
206104,-100,4,2,1,75,0,1
206710,-100,4,2,1,70,0,1
210953,-100,4,2,1,75,0,1
211559,-100,4,2,1,70,0,1
215195,-100,4,2,1,60,0,0
216407,-100,4,2,1,70,0,1
224892,-100,4,2,1,60,0,0
226104,-100,4,2,1,70,0,1
235801,-100,4,2,1,40,0,0
254741,-100,4,2,1,60,0,0
254892,-100,4,2,1,70,0,0
255044,-100,4,2,1,80,0,0
255195,-100,4,2,1,30,0,0
256407,-100,4,2,1,20,0,0
257620,-100,4,2,1,10,0,0
258832,-100,4,2,1,5,0,0

[Colours]
Combo1 : 255,164,249
Combo2 : 192,10,133
Combo3 : 218,54,218
Combo4 : 162,70,196

[HitObjects]
32,128,651,6,0,L|176:128,1,128,2|0,0:0|0:0,0:0:0:0:
320,128,1105,2,0,L|192:128,1,128,2|0,0:0|0:0,0:0:0:0:
320,96,1560,2,0,L|400:96,1,64,2|0,0:0|0:0,0:0:0:0:
256,80,1863,6,0,L|128:80,1,128,2|0,0:0|0:0,0:0:0:0:
384,64,2317,2,0,L|256:64,1,128,2|0,0:0|0:0,0:0:0:0:
128,64,2772,2,0,L|208:64,1,64,2|0,0:0|0:0,0:0:0:0:
96,112,3075,6,0,P|64:160|128:176,1,128,2|0,0:0|0:0,0:0:0:0:
240,160,3529,2,0,P|272:208|208:224,1,128,2|0,0:0|0:0,0:0:0:0:
352,256,3984,2,0,L|272:256,1,64,2|0,0:0|0:0,0:0:0:0:
128,256,4287,6,0,P|112:192|256:160,1,256,2|0,0:0|0:0,0:0:0:0:
352,176,5499,6,0,P|272:144|272:112,1,128,2|0,0:0|0:0,0:0:0:0:
400,64,5954,2,0,L|256:64,1,128,2|0,0:0|0:0,0:0:0:0:
400,112,6408,1,2,0:0:0:0:
336,144,6560,1,0,0:0:0:0:
208,160,6711,6,0,P|288:128|288:96,1,128,2|0,0:0|0:0,0:0:0:0:
160,96,7166,2,0,L|304:96,1,128,2|2,0:0|0:0,0:0:0:0:
160,144,7620,1,2,0:0:0:0:
240,144,7772,1,0,0:0:0:0:
368,176,7923,6,0,L|240:176,1,128,2|0,0:0|0:0,0:0:0:0:
80,176,8378,2,0,L|208:176,1,128,2|0,0:0|0:0,0:0:0:0:
368,128,8832,2,0,L|288:128,1,64,2|0,0:0|0:0,0:0:0:0:
144,128,9135,6,0,L|140:112,15,16,2|0|0|0|0|0|0|0|0|0|0|0|0|0|0|0,0:0|0:0|0:0|0:0|0:0|0:0|0:0|0:0|0:0|0:0|0:0|0:0|0:0|0:0|0:0|0:0,0:0:0:0:
76,92,9741,6,0,L|80:76,15,16,0|0|0|0|0|0|0|0|0|0|0|0|0|0|0|0,0:0|0:0|0:0|0:0|0:0|0:0|0:0|0:0|0:0|0:0|0:0|0:0|0:0|0:0|0:0|0:0,0:0:0:0:
144,48,10347,6,0,L|224:48,2,64,2|0|2,0:0|0:0|0:0,0:0:0:0:
272,64,10802,2,0,L|400:64,1,128,2|2,0:0|0:0,0:0:0:0:
272,96,11257,1,2,0:0:0:0:
336,112,11408,1,0,0:0:0:0:
464,160,11560,6,0,L|400:160,2,64,2|0|2,0:0|0:0|0:0,0:0:0:0:
336,160,12014,2,0,L|192:160,1,128,2|0,0:0|0:0,0:0:0:0:
336,224,12469,2,0,L|416:224,1,64,2|0,0:0|0:0,0:0:0:0:
256,224,12772,6,0,L|240:288,1,64,2|0,0:0|0:0,0:0:0:0:
144,288,13075,2,0,L|160:352,1,64,2|2,0:0|0:0,0:0:0:0:
16,256,13378,2,0,L|0:320,1,64,0|2,0:0|0:0,0:0:0:0:
96,256,13681,2,0,L|112:320,1,64,0|2,0:0|0:0,0:0:0:0:
384,288,13984,6,0,L|368:352,1,64,0|0,0:0|0:0,0:0:0:0:
128,288,14287,2,0,L|144:352,1,64,0|0,0:0|0:0,0:0:0:0:
384,336,14590,1,2,0:0:0:0:
256,320,14741,1,2,0:0:0:0:
128,320,14893,1,0,0:0:0:0:
256,240,15044,1,2,0:0:0:0:
384,144,15196,6,0,L|464:144,1,64,2|0,0:0|0:0,0:0:0:0:
320,128,15499,1,2,0:0:0:0:
384,96,15650,2,0,L|240:96,1,128,2|2,0:0|0:0,0:0:0:0:
320,48,16105,1,2,0:0:0:0:
224,48,16257,1,0,0:0:0:0:
64,128,16408,6,0,L|144:128,1,64,2|0,0:0|0:0,0:0:0:0:
256,128,16711,1,2,0:0:0:0:
128,80,16863,2,0,L|272:80,1,128,2|0,0:0|0:0,0:0:0:0:
192,48,17317,1,0,0:0:0:0:
64,48,17469,1,0,0:0:0:0:
448,48,17620,6,0,L|432:112,1,64,2|0,0:0|0:0,0:0:0:0:
336,128,17923,2,0,L|352:192,1,64,0|2,0:0|0:0,0:0:0:0:
64,48,18226,2,0,L|80:112,1,64,0|2,0:0|0:0,0:0:0:0:
176,128,18529,2,0,L|160:192,1,64,0|2,0:0|0:0,0:0:0:0:
320,208,18832,6,0,L|192:208,1,128,0|0,0:0|0:0,0:0:0:0:
320,160,19287,2,0,L|448:160,1,128,0|0,0:0|0:0,0:0:0:0:
320,112,19741,1,2,0:0:0:0:
448,80,19893,1,0,0:0:0:0:
320,64,20044,6,0,L|240:64,1,64,2|0,0:0|0:0,0:0:0:0:
384,48,20347,1,0,0:0:0:0:
256,96,20499,2,0,L|384:96,1,128,2|2,0:0|0:0,0:0:0:0:
256,64,20954,2,0,L|176:64,1,64,2|0,0:0|0:0,0:0:0:0:
64,48,21257,6,0,L|144:48,1,64,2|0,0:0|0:0,0:0:0:0:
256,48,21560,1,2,0:0:0:0:
384,80,21711,2,0,L|256:80,1,128,2|0,0:0|0:0,0:0:0:0:
128,80,22166,2,0,L|208:80,1,64,0|0,0:0|0:0,0:0:0:0:
320,80,22469,6,0,L|400:80,3,64,2|0|0|2,0:0|0:0|0:0|0:0,0:0:0:0:
256,80,23075,2,0,L|176:80,3,64,0|0|2|0,0:0|0:0|0:0|0:0,0:0:0:0:
112,160,23681,6,0,L|176:160,1,64,2|0,0:0|0:0,0:0:0:0:
304,160,23984,2,0,L|240:160,1,64,0|0,0:0|0:0,0:0:0:0:
368,160,24287,2,0,L|448:160,1,64,2|0,0:0|0:0,0:0:0:0:
304,128,24590,2,0,L|224:128,1,64,0|0,0:0|0:0,0:0:0:0:
112,128,24893,6,0,P|48:160|64:224,1,128,2|0,0:0|0:0,0:0:0:0:
176,208,25347,1,0,0:0:0:0:
400,128,25499,2,0,P|464:160|448:224,1,128,2|0,0:0|0:0,0:0:0:0:
320,208,25954,1,0,0:0:0:0:
96,208,26105,6,0,L|16:208,2,64,2|0|0,0:0|0:0|0:0,0:0:0:0:
192,160,26560,1,0,0:0:0:0:
288,128,26711,2,0,L|352:128,2,64,2|0|0,0:0|0:0|0:0,0:0:0:0:
144,112,27166,1,0,0:0:0:0:
272,48,27317,6,0,L|352:48,1,64,2|0,0:0|0:0,0:0:0:0:
192,64,27620,2,0,L|176:128,1,64,0|2,0:0|0:0,0:0:0:0:
320,128,27923,2,0,L|240:128,1,64,0|0,0:0|0:0,0:0:0:0:
400,144,28226,2,0,L|416:208,1,64,2|0,0:0|0:0,0:0:0:0:
256,192,28529,12,0,30347,0:0:0:0:
320,192,30954,6,0,L|496:192,1,160,6|0,0:0|0:0,0:0:0:0:
192,192,31408,2,0,L|96:192,2,80,2|8|0,0:0|0:0|0:0,0:0:0:0:
352,144,31863,2,0,L|256:144,1,80,2|0,0:0|0:0,0:0:0:0:
496,96,32166,6,0,P|496:160|400:192,1,160,2|0,0:0|0:0,0:0:0:0:
192,208,32620,2,0,L|288:208,2,80,2|8|0,0:0|0:0|0:0,0:0:0:0:
32,160,33075,2,0,L|128:160,1,80,2|0,0:0|0:0,0:0:0:0:
272,160,33378,6,0,P|352:160|384:96,1,160,2|0,0:0|0:0,0:0:0:0:
224,96,33832,1,2,0:0:0:0:
112,96,33984,1,8,0:0:0:0:
32,96,34135,1,0,0:0:0:0:
160,64,34287,2,0,L|240:64,1,80,2|0,0:0|0:0,0:0:0:0:
368,96,34590,5,2,0:0:0:0:
224,112,34741,1,0,0:0:0:0:
368,144,34893,2,0,L|272:144,1,80,2|0,0:0|0:0,0:0:0:0:
448,192,35196,1,10,0:0:0:0:
224,192,35347,1,2,0:0:0:0:
304,224,35499,2,0,L|192:224,1,80,2|2,0:0|0:0,0:0:0:0:
64,192,35802,6,0,P|80:128|160:80,1,160,2|0,0:0|0:0,0:0:0:0:
448,192,36257,1,2,0:0:0:0:
424,117,36408,1,8,0:0:0:0:
355,80,36560,1,0,0:0:0:0:
216,64,36711,2,0,L|296:64,1,80,2|0,0:0|0:0,0:0:0:0:
32,64,37014,6,0,L|48:160,1,80,2|0,0:0|0:0,0:0:0:0:
320,144,37317,2,0,L|306:222,1,80,0|2,0:0|0:0,0:0:0:0:
160,224,37620,2,0,L|174:145,1,80,8|0,0:0|0:0,0:0:0:0:
480,144,37923,2,0,L|466:65,1,80,2|0,0:0|0:0,0:0:0:0:
192,64,38226,6,0,P|112:80|80:160,1,160,2|0,0:0|0:0,0:0:0:0:
304,128,38681,2,0,P|267:196|191:209,1,160,2|0,0:0|0:0,0:0:0:0:
336,208,39135,2,0,L|432:208,1,80,2|0,0:0|0:0,0:0:0:0:
192,208,39438,6,0,L|96:208,1,80,2|0,0:0|0:0,0:0:0:0:
256,160,39741,1,2,0:0:0:0:
112,160,39893,1,0,0:0:0:0:
336,112,40044,2,0,L|432:112,1,80,10|2,0:0|0:0,0:0:0:0:
272,80,40347,1,2,0:0:0:0:
416,80,40499,1,2,0:0:0:0:
0,64,40650,6,0,L|160:64,1,160,6|2,0:0|0:0,0:0:0:0:
320,64,41105,2,0,L|480:64,1,160,2|0,0:0|0:0,0:0:0:0:
320,96,41560,2,0,L|224:96,1,80,2|0,0:0|0:0,0:0:0:0:
480,144,41863,6,0,L|320:144,1,160,2|0,0:0|0:0,0:0:0:0:
160,208,42317,2,0,L|320:208,1,160,2|0,0:0|0:0,0:0:0:0:
160,160,42772,2,0,L|64:160,1,80,2|0,0:0|0:0,0:0:0:0:
464,176,43075,6,0,L|480:272,1,80,2|0,0:0|0:0,0:0:0:0:
48,176,43378,2,0,L|32:272,1,80,0|2,0:0|0:0,0:0:0:0:
368,224,43681,2,0,L|384:320,1,80,8|0,0:0|0:0,0:0:0:0:
144,224,43984,2,0,L|128:320,1,80,2|0,0:0|0:0,0:0:0:0:
256,256,44287,5,2,0:0:0:0:
384,208,44438,1,0,0:0:0:0:
448,96,44590,1,0,0:0:0:0:
336,96,44741,1,0,0:0:0:0:
192,96,44893,1,10,0:0:0:0:
336,48,45044,1,0,0:0:0:0:
192,64,45196,1,0,0:0:0:0:
336,48,45347,1,0,0:0:0:0:
16,160,45499,6,0,L|176:160,1,160,2|0,0:0|0:0,0:0:0:0:
272,160,45954,1,0,0:0:0:0:
496,160,46105,2,0,L|336:160,1,160,10|0,0:0|0:0,0:0:0:0:
240,160,46560,1,0,0:0:0:0:
32,128,46711,6,0,L|112:128,1,80,2|0,0:0|0:0,0:0:0:0:
256,128,47014,2,0,L|160:128,1,80,0|0,0:0|0:0,0:0:0:0:
400,112,47317,2,0,L|480:112,1,80,8|0,0:0|0:0,0:0:0:0:
336,96,47620,2,0,L|256:96,1,80,2|0,0:0|0:0,0:0:0:0:
32,112,47923,6,0,P|32:192|88:248,1,160,2|0,0:0|0:0,0:0:0:0:
480,112,48378,2,0,P|480:192|416:248,1,160,2|0,0:0|0:0,0:0:0:0:
216,176,48832,2,0,L|312:176,1,80,2|0,0:0|0:0,0:0:0:0:
144,208,49135,6,0,L|64:208,2,80,2|0|2,0:0|0:0|0:0,0:0:0:0:
368,208,49590,1,2,0:0:0:0:
256,144,49741,2,0,L|224:64,1,80,10|2,0:0|0:0,0:0:0:0:
368,128,50044,2,0,L|400:48,1,80,2|2,0:0|0:0,0:0:0:0:
112,64,50347,5,6,0:0:0:0:
464,64,54590,6,0,L|496:144,1,80
368,144,54893,2,0,L|336:224,1,80,0|0,0:0|0:0,0:0:0:0:
208,144,55196,6,0,L|80:144,1,128,2|0,0:0|0:0,0:0:0:0:
208,192,55650,2,0,P|288:192|320:240,2,128,2|2|2,0:0|0:0|0:0,0:0:0:0:
400,144,56560,6,0,L|320:144,2,64,0|2|0,0:0|0:0|0:0,0:0:0:0:
272,112,57014,2,0,L|336:112,1,64,10|0,0:0|0:0,0:0:0:0:
208,80,57317,2,0,L|128:80,1,64,2|0,0:0|0:0,0:0:0:0:
272,48,57620,6,0,P|304:64|336:160,1,128,2|0,0:0|0:0,0:0:0:0:
208,144,58075,2,0,P|176:160|144:256,2,128,2|0|2,0:0|0:0|0:0,0:0:0:0:
80,144,58832,6,0,L|64:208,1,64,0|0,0:0|0:0,0:0:0:0:
192,208,59135,2,0,L|176:272,1,64,0|0,0:0|0:0,0:0:0:0:
48,288,59438,1,8,0:0:0:0:
256,336,59741,2,0,L|320:336,1,64,2|0,0:0|0:0,0:0:0:0:
448,304,60044,6,0,P|384:288|352:224,2,128,2|2|2,0:0|0:0|0:0,0:0:0:0:
144,304,60954,2,0,L|64:304,1,64,2|0,0:0|0:0,0:0:0:0:
208,256,61257,6,0,L|272:256,1,64,2|0,0:0|0:0,0:0:0:0:
144,208,61560,2,0,L|128:272,1,64,2|0,0:0|0:0,0:0:0:0:
256,240,61863,2,0,L|272:304,1,64,10|0,0:0|0:0,0:0:0:0:
400,256,62166,2,0,L|384:320,1,64,2|0,0:0|0:0,0:0:0:0:
256,320,62469,6,0,L|400:320,1,128,2|0,0:0|0:0,0:0:0:0:
512,288,62923,2,0,L|384:288,1,128,2|0,0:0|0:0,0:0:0:0:
256,240,63378,2,0,L|192:240,1,64,0|0,0:0|0:0,0:0:0:0:
320,176,63681,6,0,L|448:176,2,128,2|0|8,0:0|0:0|0:0,0:0:0:0:
384,96,64590,1,0,0:0:0:0:
256,80,64741,1,0,0:0:0:0:
128,80,64893,6,0,P|112:128|144:224,1,128,2|0,0:0|0:0,0:0:0:0:
256,192,65347,2,0,P|160:176|144:144,2,128,2|0|2,0:0|0:0|0:0,0:0:0:0:
128,192,66257,5,0,0:0:0:0:
256,160,66408,2,0,L|320:160,1,64,2|0,0:0|0:0,0:0:0:0:
192,128,66711,2,0,L|112:128,3,64,10|0|2|0,0:0|0:0|0:0|0:0,0:0:0:0:
32,128,67317,6,0,P|32:80|112:48,1,128,2|0,0:0|0:0,0:0:0:0:
256,128,67772,2,0,P|232:71|171:64,2,128,2|2|2,0:0|0:0|0:0,0:0:0:0:
32,96,68681,6,0,L|96:96,2,64,0|0|0,0:0|0:0|0:0,0:0:0:0:
160,96,69135,2,0,L|288:96,1,128,8|2,0:0|0:0,0:0:0:0:
448,96,69741,6,0,L|320:96,1,128,2|2,0:0|0:0,0:0:0:0:
192,96,70196,2,0,L|320:96,1,128,2|0,0:0|0:0,0:0:0:0:
192,144,70650,2,0,L|112:144,1,64,2|0,0:0|0:0,0:0:0:0:
256,144,70954,6,0,L|336:144,1,64,2|0,0:0|0:0,0:0:0:0:
192,176,71257,2,0,L|184:240,1,64,2|0,0:0|0:0,0:0:0:0:
320,240,71560,2,0,L|240:240,1,64,10|0,0:0|0:0,0:0:0:0:
384,240,71863,2,0,L|392:304,1,64,2|0,0:0|0:0,0:0:0:0:
256,304,72166,6,0,P|288:272|304:176,1,128,2|2,0:0|0:0,0:0:0:0:
192,224,72620,2,0,P|237:220|311:156,1,128,0|0,0:0|0:0,0:0:0:0:
160,160,73075,2,0,L|224:160,1,64,2|0,0:0|0:0,0:0:0:0:
352,160,73378,5,2,0:0:0:0:
448,96,73529,1,0,0:0:0:0:
384,48,73681,1,0,0:0:0:0:
304,48,73832,1,0,0:0:0:0:
192,48,73984,2,0,P|160:64|176:160,1,128,8|0,0:0|0:0,0:0:0:0:
368,144,74590,6,0,L|384:208,1,64,2|0,0:0|0:0,0:0:0:0:
256,208,74893,2,0,L|240:272,1,64,0|2,0:0|0:0,0:0:0:0:
112,272,75196,2,0,P|96:224|160:176,1,128,10|0,0:0|0:0,0:0:0:0:
383,206,75802,6,0,L|368:144,1,64,2|0,0:0|0:0,0:0:0:0:
240,270,76105,2,0,L|256:208,1,64,2|0,0:0|0:0,0:0:0:0:
128,192,76408,2,0,P|79:229|93:288,1,128,10|2,0:0|0:0,0:0:0:0:
384,160,77014,6,0,L|400:96,1,64,2|0,0:0|0:0,0:0:0:0:
256,128,77317,2,0,L|240:64,1,64,2|0,0:0|0:0,0:0:0:0:
96,80,77620,2,0,L|111:142,1,64,10|0,0:0|0:0,0:0:0:0:
256,80,77923,2,0,L|240:142,1,64,0|0,0:0|0:0,0:0:0:0:
384,192,78226,5,2,0:0:0:0:
496,176,78378,1,0,0:0:0:0:
432,96,78529,1,0,0:0:0:0:
336,96,78681,1,2,0:0:0:0:
464,48,78832,2,0,P|480:96|416:144,1,128,8|2,0:0|0:0,0:0:0:0:
384,144,79211,1,0,0:0:0:0:
336,160,79287,1,0,0:0:0:0:
320,208,79363,1,0,0:0:0:0:
368,224,79438,6,0,L|448:224,1,64,2|0,0:0|0:0,0:0:0:0:
304,256,79741,2,0,L|240:256,1,64,2|0,0:0|0:0,0:0:0:0:
368,288,80044,2,0,L|304:288,1,64,10|0,0:0|0:0,0:0:0:0:
176,288,80347,2,0,L|256:288,1,64,2|0,0:0|0:0,0:0:0:0:
112,288,80650,5,2,0:0:0:0:
0,240,80802,1,0,0:0:0:0:
48,176,80954,1,2,0:0:0:0:
144,160,81105,1,0,0:0:0:0:
16,128,81257,2,0,L|160:128,1,128,10|2,0:0|0:0,0:0:0:0:
224,128,81635,1,0,0:0:0:0:
256,96,81711,1,0,0:0:0:0:
224,80,81787,1,0,0:0:0:0:
176,64,81863,6,0,L|112:64,1,64,2|2,0:0|0:0,0:0:0:0:
224,64,82166,2,0,L|288:64,1,64,2|0,0:0|0:0,0:0:0:0:
64,96,82469,2,0,L|0:96,1,64,10|0,0:0|0:0,0:0:0:0:
128,96,82772,2,0,L|192:96,1,64,2|0,0:0|0:0,0:0:0:0:
64,176,83075,5,0,0:0:0:0:
208,176,83226,1,2,0:0:0:0:
352,176,83378,1,2,0:0:0:0:
208,224,83529,1,0,0:0:0:0:
352,272,83681,2,0,P|272:272|224:224,1,128,10|2,0:0|0:0,0:0:0:0:
176,208,84060,1,0,0:0:0:0:
144,144,84135,1,0,0:0:0:0:
160,80,84211,1,0,0:0:0:0:
208,32,84287,6,0,L|288:32,1,64,2|0,0:0|0:0,0:0:0:0:
160,32,84590,1,0,0:0:0:0:
288,64,84741,1,2,0:0:0:0:
352,64,84893,2,0,L|224:64,1,128,8|0,0:0|0:0,0:0:0:0:
352,112,85347,1,0,0:0:0:0:
480,128,85499,6,0,L|400:128,1,64,2|0,0:0|0:0,0:0:0:0:
288,128,85802,2,0,L|208:128,1,64,2|0,0:0|0:0,0:0:0:0:
352,160,86105,2,0,L|480:160,2,128,10|2|2,0:0|0:0|0:0,0:0:0:0:
224,160,86863,6,0,L|240:224,1,64,0|2,0:0|0:0,0:0:0:0:
112,224,87166,1,0,0:0:0:0:
239,222,87317,2,0,L|224:160,1,64,10|2,0:0|0:0,0:0:0:0:
352,144,87620,1,2,0:0:0:0:
224,128,87772,1,0,0:0:0:0:
288,80,87923,5,2,0:0:0:0:
160,80,88075,1,2,0:0:0:0:
144,128,88226,1,0,0:0:0:0:
272,128,88378,1,0,0:0:0:0:
128,176,88529,2,0,L|208:176,1,64,10|0,0:0|0:0,0:0:0:0:
320,176,88832,2,0,L|272:176,1,32,2|0,0:0|0:0,0:0:0:0:
208,224,88984,2,0,L|256:224,1,32,0|0,0:0|0:0,0:0:0:0:
336,208,89135,6,0,L|400:208,2,64,2|0|2,0:0|0:0|0:0,0:0:0:0:
176,208,89590,1,2,0:0:0:0:
304,160,89741,2,0,L|368:160,2,64,10|0|2,0:0|0:0|0:0,0:0:0:0:
144,160,90196,1,0,0:0:0:0:
368,112,90347,6,0,L|448:112,1,64,2|0,0:0|0:0,0:0:0:0:
304,112,90650,2,0,L|224:112,1,64,2|2,0:0|0:0,0:0:0:0:
112,112,90954,2,0,L|32:112,1,64,10|0,0:0|0:0,0:0:0:0:
176,112,91257,2,0,L|256:112,1,64,2|2,0:0|0:0,0:0:0:0:
368,64,91560,5,2,0:0:0:0:
480,128,91711,1,2,0:0:0:0:
416,192,91863,1,2,0:0:0:0:
304,192,92014,1,0,0:0:0:0:
144,64,92166,1,10,0:0:0:0:
32,128,92317,1,2,0:0:0:0:
96,192,92469,1,2,0:0:0:0:
208,192,92620,1,2,0:0:0:0:
352,128,92772,6,0,L|416:128,2,64,0|2|0,0:0|0:0|0:0,0:0:0:0:
128,128,93226,1,2,0:0:0:0:
224,128,93378,6,0,L|228:156,7,16,12|0|0|0|0|0|0|0,0:0|0:0|0:0|0:0|0:0|0:0|0:0|0:0,0:0:0:0:
288,160,93681,2,0,L|292:188,7,16,0|0|0|0|0|0|0|0,0:0|0:0|0:0|0:0|0:0|0:0|0:0|0:0,0:0:0:0:
352,192,93984,6,0,L|528:192,1,160,6|0,0:0|0:0,0:0:0:0:
192,192,94438,2,0,L|96:192,2,80,2|8|0,0:0|0:0|0:0,0:0:0:0:
352,144,94893,2,0,L|256:144,1,80,2|0,0:0|0:0,0:0:0:0:
496,96,95196,6,0,P|496:160|400:192,1,160,2|0,0:0|0:0,0:0:0:0:
192,208,95650,2,0,L|288:208,2,80,2|8|0,0:0|0:0|0:0,0:0:0:0:
32,160,96105,2,0,L|128:160,1,80,2|0,0:0|0:0,0:0:0:0:
272,160,96408,6,0,P|352:160|384:96,1,160,2|0,0:0|0:0,0:0:0:0:
224,96,96863,1,2,0:0:0:0:
112,96,97014,1,8,0:0:0:0:
32,96,97166,1,0,0:0:0:0:
160,64,97317,2,0,L|240:64,1,80,2|0,0:0|0:0,0:0:0:0:
368,96,97620,5,2,0:0:0:0:
224,112,97772,1,0,0:0:0:0:
368,144,97923,2,0,L|272:144,1,80,2|0,0:0|0:0,0:0:0:0:
448,192,98226,1,10,0:0:0:0:
224,192,98378,1,0,0:0:0:0:
368,192,98529,1,2,0:0:0:0:
224,224,98681,1,2,0:0:0:0:
80,192,98832,6,0,P|96:128|176:80,1,160,2|0,0:0|0:0,0:0:0:0:
448,192,99287,1,2,0:0:0:0:
424,117,99438,1,8,0:0:0:0:
355,80,99590,1,0,0:0:0:0:
216,64,99741,2,0,L|296:64,1,80,2|0,0:0|0:0,0:0:0:0:
32,64,100044,6,0,L|48:160,1,80,2|0,0:0|0:0,0:0:0:0:
320,144,100347,2,0,L|304:240,1,80,0|2,0:0|0:0,0:0:0:0:
160,224,100650,2,0,L|174:145,1,80,8|0,0:0|0:0,0:0:0:0:
480,144,100954,2,0,L|466:65,1,80,2|0,0:0|0:0,0:0:0:0:
192,64,101257,6,0,P|112:80|80:160,1,160,2|0,0:0|0:0,0:0:0:0:
304,128,101711,2,0,P|267:196|191:209,1,160,2|0,0:0|0:0,0:0:0:0:
336,208,102166,2,0,L|432:208,1,80,2|0,0:0|0:0,0:0:0:0:
192,208,102469,6,0,L|96:208,1,80,2|0,0:0|0:0,0:0:0:0:
224,160,102772,1,2,0:0:0:0:
80,160,102923,1,0,0:0:0:0:
224,112,103075,2,0,L|320:112,1,80,10|2,0:0|0:0,0:0:0:0:
80,96,103378,1,2,0:0:0:0:
224,64,103529,1,2,0:0:0:0:
0,64,103681,6,0,L|160:64,1,160,6|2,0:0|0:0,0:0:0:0:
320,80,104135,2,0,L|160:80,1,160,2|0,0:0|0:0,0:0:0:0:
320,112,104590,2,0,L|416:112,1,80,2|0,0:0|0:0,0:0:0:0:
160,160,104893,6,0,L|320:160,1,160,2|2,0:0|0:0,0:0:0:0:
160,176,105347,2,0,L|0:176,1,160,0|0,0:0|0:0,0:0:0:0:
160,144,105802,2,0,L|256:144,1,80,2|0,0:0|0:0,0:0:0:0:
0,80,106105,6,0,L|16:176,1,80,2|0,0:0|0:0,0:0:0:0:
496,160,106408,2,0,L|482:81,1,80,0|2,0:0|0:0,0:0:0:0:
130,302,106711,2,0,L|144:224,1,80,8|0,0:0|0:0,0:0:0:0:
381,302,107014,2,0,L|368:224,1,80,2|0,0:0|0:0,0:0:0:0:
256,256,107317,5,2,0:0:0:0:
384,208,107469,1,0,0:0:0:0:
448,96,107620,1,0,0:0:0:0:
336,96,107772,1,0,0:0:0:0:
192,96,107923,1,10,0:0:0:0:
112,64,108075,1,0,0:0:0:0:
256,64,108226,1,0,0:0:0:0:
400,64,108378,1,0,0:0:0:0:
16,160,108529,6,0,L|176:160,1,160,2|0,0:0|0:0,0:0:0:0:
272,160,108984,1,0,0:0:0:0:
496,160,109135,2,0,L|336:160,1,160,10|0,0:0|0:0,0:0:0:0:
240,160,109590,1,0,0:0:0:0:
32,128,109741,6,0,L|112:128,1,80,2|0,0:0|0:0,0:0:0:0:
256,128,110044,2,0,L|160:128,1,80,0|0,0:0|0:0,0:0:0:0:
480,112,110347,2,0,L|384:112,1,80,8|0,0:0|0:0,0:0:0:0:
256,96,110650,2,0,L|352:96,1,80,2|0,0:0|0:0,0:0:0:0:
176,96,110954,6,0,P|96:96|48:160,1,160,2|0,0:0|0:0,0:0:0:0:
336,96,111408,2,0,P|416:96|464:160,1,160,2|0,0:0|0:0,0:0:0:0:
216,176,111863,2,0,L|312:176,1,80,2|0,0:0|0:0,0:0:0:0:
144,208,112166,6,0,L|64:208,2,80,6|0|0,0:0|0:0|0:0,0:0:0:0:
368,208,112620,1,0,0:0:0:0:
256,144,112772,2,0,L|224:64,1,80,4|0,0:0|0:0,0:0:0:0:
368,128,113075,2,0,L|400:48,1,80,0|0,0:0|0:0,0:0:0:0:
96,64,113378,6,0,L|32:112,1,80,6|0,0:0|0:0,0:0:0:0:
416,64,113681,2,0,L|480:112,1,80,2|0,0:0|0:0,0:0:0:0:
160,112,113984,2,0,L|224:208,1,80,10|0,0:0|0:0,0:0:0:0:
352,112,114287,2,0,L|288:208,1,80,2|0,0:0|0:0,0:0:0:0:
96,64,114590,6,0,L|32:112,1,80,2|0,0:0|0:0,0:0:0:0:
416,64,114893,2,0,L|480:112,1,80,2|0,0:0|0:0,0:0:0:0:
160,112,115196,2,0,L|224:208,1,80,10|0,0:0|0:0,0:0:0:0:
352,112,115499,2,0,L|288:208,1,80,2|0,0:0|0:0,0:0:0:0:
96,64,115802,6,0,L|32:112,1,80,2|0,0:0|0:0,0:0:0:0:
416,64,116105,2,0,L|480:112,1,80,2|0,0:0|0:0,0:0:0:0:
160,112,116408,2,0,L|224:208,1,80,10|0,0:0|0:0,0:0:0:0:
352,112,116711,2,0,L|288:208,1,80,2|2,0:0|0:0,0:0:0:0:
160,192,117014,5,2,0:0:0:0:
304,192,117166,2,0,L|384:192,2,80,0|2|0,0:0|0:0|0:0,0:0:0:0:
448,192,117620,2,0,L|464:272,1,80,10|0,0:0|0:0,0:0:0:0:
64,192,117923,2,0,L|48:272,1,80,2|0,0:0|0:0,0:0:0:0:
480,128,118226,6,0,L|416:80,1,80,2|0,0:0|0:0,0:0:0:0:
32,128,118529,2,0,L|96:80,1,80,2|0,0:0|0:0,0:0:0:0:
324,80,118832,2,0,L|404:80,1,80,10|0,0:0|0:0,0:0:0:0:
188,80,119135,2,0,L|108:80,1,80,2|0,0:0|0:0,0:0:0:0:
480,160,119438,6,0,L|416:112,1,80,2|0,0:0|0:0,0:0:0:0:
32,192,119741,2,0,L|96:144,1,80,2|0,0:0|0:0,0:0:0:0:
324,128,120044,2,0,L|404:128,1,80,10|0,0:0|0:0,0:0:0:0:
188,80,120347,2,0,L|108:80,1,80,2|0,0:0|0:0,0:0:0:0:
480,128,120650,6,0,L|416:80,1,80,2|0,0:0|0:0,0:0:0:0:
32,128,120953,2,0,L|96:80,1,80,2|0,0:0|0:0,0:0:0:0:
324,80,121257,2,0,L|404:80,1,80,10|0,0:0|0:0,0:0:0:0:
188,80,121560,2,0,L|108:80,1,80,2|2,0:0|0:0,0:0:0:0:
352,112,121863,5,0,0:0:0:0:
288,144,122014,1,2,0:0:0:0:
224,176,122166,1,2,0:0:0:0:
160,208,122317,1,2,0:0:0:0:
448,128,122469,1,14,0:0:0:0:
320,128,122620,1,0,0:0:0:0:
192,128,122772,1,2,0:0:0:0:
64,128,122923,1,0,0:0:0:0:
464,240,123075,6,0,L|480:160,1,80,6|0,0:0|0:0,0:0:0:0:
264,160,123378,2,0,L|248:80,1,80,2|0,0:0|0:0,0:0:0:0:
32,112,123681,2,0,L|48:192,1,80,10|0,0:0|0:0,0:0:0:0:
480,96,123984,2,0,L|464:176,1,80,2|0,0:0|0:0,0:0:0:0:
32,96,124287,6,0,L|128:96,1,80,2|0,0:0|0:0,0:0:0:0:
368,96,124590,2,0,L|288:96,1,80,2|0,0:0|0:0,0:0:0:0:
144,64,124893,2,0,L|224:64,1,80,10|0,0:0|0:0,0:0:0:0:
464,64,125196,2,0,L|384:64,1,80,2|0,0:0|0:0,0:0:0:0:
80,192,125499,6,0,L|48:112,1,80,2|0,0:0|0:0,0:0:0:0:
288,112,125802,2,0,L|192:112,1,80,2|0,0:0|0:0,0:0:0:0:
432,192,126105,2,0,L|464:112,1,80,10|0,0:0|0:0,0:0:0:0:
224,112,126408,2,0,L|320:112,1,80,2|2,0:0|0:0,0:0:0:0:
432,128,126711,5,2,0:0:0:0:
352,144,126863,1,2,0:0:0:0:
272,160,127014,1,0,0:0:0:0:
400,176,127166,1,2,0:0:0:0:
80,128,127317,1,10,0:0:0:0:
160,144,127469,1,2,0:0:0:0:
240,160,127620,1,2,0:0:0:0:
112,192,127772,1,0,0:0:0:0:
416,240,127923,6,0,L|496:304,1,80,2|0,0:0|0:0,0:0:0:0:
192,192,128226,2,0,L|272:256,1,80,2|0,0:0|0:0,0:0:0:0:
96,240,128529,2,0,L|16:304,1,80,10|0,0:0|0:0,0:0:0:0:
320,288,128832,2,0,L|240:352,1,80,2|0,0:0|0:0,0:0:0:0:
416,288,129135,6,0,L|496:352,1,80,2|0,0:0|0:0,0:0:0:0:
192,288,129438,2,0,L|272:352,1,80,2|0,0:0|0:0,0:0:0:0:
96,304,129741,2,0,L|16:368,1,80,10|0,0:0|0:0,0:0:0:0:
320,288,130044,2,0,L|240:352,1,80,2|0,0:0|0:0,0:0:0:0:
416,240,130347,6,0,L|496:304,1,80,2|0,0:0|0:0,0:0:0:0:
96,240,130650,2,0,L|16:304,1,80,2|0,0:0|0:0,0:0:0:0:
416,240,130953,2,0,L|496:304,1,80,10|0,0:0|0:0,0:0:0:0:
96,240,131257,2,0,L|16:304,1,80,2|0,0:0|0:0,0:0:0:0:
464,144,131560,5,2,0:0:0:0:
384,144,131711,1,0,0:0:0:0:
304,144,131863,1,2,0:0:0:0:
384,96,132014,1,0,0:0:0:0:
224,96,132166,1,10,0:0:0:0:
144,96,132317,1,0,0:0:0:0:
64,96,132469,1,2,0:0:0:0:
304,96,132620,1,0,0:0:0:0:
184,48,132772,6,0,B|104:48|104:48|344:48|344:48|264:48|264:48|504:48,3,640,6|0|0|2,0:0|0:0|0:0|0:0,0:0:0:0:
40,160,137014,6,0,L|32:256,1,80
368,96,137620,6,0,P|448:144|448:208,1,160,2|0,0:0|0:0,0:0:0:0:
320,208,138075,2,0,L|240:208,2,80,0|10|0,0:0|0:0|0:0,0:0:0:0:
192,160,138529,2,0,L|272:160,1,80,0|2,0:0|0:0,0:0:0:0:
112,160,138832,6,0,P|80:112|176:80,1,160,0|0,0:0|0:0,0:0:0:0:
272,96,139287,2,0,L|352:96,1,80,0|10,0:0|0:0,0:0:0:0:
256,48,139590,1,0,0:0:0:0:
384,48,139741,2,0,L|288:48,1,80,2|0,0:0|0:0,0:0:0:0:
400,256,140044,5,2,0:0:0:0:
288,288,140196,1,0,0:0:0:0:
128,288,140347,1,2,0:0:0:0:
240,224,140499,2,0,P|336:224|352:272,1,160,2|0,0:0|0:0,0:0:0:0:
224,288,140954,2,0,L|304:288,1,80,2|0,0:0|0:0,0:0:0:0:
144,256,141257,6,0,L|160:176,1,80,2|2,0:0|0:0,0:0:0:0:
304,128,141560,2,0,L|208:128,1,80,2|2,0:0|0:0,0:0:0:0:
384,80,141863,1,10,0:0:0:0:
256,80,142014,1,0,0:0:0:0:
384,48,142166,1,2,0:0:0:0:
256,48,142317,1,0,0:0:0:0:
512,96,142469,6,0,L|432:96,1,80,2|2,0:0|0:0,0:0:0:0:
304,96,142772,2,0,L|224:96,2,80,0|2|10,0:0|0:0|0:0,0:0:0:0:
176,96,143226,2,0,L|256:96,1,80,2|0,0:0|0:0,0:0:0:0:
16,112,143529,6,0,P|48:64|144:48,1,160,2|2,0:0|0:0,0:0:0:0:
288,48,143984,2,0,L|208:48,1,80,2|0,0:0|0:0,0:0:0:0:
368,64,144287,1,8,0:0:0:0:
304,112,144438,1,0,0:0:0:0:
432,128,144590,1,2,0:0:0:0:
304,176,144741,1,0,0:0:0:0:
432,176,144893,6,0,L|448:256,1,80,6|0,0:0|0:0,0:0:0:0:
224,176,145196,2,0,L|240:256,1,80,2|0,0:0|0:0,0:0:0:0:
368,176,145499,2,0,L|352:256,1,80,2|0,0:0|0:0,0:0:0:0:
128,176,145802,2,0,L|112:256,1,80,0|2,0:0|0:0,0:0:0:0:
352,288,146105,6,0,L|448:288,1,80,6|2,0:0|0:0,0:0:0:0:
208,256,146408,2,0,L|128:256,1,80,2|0,0:0|0:0,0:0:0:0:
256,240,146711,1,10,0:0:0:0:
336,208,146863,1,0,0:0:0:0:
288,112,147014,1,2,0:0:0:0:
160,112,147166,1,0,0:0:0:0:
384,64,147317,6,0,P|416:112|352:176,1,160,2|2,0:0|0:0,0:0:0:0:
224,192,147772,1,0,0:0:0:0:
448,192,147923,2,0,L|432:112,1,80,10|0,0:0|0:0,0:0:0:0:
304,112,148226,2,0,L|224:112,1,80,0|0,0:0|0:0,0:0:0:0:
384,80,148529,6,0,P|432:112|416:48,1,160,2|2,0:0|0:0,0:0:0:0:
192,32,148984,2,0,L|288:32,2,80,0|10|0,0:0|0:0|0:0,0:0:0:0:
336,64,149438,2,0,L|256:64,1,80,2|0,0:0|0:0,0:0:0:0:
400,96,149741,6,0,L|496:96,2,80,2|0|2,0:0|0:0|0:0,0:0:0:0:
256,96,150196,1,0,0:0:0:0:
400,128,150347,2,0,P|368:160|256:176,2,160,10|2|2,0:0|0:0|0:0,0:0:0:0:
256,128,151105,6,0,L|176:128,2,80,0|2|0,0:0|0:0|0:0,0:0:0:0:
384,192,151560,1,10,0:0:0:0:
240,192,151711,1,0,0:0:0:0:
96,192,151863,1,0,0:0:0:0:
64,144,152014,1,0,0:0:0:0:
208,144,152166,6,0,P|224:80|128:32,1,160,2|0,0:0|0:0,0:0:0:0:
32,48,152620,1,0,0:0:0:0:
112,96,152772,1,10,0:0:0:0:
264,96,152923,1,0,0:0:0:0:
416,96,153075,1,2,0:0:0:0:
264,96,153226,1,2,0:0:0:0:
112,160,153378,6,0,L|192:160,2,80,2|0|2,0:0|0:0|0:0,0:0:0:0:
256,160,153832,1,0,0:0:0:0:
400,160,153984,2,0,P|304:160|240:96,1,160,10|0,0:0|0:0,0:0:0:0:
400,80,154438,1,0,0:0:0:0:
32,96,154590,6,0,L|48:144|32:176,1,80,2|0,0:0|0:0,0:0:0:0:
176,160,154893,2,0,L|160:208|176:240,1,80,2|2,0:0|0:0,0:0:0:0:
336,160,155196,2,0,L|352:208|336:240,1,80,8|2,0:0|0:0,0:0:0:0:
480,96,155499,2,0,L|464:144|480:176,1,80,0|2,0:0|0:0,0:0:0:0:
176,224,155802,5,0,0:0:0:0:
48,240,155954,1,2,0:0:0:0:
0,128,156105,1,2,0:0:0:0:
112,96,156257,1,0,0:0:0:0:
256,80,156408,2,0,L|176:80,1,80,12|0,0:0|0:0,0:0:0:0:
400,80,156711,2,0,L|512:80,1,80,0|0,0:0|0:0,0:0:0:0:
176,112,157014,5,4,0:0:0:0:
400,128,157317,2,0,L|432:208,2,80,2|0|10,0:0|0:0|0:0,0:0:0:0:
112,128,157923,6,0,L|80:208,2,80,2|0|2,0:0|0:0|0:0,0:0:0:0:
368,160,158529,2,0,L|400:240,2,80,2|2|8,0:0|0:0|0:0,0:0:0:0:
144,160,159135,2,0,L|112:240,1,80,2|2,0:0|0:0,0:0:0:0:
336,192,159438,5,2,0:0:0:0:
352,128,159590,1,0,0:0:0:0:
480,128,159741,1,0,0:0:0:0:
464,64,159893,1,2,0:0:0:0:
304,64,160044,2,0,L|400:64,1,80,8|2,0:0|0:0,0:0:0:0:
304,96,160347,2,0,L|208:96,1,80,0|0,0:0|0:0,0:0:0:0:
64,96,160650,5,2,0:0:0:0:
48,144,160802,1,0,0:0:0:0:
176,144,160954,1,2,0:0:0:0:
192,192,161105,1,2,0:0:0:0:
336,176,161257,2,0,L|256:176,1,80,8|2,0:0|0:0,0:0:0:0:
112,160,161560,2,0,L|192:160,1,80,2|2,0:0|0:0,0:0:0:0:
496,128,161863,6,0,L|400:128,1,80,2|2,0:0|0:0,0:0:0:0:
400,96,162166,2,0,L|480:96,1,80,0|0,0:0|0:0,0:0:0:0:
336,96,162469,2,0,L|240:96,1,80,10|0,0:0|0:0,0:0:0:0:
400,48,162772,2,0,L|496:48,1,80,2|2,0:0|0:0,0:0:0:0:
224,48,163075,5,2,0:0:0:0:
176,96,163226,1,0,0:0:0:0:
160,160,163378,1,2,0:0:0:0:
224,176,163529,1,2,0:0:0:0:
96,192,163681,2,0,L|16:192,1,80,8|2,0:0|0:0,0:0:0:0:
160,208,163984,2,0,L|240:208,1,80,2|2,0:0|0:0,0:0:0:0:
96,224,164287,5,2,0:0:0:0:
184,224,164438,1,0,0:0:0:0:
208,320,164590,2,0,L|96:320,1,80,0|2,0:0|0:0,0:0:0:0:
416,224,164893,1,8,0:0:0:0:
328,224,165044,1,0,0:0:0:0:
304,320,165196,2,0,L|416:320,1,80,2|0,0:0|0:0,0:0:0:0:
240,256,165499,6,0,L|144:256,3,80,0|2|0|0,0:0|0:0|0:0|0:0,0:0:0:0:
288,208,166105,2,0,L|352:160,1,80,10|0,0:0|0:0,0:0:0:0:
112,208,166408,2,0,L|48:160,1,80,0|0,0:0|0:0,0:0:0:0:
288,144,166711,6,0,L|448:144,1,160,6|2,0:0|0:0,0:0:0:0:
480,96,167166,1,0,0:0:0:0:
352,96,167317,2,0,L|176:96,1,160,10|2,0:0|0:0,0:0:0:0:
160,64,167772,1,0,0:0:0:0:
288,32,167923,6,0,L|112:32,1,160,2|2,0:0|0:0,0:0:0:0:
160,96,168378,1,0,0:0:0:0:
32,144,168529,2,0,L|208:144,1,160,10|2,0:0|0:0,0:0:0:0:
160,192,168984,1,0,0:0:0:0:
288,192,169135,6,0,L|368:192,3,80,2|0|2|0,0:0|0:0|0:0|0:0,0:0:0:0:
224,192,169741,2,0,L|144:192,3,80,10|0|2|0,0:0|0:0|0:0|0:0,0:0:0:0:
448,144,170347,6,0,L|464:224,1,80,2|0,0:0|0:0,0:0:0:0:
224,224,170650,2,0,L|304:160,1,80,2|0,0:0|0:0,0:0:0:0:
64,144,170954,2,0,L|48:224,1,80,10|0,0:0|0:0,0:0:0:0:
288,224,171257,2,0,L|208:160,1,80,2|0,0:0|0:0,0:0:0:0:
448,96,171560,5,2,0:0:0:0:
432,64,171711,1,0,0:0:0:0:
416,96,171863,1,0,0:0:0:0:
400,64,172014,1,2,0:0:0:0:
64,96,172166,1,8,0:0:0:0:
80,64,172317,1,2,0:0:0:0:
96,96,172469,1,0,0:0:0:0:
112,64,172620,1,0,0:0:0:0:
256,64,172772,5,2,0:0:0:0:
240,96,172923,1,0,0:0:0:0:
224,128,173075,1,2,0:0:0:0:
208,160,173226,1,2,0:0:0:0:
352,160,173378,1,8,0:0:0:0:
368,192,173529,1,0,0:0:0:0:
384,224,173681,1,2,0:0:0:0:
400,256,173832,1,0,0:0:0:0:
256,192,173984,12,0,175196,0:0:0:0:
400,144,175499,5,0,0:0:0:0:
112,144,175802,1,0,0:0:0:0:
400,144,176105,1,0,0:0:0:0:
32,80,176408,6,0,L|176:80,1,128,2|0,0:0|0:0,0:0:0:0:
224,80,176863,2,0,L|352:80,1,128,2|0,0:0|0:0,0:0:0:0:
480,80,177317,2,0,L|416:80,1,64,2|0,0:0|0:0,0:0:0:0:
288,96,177620,6,0,P|272:160|320:224,1,128,2|0,0:0|0:0,0:0:0:0:
368,208,178075,2,0,P|384:272|336:336,1,128,2|0,0:0|0:0,0:0:0:0:
224,336,178529,2,0,P|176:320|160:336,1,64,2|0,0:0|0:0,0:0:0:0:
48,256,178832,6,0,L|192:256,1,128,2|0,0:0|0:0,0:0:0:0:
208,176,179287,2,0,L|80:176,1,128,2|0,0:0|0:0,0:0:0:0:
208,128,179741,2,0,L|272:128,1,64,2|0,0:0|0:0,0:0:0:0:
400,128,180044,6,0,P|368:160|496:256,1,256,2|2,0:0|0:0,0:0:0:0:
256,176,181257,6,0,L|112:176,1,128,2|0,0:0|0:0,0:0:0:0:
192,144,181711,2,0,L|336:144,1,128,2|0,0:0|0:0,0:0:0:0:
192,112,182166,2,0,L|128:112,1,64,2|0,0:0|0:0,0:0:0:0:
256,80,182469,6,0,L|400:80,1,128,2|0,0:0|0:0,0:0:0:0:
320,64,182923,2,0,L|192:64,1,128,2|0,0:0|0:0,0:0:0:0:
320,96,183378,2,0,L|400:96,1,64,2|0,0:0|0:0,0:0:0:0:
512,112,183681,6,0,P|528:160|464:208,1,128,2|0,0:0|0:0,0:0:0:0:
416,208,184135,2,0,L|272:208,1,128,2|0,0:0|0:0,0:0:0:0:
160,208,184590,2,0,P|144:256|160:272,1,64,2|0,0:0|0:0,0:0:0:0:
272,288,184893,6,0,P|96:288|80:224,1,256,2|2,0:0|0:0,0:0:0:0:
272,160,185802,1,2,0:0:0:0:
464,96,186105,6,0,L|320:96,1,128,2|0,0:0|0:0,0:0:0:0:
208,64,186560,2,0,L|352:64,1,128,2|0,0:0|0:0,0:0:0:0:
464,64,187014,1,2,0:0:0:0:
320,112,187317,6,0,P|208:144|192:176,1,128,2|0,0:0|0:0,0:0:0:0:
336,160,187772,2,0,P|368:112|400:32,1,128,2|0,0:0|0:0,0:0:0:0:
272,48,188226,2,0,L|192:48,1,64,2|0,0:0|0:0,0:0:0:0:
432,80,188529,6,0,P|480:128|448:160,1,128,2|0,0:0|0:0,0:0:0:0:
112,80,188984,2,0,P|64:128|96:160,1,128,2|0,0:0|0:0,0:0:0:0:
400,112,189438,2,0,L|464:112,1,64,2|0,0:0|0:0,0:0:0:0:
336,176,189741,5,2,0:0:0:0:
240,176,189893,1,0,0:0:0:0:
208,128,190044,1,0,0:0:0:0:
288,128,190196,1,0,0:0:0:0:
400,128,190347,2,0,P|496:144|496:176,1,128,2|0,0:0|0:0,0:0:0:0:
208,176,190954,6,0,L|128:176,1,64,2|0,0:0|0:0,0:0:0:0:
128,96,191257,2,0,L|208:96,1,64,0|0,0:0|0:0,0:0:0:0:
320,176,191560,2,0,L|400:176,1,64,2|0,0:0|0:0,0:0:0:0:
400,96,191863,2,0,L|320:96,1,64,0|0,0:0|0:0,0:0:0:0:
192,96,192166,5,2,0:0:0:0:
96,96,192317,1,0,0:0:0:0:
80,160,192469,1,0,0:0:0:0:
176,160,192620,1,0,0:0:0:0:
320,96,192772,1,0,0:0:0:0:
416,96,192923,1,0,0:0:0:0:
432,160,193075,1,2,0:0:0:0:
336,160,193226,1,0,0:0:0:0:
80,144,193378,6,0,L|224:144,1,128,2|0,0:0|0:0,0:0:0:0:
336,120,193832,2,0,L|192:120,1,128,2|0,0:0|0:0,0:0:0:0:
80,176,194287,2,0,L|160:176,1,64,2|0,0:0|0:0,0:0:0:0:
432,176,194590,5,2,0:0:0:0:
256,192,194741,12,0,195650,0:0:0:0:
160,184,195802,6,0,L|156:168,15,16,0|0|0|0|0|0|0|0|0|0|0|0|0|0|0|0,0:0|0:0|0:0|0:0|0:0|0:0|0:0|0:0|0:0|0:0|0:0|0:0|0:0|0:0|0:0|0:0,0:0:0:0:
220,156,196408,6,0,L|224:140,15,16,0|0|0|0|2|0|0|0|2|0|0|0|0|0|0|0,0:0|0:0|0:0|0:0|0:0|0:0|0:0|0:0|0:0|0:0|0:0|0:0|0:0|0:0|0:0|0:0,0:0:0:0:
288,112,197014,6,0,L|400:112,1,80,6|0,0:0|0:0,0:0:0:0:
288,64,197317,1,2,0:0:0:0:
448,64,197468,1,2,0:0:0:0:
288,80,197620,1,8,0:0:0:0:
32,96,197771,1,0,0:0:0:0:
160,128,197923,1,2,0:0:0:0:
16,144,198074,1,2,0:0:0:0:
144,160,198226,6,0,L|64:160,1,80,2|0,0:0|0:0,0:0:0:0:
192,192,198529,1,2,0:0:0:0:
320,208,198680,1,2,0:0:0:0:
80,272,198832,2,0,L|64:192,1,80,8|0,0:0|0:0,0:0:0:0:
304,176,199135,1,2,0:0:0:0:
208,176,199286,1,0,0:0:0:0:
432,128,199438,6,0,L|528:128,1,80,2|0,0:0|0:0,0:0:0:0:
368,128,199741,2,0,L|272:128,1,80,2|2,0:0|0:0,0:0:0:0:
144,128,200044,2,0,L|224:128,1,80,8|2,0:0|0:0,0:0:0:0:
80,128,200347,2,0,L|0:128,1,80,0|2,0:0|0:0,0:0:0:0:
432,64,200650,5,2,0:0:0:0:
368,64,200801,1,0,0:0:0:0:
304,64,200953,1,2,0:0:0:0:
240,64,201104,1,0,0:0:0:0:
80,64,201256,1,10,0:0:0:0:
144,64,201407,1,2,0:0:0:0:
272,64,201559,1,2,0:0:0:0:
208,64,201710,1,2,0:0:0:0:
432,112,201862,6,0,L|320:112,1,80,2|0,0:0|0:0,0:0:0:0:
208,112,202165,1,2,0:0:0:0:
352,160,202317,1,2,0:0:0:0:
80,160,202468,2,0,L|64:240,1,80,8|2,0:0|0:0,0:0:0:0:
208,224,202771,2,0,L|224:304,1,80,0|2,0:0|0:0,0:0:0:0:
80,272,203074,6,0,L|192:272,1,80,2|2,0:0|0:0,0:0:0:0:
304,272,203377,1,2,0:0:0:0:
160,224,203529,1,2,0:0:0:0:
432,224,203680,2,0,L|448:144,1,80,10|0,0:0|0:0,0:0:0:0:
160,176,203983,2,0,L|144:96,1,80,2|0,0:0|0:0,0:0:0:0:
288,80,204286,6,0,L|384:80,2,80,2|0|0,0:0|0:0|0:0,0:0:0:0:
144,64,204741,1,2,0:0:0:0:
288,48,204892,2,0,L|208:48,2,80,8|2|0,0:0|0:0|0:0,0:0:0:0:
432,64,205347,1,2,0:0:0:0:
144,160,205498,6,0,L|173:85,1,80,2|0,0:0|0:0,0:0:0:0:
272,160,205801,2,0,L|242:85,1,80,0|0,0:0|0:0,0:0:0:0:
368,80,206104,2,0,L|398:155,1,80,10|2,0:0|0:0,0:0:0:0:
272,160,206407,1,2,0:0:0:0:
400,192,206559,1,2,0:0:0:0:
32,272,206710,6,0,L|96:192,1,80,6|0,0:0|0:0,0:0:0:0:
224,160,207014,2,0,L|144:160,1,80,2|2,0:0|0:0,0:0:0:0:
288,128,207317,2,0,L|400:128,1,80,8|2,0:0|0:0,0:0:0:0:
144,192,207620,2,0,L|240:192,1,80,0|2,0:0|0:0,0:0:0:0:
480,272,207923,6,0,L|416:192,1,80,2|2,0:0|0:0,0:0:0:0:
144,176,208226,2,0,L|224:176,1,80,2|2,0:0|0:0,0:0:0:0:
368,176,208529,2,0,L|256:176,1,80,10|0,0:0|0:0,0:0:0:0:
144,112,208832,1,2,0:0:0:0:
224,96,208983,1,0,0:0:0:0:
368,80,209135,6,0,L|456:128,3,80,2|0|2|0,0:0|0:0|0:0|0:0,0:0:0:0:
144,80,209741,2,0,L|48:128,3,80,10|0|2|0,0:0|0:0|0:0|0:0,0:0:0:0:
352,144,210347,6,0,L|448:144,1,80,2|0,0:0|0:0,0:0:0:0:
288,176,210650,2,0,L|192:176,1,80,2|0,0:0|0:0,0:0:0:0:
64,208,210953,2,0,L|160:208,2,80,10|0|2,0:0|0:0|0:0,0:0:0:0:
208,160,211407,1,0,0:0:0:0:
448,160,211559,5,2,0:0:0:0:
320,112,211710,1,0,0:0:0:0:
448,96,211862,2,0,L|464:176,1,80,0|0,0:0|0:0,0:0:0:0:
64,160,212165,1,10,0:0:0:0:
192,112,212317,1,0,0:0:0:0:
64,96,212468,2,0,L|48:176,1,80,0|0,0:0|0:0,0:0:0:0:
448,192,212771,5,2,0:0:0:0:
320,192,212923,1,0,0:0:0:0:
304,144,213074,1,0,0:0:0:0:
432,144,213226,1,0,0:0:0:0:
192,192,213377,1,8,0:0:0:0:
64,192,213529,1,0,0:0:0:0:
80,144,213680,1,2,0:0:0:0:
208,144,213832,1,0,0:0:0:0:
448,96,213983,6,0,L|368:96,1,80,2|0,0:0|0:0,0:0:0:0:
144,96,214286,2,0,L|64:96,1,80,0|2,0:0|0:0,0:0:0:0:
368,48,214589,2,0,L|464:48,1,80,8|0,0:0|0:0,0:0:0:0:
144,48,214892,2,0,L|64:48,1,80,2|0,0:0|0:0,0:0:0:0:
448,80,215195,6,0,L|368:80,1,80,6|0,0:0|0:0,0:0:0:0:
352,144,215498,2,0,L|448:144,1,80,0|0,0:0|0:0,0:0:0:0:
176,192,215801,1,4,0:0:0:0:
48,192,215953,1,0,0:0:0:0:
16,128,216104,1,0,0:0:0:0:
144,128,216256,1,0,0:0:0:0:
416,64,216407,6,0,L|480:112,1,80,6|0,0:0|0:0,0:0:0:0:
96,64,216710,2,0,L|32:112,1,80,2|0,0:0|0:0,0:0:0:0:
352,112,217014,2,0,L|288:208,1,80,10|0,0:0|0:0,0:0:0:0:
160,112,217317,2,0,L|224:208,1,80,2|0,0:0|0:0,0:0:0:0:
416,64,217620,6,0,L|480:112,1,80,2|0,0:0|0:0,0:0:0:0:
96,64,217923,2,0,L|32:112,1,80,2|0,0:0|0:0,0:0:0:0:
352,112,218226,2,0,L|288:208,1,80,10|0,0:0|0:0,0:0:0:0:
160,112,218529,2,0,L|224:208,1,80,2|0,0:0|0:0,0:0:0:0:
416,64,218832,6,0,L|480:112,1,80,2|0,0:0|0:0,0:0:0:0:
96,64,219135,2,0,L|32:112,1,80,2|0,0:0|0:0,0:0:0:0:
352,112,219438,2,0,L|288:208,1,80,10|0,0:0|0:0,0:0:0:0:
160,112,219741,2,0,L|224:208,1,80,2|2,0:0|0:0,0:0:0:0:
432,176,220044,5,2,0:0:0:0:
296,176,220195,2,0,L|216:176,2,80,2|2|0,0:0|0:0|0:0,0:0:0:0:
64,192,220650,2,0,L|48:272,1,80,10|0,0:0|0:0,0:0:0:0:
448,192,220953,2,0,L|464:272,1,80,2|0,0:0|0:0,0:0:0:0:
64,192,221256,6,0,L|32:112,1,80,2|0,0:0|0:0,0:0:0:0:
192,112,221559,2,0,L|160:192,1,80,2|0,0:0|0:0,0:0:0:0:
448,112,221862,2,0,L|478:187,1,80,10|0,0:0|0:0,0:0:0:0:
320,192,222165,2,0,L|350:266,1,80,2|0,0:0|0:0,0:0:0:0:
112,176,222468,6,0,L|16:176,1,80,2|0,0:0|0:0,0:0:0:0:
288,128,222771,2,0,L|368:128,1,80,2|0,0:0|0:0,0:0:0:0:
224,128,223074,2,0,L|144:128,1,80,10|0,0:0|0:0,0:0:0:0:
400,80,223377,2,0,L|480:80,1,80,2|0,0:0|0:0,0:0:0:0:
48,192,223680,6,0,L|32:112,1,80,2|0,0:0|0:0,0:0:0:0:
160,112,223983,2,0,L|256:112,1,80,2|0,0:0|0:0,0:0:0:0:
464,192,224286,2,0,L|480:112,1,80,10|0,0:0|0:0,0:0:0:0:
352,112,224589,2,0,L|272:112,1,80,2|2,0:0|0:0,0:0:0:0:
136,64,224892,5,0,0:0:0:0:
216,64,225044,1,2,0:0:0:0:
296,64,225195,1,2,0:0:0:0:
376,64,225347,1,2,0:0:0:0:
64,96,225498,1,12,0:0:0:0:
192,96,225650,1,2,0:0:0:0:
320,96,225801,1,2,0:0:0:0:
448,96,225953,1,0,0:0:0:0:
80,176,226104,5,6,0:0:0:0:
208,176,226256,1,0,0:0:0:0:
64,160,226407,1,2,0:0:0:0:
192,144,226559,1,0,0:0:0:0:
48,144,226710,1,10,0:0:0:0:
176,128,226862,1,0,0:0:0:0:
32,128,227014,1,2,0:0:0:0:
160,112,227165,1,0,0:0:0:0:
432,176,227317,5,2,0:0:0:0:
304,176,227468,1,0,0:0:0:0:
448,144,227620,1,2,0:0:0:0:
320,128,227771,1,0,0:0:0:0:
464,112,227923,1,10,0:0:0:0:
336,96,228074,1,0,0:0:0:0:
480,80,228226,1,2,0:0:0:0:
352,64,228377,1,0,0:0:0:0:
32,128,228529,6,0,L|96:80,1,80,2|0,0:0|0:0,0:0:0:0:
480,128,228832,2,0,L|416:80,1,80,2|0,0:0|0:0,0:0:0:0:
288,80,229135,2,0,L|368:80,1,80,10|0,0:0|0:0,0:0:0:0:
224,80,229438,2,0,L|144:80,1,80,2|0,0:0|0:0,0:0:0:0:
464,112,229741,5,2,0:0:0:0:
352,112,229892,1,2,0:0:0:0:
480,160,230044,1,2,0:0:0:0:
368,160,230195,1,0,0:0:0:0:
32,160,230347,2,0,L|128:160,1,80,10|0,0:0|0:0,0:0:0:0:
256,144,230650,2,0,L|160:144,1,80,2|0,0:0|0:0,0:0:0:0:
416,240,230953,6,0,L|496:304,1,80,2|0,0:0|0:0,0:0:0:0:
192,288,231256,2,0,L|272:352,1,80,2|0,0:0|0:0,0:0:0:0:
96,288,231559,2,0,L|16:352,1,80,10|0,0:0|0:0,0:0:0:0:
320,288,231862,2,0,L|240:352,1,80,2|0,0:0|0:0,0:0:0:0:
416,240,232165,6,0,L|496:304,1,80,2|0,0:0|0:0,0:0:0:0:
176,160,232468,2,0,L|96:224,1,80,2|0,0:0|0:0,0:0:0:0:
336,160,232771,2,0,L|416:224,1,80,10|0,0:0|0:0,0:0:0:0:
96,112,233074,2,0,L|16:176,1,80,2|0,0:0|0:0,0:0:0:0:
480,144,233377,6,0,L|400:208,1,80,2|0,0:0|0:0,0:0:0:0:
256,192,233680,2,0,L|176:256,1,80,2|0,0:0|0:0,0:0:0:0:
32,240,233983,2,0,L|112:304,1,80,10|0,0:0|0:0,0:0:0:0:
256,256,234286,2,0,L|336:320,1,80,2|0,0:0|0:0,0:0:0:0:
480,160,234589,5,2,0:0:0:0:
336,160,234741,1,0,0:0:0:0:
176,160,234892,1,2,0:0:0:0:
32,160,235044,1,0,0:0:0:0:
480,80,235195,2,0,L|384:80,1,80,10|0,0:0|0:0,0:0:0:0:
176,80,235498,2,0,L|288:80,1,80,2|0,0:0|0:0,0:0:0:0:
32,64,235801,5,6,0:0:0:0:
256,192,235953,12,0,240347,0:0:0:0:
224,144,240650,6,0,L|64:144,1,160,2|2,0:0|0:0,0:0:0:0:
208,96,241104,1,0,0:0:0:0:
352,64,241256,2,0,L|272:64,2,80,10|0|2,0:0|0:0|0:0,0:0:0:0:
160,128,241862,6,0,L|320:128,1,160,2|2,0:0|0:0,0:0:0:0:
240,176,242317,1,0,0:0:0:0:
400,176,242468,2,0,L|320:176,2,80,10|0|2,0:0|0:0|0:0,0:0:0:0:
32,144,243074,6,0,P|48:208|128:192,1,160,2|2,0:0|0:0,0:0:0:0:
208,192,243529,1,0,0:0:0:0:
432,224,243680,2,0,L|336:224,1,80,10|0,0:0|0:0,0:0:0:0:
80,224,243983,2,0,L|176:224,1,80,2|0,0:0|0:0,0:0:0:0:
16,176,244286,5,2,0:0:0:0:
64,176,244438,1,0,0:0:0:0:
128,176,244589,1,2,0:0:0:0:
208,176,244741,1,2,0:0:0:0:
496,176,244892,1,10,0:0:0:0:
448,176,245044,1,0,0:0:0:0:
384,176,245195,1,2,0:0:0:0:
304,176,245347,1,2,0:0:0:0:
32,112,245498,6,0,L|112:112,1,80,6|0,0:0|0:0,0:0:0:0:
368,96,245801,2,0,L|272:96,1,80,2|0,0:0|0:0,0:0:0:0:
144,96,246104,2,0,L|240:96,1,80,10|0,0:0|0:0,0:0:0:0:
480,96,246407,2,0,L|400:96,1,80,2|0,0:0|0:0,0:0:0:0:
144,80,246710,6,0,L|240:80,1,80,2|0,0:0|0:0,0:0:0:0:
368,64,247014,2,0,L|256:64,1,80,2|0,0:0|0:0,0:0:0:0:
32,128,247317,2,0,L|128:128,1,80,10|0,0:0|0:0,0:0:0:0:
480,64,247620,2,0,L|368:64,1,80,2|0,0:0|0:0,0:0:0:0:
32,64,247923,6,0,L|112:64,1,80,2|0,0:0|0:0,0:0:0:0:
256,64,248226,2,0,L|176:64,1,80,2|0,0:0|0:0,0:0:0:0:
480,112,248529,2,0,L|384:112,1,80,10|0,0:0|0:0,0:0:0:0:
256,112,248832,2,0,L|336:112,1,80,2|0,0:0|0:0,0:0:0:0:
32,112,249135,5,2,0:0:0:0:
144,112,249286,1,0,0:0:0:0:
256,112,249438,1,2,0:0:0:0:
144,144,249589,1,2,0:0:0:0:
480,48,249741,1,10,0:0:0:0:
368,64,249892,1,0,0:0:0:0:
256,112,250044,1,2,0:0:0:0:
368,96,250195,1,2,0:0:0:0:
112,112,250347,6,0,L|96:192,1,80,2|0,0:0|0:0,0:0:0:0:
384,192,250650,2,0,L|304:192,1,80,2|0,0:0|0:0,0:0:0:0:
160,192,250953,2,0,L|176:272,1,80,10|0,0:0|0:0,0:0:0:0:
32,272,251256,2,0,L|144:272,1,80,2|0,0:0|0:0,0:0:0:0:
400,112,251559,6,0,L|416:192,1,80,2|0,0:0|0:0,0:0:0:0:
128,192,251862,2,0,L|208:192,1,80,2|0,0:0|0:0,0:0:0:0:
352,192,252165,2,0,L|336:272,1,80,10|0,0:0|0:0,0:0:0:0:
480,272,252468,2,0,L|368:272,1,80,2|0,0:0|0:0,0:0:0:0:
144,224,252771,5,2,0:0:0:0:
240,192,252923,1,0,0:0:0:0:
272,112,253074,1,2,0:0:0:0:
176,80,253226,1,0,0:0:0:0:
480,224,253377,1,10,0:0:0:0:
384,192,253529,1,0,0:0:0:0:
352,112,253680,1,2,0:0:0:0:
448,96,253832,1,0,0:0:0:0:
80,128,253983,5,2,0:0:0:0:
192,128,254135,1,2,0:0:0:0:
432,128,254286,1,2,0:0:0:0:
320,128,254438,1,2,0:0:0:0:
176,80,254589,1,10,0:0:0:0:
336,80,254741,1,2,0:0:0:0:
112,32,254892,1,2,0:0:0:0:
400,32,255044,1,2,0:0:0:0:
256,192,255195,12,0,258832,0:0:0:0:
