osu file format v13

[General]
AudioFilename: CLIFF EDGE feat. Nakamura Maiko - Endless Tears.mp3
AudioLeadIn: 1000
PreviewTime: 112772
Countdown: 0
SampleSet: None
StackLeniency: 0.7
Mode: 2
LetterboxInBreaks: 1
EpilepsyWarning: 1
WidescreenStoryboard: 0

[Editor]
Bookmarks: 248832
DistanceSpacing: 0.8
BeatDivisor: 4
GridSize: 16
TimelineZoom: 1.8

[Metadata]
Title:Endless Tears feat. Nakamura Maiko
TitleUnicode:Endless Tears feat. 中村舞子
Artist:CLIFF EDGE
ArtistUnicode:クリフエッジ
Creator:CLSW
Version:Salad
Source:
Tags:Kanari xXCrystalMoonAnimeXx THE BEST ~You’re the only one~ of Love Album
BeatmapID:490088
BeatmapSetID:197689

[Difficulty]
HPDrainRate:4
CircleSize:3
OverallDifficulty:7
ApproachRate:7
SliderMultiplier:3.2
SliderTickRate:4

[Events]
//Background and Video events
0,0,"52.jpg",0,0
//Break Periods
2,50547,53690
2,176608,193690
//Storyboard Layer 0 (Background)
//Storyboard Layer 1 (Fail)
//Storyboard Layer 2 (Pass)
//Storyboard Layer 3 (Foreground)
//Storyboard Sound Samples

[TimingPoints]
651,606.060606060606,4,2,1,50,1,0
651,-125,4,2,1,50,0,0
9173,-125,4,2,1,20,0,0
10347,-125,4,2,1,50,0,0
30347,-125,4,3,1,50,0,0
30954,606.060606060606,4,2,1,70,1,1
48529,-100,4,2,2,70,0,1
48681,-100,4,2,1,70,0,1
50347,-100,4,2,1,40,0,0
54590,-100,4,3,1,30,0,0
55196,-125,4,2,1,40,0,0
72772,-125,4,2,2,40,0,0
72923,-125,4,2,1,40,0,0
74590,-125,4,2,1,50,0,0
78984,-125,4,2,1,60,0,0
93416,-125,4,2,1,20,0,0
93984,-100,4,2,1,70,0,1
111560,-100,4,2,2,70,0,1
111711,-100,4,2,1,70,0,1
112166,-100,4,2,1,60,0,0
113378,-100,4,2,1,70,0,1
121863,-100,4,2,1,60,0,0
123075,-100,4,2,1,70,0,1
132772,-100,4,2,1,60,0,0
137014,-100,4,3,1,60,0,0
137620,-100,4,2,1,50,0,0
155802,-100,4,2,1,40,0,0
175499,-100,4,2,1,60,0,0
176408,-125,4,2,1,40,0,0
196408,-125,4,3,1,40,0,0
197014,606.060606060606,4,2,1,70,1,1
215195,-100,4,2,1,60,0,0
216407,-100,4,2,1,70,0,1
224892,-100,4,2,1,60,0,0
226104,-100,4,2,1,70,0,1
235801,-100,4,2,1,40,0,0
254741,-100,4,2,1,60,0,0
254892,-100,4,2,1,70,0,0
255195,-100,4,2,1,30,0,0
256407,-100,4,2,1,20,0,0
257620,-100,4,2,1,10,0,0
258832,-100,4,2,1,5,0,0

[Colours]
Combo1 : 255,164,249
Combo2 : 192,10,133
Combo3 : 218,54,218
Combo4 : 162,70,196

[HitObjects]
96,128,651,6,0,L|272:240,1,192,2|2,0:0|0:0,0:0:0:0:
384,208,1560,1,2,0:0:0:0:
448,80,1863,6,0,L|256:80,1,192,2|2,0:0|0:0,0:0:0:0:
80,176,2772,1,2,0:0:0:0:
160,128,3075,6,0,P|240:128|304:32,2,192,2|2|2,0:0|0:0|0:0,0:0:0:0:
352,128,4287,6,0,P|304:176|160:96,1,256,2|0,0:0|0:0,0:0:0:0:
448,80,5499,6,0,L|256:80,1,192,2|2,0:0|0:0,0:0:0:0:
64,80,6408,1,2,0:0:0:0:
96,128,6711,6,0,L|272:240,1,192,2|2,0:0|0:0,0:0:0:0:
416,128,7620,1,2,0:0:0:0:
448,64,7923,5,2,0:0:0:0:
256,144,8378,1,2,0:0:0:0:
64,80,8832,1,2,0:0:0:0:
256,192,9135,12,0,10044,0:0:0:0:
288,288,10347,6,0,P|304:192|272:80,1,192,2|2,0:0|0:0,0:0:0:0:
128,64,11257,1,2,0:0:0:0:
32,192,11560,6,0,P|64:256|192:304,1,192,2|2,0:0|0:0,0:0:0:0:
320,192,12469,1,2,0:0:0:0:
192,80,12772,6,0,P|85:81|32:160,2,192,2|2|0,0:0|0:0|0:0,0:0:0:0:
320,80,13984,6,0,P|426:81|480:160,2,192,0|0|0,0:0|0:0|0:0,0:0:0:0:
160,80,15196,6,0,P|160:176|208:256,1,192,2|2,0:0|0:0,0:0:0:0:
400,208,16105,1,2,0:0:0:0:
208,144,16408,6,0,P|112:144|64:224,1,192,2|2,0:0|0:0,0:0:0:0:
144,336,17317,1,0,0:0:0:0:
352,320,17620,6,0,P|448:320|480:240,2,192,2|2|0,0:0|0:0|0:0,0:0:0:0:
160,320,18832,6,0,P|64:320|32:240,2,192,0|0|0,0:0|0:0|0:0,0:0:0:0:
336,64,20044,6,0,L|144:64,2,192,2|2|2,0:0|0:0|0:0,0:0:0:0:
176,64,21257,6,0,L|368:64,2,192,2|2|0,0:0|0:0|0:0,0:0:0:0:
32,96,22469,6,0,P|32:176|128:256,1,192,2|2,0:0|0:0,0:0:0:0:
320,256,23378,1,2,0:0:0:0:
480,96,23681,6,0,P|464:176|320:256,1,256,2|2,0:0|0:0,0:0:0:0:
176,240,24590,1,0,0:0:0:0:
32,192,24893,6,0,P|112:144|256:208,1,256,2|2,0:0|0:0,0:0:0:0:
480,192,26105,6,0,P|400:144|256:208,1,256,2|2,0:0|0:0,0:0:0:0:
32,192,27317,6,0,L|240:192,1,192,2|2,0:0|0:0,0:0:0:0:
448,176,28226,1,2,0:0:0:0:
224,128,28529,1,2,0:0:0:0:
256,192,28832,12,0,30347,0:0:0:0:
48,176,30954,6,0,L|224:176,1,160,6|0,0:0|0:0,0:0:0:0:
304,176,31408,1,2,0:0:0:0:
384,176,31559,1,8,0:0:0:0:
464,176,31711,1,0,0:0:0:0:
384,96,31863,1,2,0:0:0:0:
224,64,32166,6,0,L|384:64,1,160,2|0,0:0|0:0,0:0:0:0:
320,128,32620,1,2,0:0:0:0:
240,128,32771,1,8,0:0:0:0:
160,128,32923,1,0,0:0:0:0:
64,128,33075,1,2,0:0:0:0:
288,192,33378,6,0,P|240:176|176:272,1,160,2|0,0:0|0:0,0:0:0:0:
240,240,33832,1,2,0:0:0:0:
304,176,33983,1,8,0:0:0:0:
352,128,34135,1,0,0:0:0:0:
288,96,34287,1,2,0:0:0:0:
128,96,34590,6,0,P|80:96|96:304,1,320,2|10,0:0|0:0,0:0:0:0:
208,320,35499,1,0,0:0:0:0:
416,320,35802,6,0,P|464:224|416:192,1,160,2|0,0:0|0:0,0:0:0:0:
384,160,36257,1,2,0:0:0:0:
320,128,36408,1,8,0:0:0:0:
240,112,36560,1,0,0:0:0:0:
176,112,36711,1,2,0:0:0:0:
48,96,37014,6,0,P|96:64|192:80,1,160,2|0,0:0|0:0,0:0:0:0:
288,80,37469,1,2,0:0:0:0:
366,95,37620,1,8,0:0:0:0:
440,124,37772,1,0,0:0:0:0:
496,192,37923,1,2,0:0:0:0:
256,192,38226,6,0,P|336:240|432:240,1,160,2|0,0:0|0:0,0:0:0:0:
336,288,38681,1,2,0:0:0:0:
256,272,38832,1,8,0:0:0:0:
208,192,38984,1,0,0:0:0:0:
256,128,39135,1,2,0:0:0:0:
64,128,39438,6,0,P|64:272|224:240,1,320,2|10,0:0|0:0,0:0:0:0:
432,256,40347,1,2,0:0:0:0:
192,240,40650,6,0,P|128:224|144:128,1,160,6|2,0:0|0:0,0:0:0:0:
192,112,41105,1,2,0:0:0:0:
256,96,41257,2,0,L|416:96,1,160,8|2,0:0|0:0,0:0:0:0:
464,272,41863,6,0,L|288:272,1,160,2|0,0:0|0:0,0:0:0:0:
208,224,42317,1,2,0:0:0:0:
128,224,42469,2,0,P|48:160|64:112,1,160,8|2,0:0|0:0,0:0:0:0:
336,128,43075,6,0,B|400:192|400:192|320:288,1,160,2|0,0:0|0:0,0:0:0:0:
272,272,43529,1,2,0:0:0:0:
192,240,43681,2,0,P|224:176|320:160,1,160,8|2,0:0|0:0,0:0:0:0:
192,272,44287,6,0,P|128:272|32:208,1,160,2|0,0:0|0:0,0:0:0:0:
80,112,44741,1,0,0:0:0:0:
128,64,44893,2,0,L|288:64,1,160,10|0,0:0|0:0,0:0:0:0:
448,64,45499,6,0,P|464:128|368:192,1,160,2|0,0:0|0:0,0:0:0:0:
320,192,45954,1,0,0:0:0:0:
240,208,46105,2,0,P|160:224|80:176,1,160,10|0,0:0|0:0,0:0:0:0:
48,80,46711,6,0,P|128:48|224:64,1,160,2|0,0:0|0:0,0:0:0:0:
416,64,47317,2,0,P|400:128|304:160,1,160,8|2,0:0|0:0,0:0:0:0:
192,160,47923,6,0,P|304:176|368:176,1,160,2|0,0:0|0:0,0:0:0:0:
432,160,48378,2,0,P|480:128|448:32,1,160,2|0,0:0|0:0,0:0:0:0:
368,32,48832,1,2,0:0:0:0:
256,192,49135,12,6,50347,0:0:0:0:
176,176,54590,6,0,L|368:176,1,160,0|0,0:0|0:0,0:0:0:0:
144,240,55196,6,0,P|112:192|208:112,2,192,2|2|0,0:0|0:0|0:0,0:0:0:0:
256,240,56408,5,2,0:0:0:0:
32,240,57014,1,8,0:0:0:0:
368,240,57620,6,0,P|400:192|304:112,2,192,2|2|0,0:0|0:0|0:0,0:0:0:0:
240,240,58832,5,2,0:0:0:0:
496,240,59438,1,8,0:0:0:0:
240,192,60044,6,0,P|160:192|48:128,1,192,2|2,0:0|0:0,0:0:0:0:
160,96,60954,1,2,0:0:0:0:
320,96,61257,5,2,0:0:0:0:
96,96,61863,1,8,0:0:0:0:
272,192,62469,6,0,P|352:192|400:32,1,256,2|10,0:0|0:0,0:0:0:0:
256,96,63379,1,2,0:0:0:0:
96,96,63682,5,2,0:0:0:0:
416,96,64288,1,8,0:0:0:0:
176,160,64893,6,0,L|368:160,1,192,2|2,0:0|0:0,0:0:0:0:
208,192,65802,1,0,0:0:0:0:
48,224,66105,6,0,P|160:224|240:96,1,256,2|8,0:0|0:0,0:0:0:0:
448,96,67317,6,0,L|256:96,1,192,2|2,0:0|0:0,0:0:0:0:
352,160,68226,1,0,0:0:0:0:
160,160,68529,6,0,P|48:160|112:80,1,256,2|8,0:0|0:0,0:0:0:0:
304,80,69741,6,0,P|384:80|480:144,1,192,2|2,0:0|0:0,0:0:0:0:
256,192,70650,1,2,0:0:0:0:
368,208,70954,5,2,0:0:0:0:
144,208,71560,1,8,0:0:0:0:
368,96,72166,6,0,P|288:96|192:160,2,192,2|2|2,0:0|0:0|0:0,0:0:0:0:
176,96,73378,6,0,P|80:112|160:208,1,256,2|8,0:0|0:0,0:0:0:0:
464,224,74590,6,0,L|432:96,1,128,2|0,0:0|0:0,0:0:0:0:
272,176,75196,2,0,L|240:48,1,128,10|0,0:0|0:0,0:0:0:0:
48,224,75802,6,0,L|80:96,1,128,2|2,0:0|0:0,0:0:0:0:
240,176,76408,2,0,L|272:48,1,128,10|2,0:0|0:0,0:0:0:0:
464,48,77014,6,0,L|336:48,3,128,2|2|10|0,0:0|0:0|0:0|0:0,0:0:0:0:
176,48,78226,6,0,L|48:48,1,128,2|0,0:0|0:0,0:0:0:0:
224,80,78832,2,0,L|368:80,1,128,8|2,0:0|0:0,0:0:0:0:
512,80,79438,6,0,L|512:128|496:208,1,128,2|2,0:0|0:0,0:0:0:0:
352,160,80044,2,0,L|352:208|368:288,1,128,10|2,0:0|0:0,0:0:0:0:
208,224,80650,6,0,L|208:272|192:352,1,128,2|2,0:0|0:0,0:0:0:0:
112,352,81105,1,2,0:0:0:0:
32,352,81257,2,0,L|32:304|48:224,1,128,10|2,0:0|0:0,0:0:0:0:
208,176,81863,6,0,L|288:288,1,128,2|2,0:0|0:0,0:0:0:0:
448,112,82469,2,0,L|368:112,1,64,10|0,0:0|0:0,0:0:0:0:
320,112,82772,1,2,0:0:0:0:
144,144,83075,6,0,P|112:192|160:256,1,128,2|2,0:0|0:0,0:0:0:0:
224,240,83529,1,2,0:0:0:0:
304,224,83681,2,0,P|336:272|288:336,1,128,10|2,0:0|0:0,0:0:0:0:
144,336,84287,6,0,L|32:272,1,128,2|0,0:0|0:0,0:0:0:0:
192,256,84893,2,0,L|160:128,1,128,10|0,0:0|0:0,0:0:0:0:
320,256,85499,6,0,L|352:128,1,128,2|0,0:0|0:0,0:0:0:0:
480,256,86105,2,0,L|432:112,1,128,10|2,0:0|0:0,0:0:0:0:
320,272,86711,6,0,L|176:272,1,128,2|2,0:0|0:0,0:0:0:0:
384,208,87317,2,0,L|240:208,1,128,10|2,0:0|0:0,0:0:0:0:
128,208,87923,6,0,L|272:208,1,128,2|0,0:0|0:0,0:0:0:0:
64,160,88529,2,0,L|208:160,1,128,10|2,0:0|0:0,0:0:0:0:
448,160,89135,5,2,0:0:0:0:
368,160,89438,1,2,0:0:0:0:
288,160,89741,1,10,0:0:0:0:
208,160,90044,1,2,0:0:0:0:
140,144,90196,1,2,0:0:0:0:
80,112,90347,5,2,0:0:0:0:
160,112,90650,1,2,0:0:0:0:
240,112,90954,1,10,0:0:0:0:
320,112,91257,1,2,0:0:0:0:
400,80,91560,6,0,P|448:128|432:208,1,128,2|2,0:0|0:0,0:0:0:0:
304,112,92166,2,0,P|256:64|176:80,1,128,10|2,0:0|0:0,0:0:0:0:
64,160,92772,6,0,L|192:160,1,128,2|0,0:0|0:0,0:0:0:0:
416,160,93378,2,0,L|272:160,1,128,12|0,0:0|0:0,0:0:0:0:
32,224,93984,6,0,L|208:224,1,160,6|0,0:0|0:0,0:0:0:0:
240,160,94438,1,2,0:0:0:0:
168,144,94589,1,8,0:0:0:0:
96,128,94741,1,0,0:0:0:0:
128,80,94893,1,2,0:0:0:0:
256,80,95196,6,0,L|432:80,1,160,2|0,0:0|0:0,0:0:0:0:
480,192,95650,1,2,0:0:0:0:
400,192,95801,1,8,0:0:0:0:
320,192,95953,1,0,0:0:0:0:
368,128,96105,1,2,0:0:0:0:
208,160,96408,6,0,P|192:112|288:48,1,160,2|0,0:0|0:0,0:0:0:0:
320,80,96862,1,2,0:0:0:0:
352,144,97013,1,8,0:0:0:0:
304,176,97165,1,0,0:0:0:0:
240,208,97317,1,2,0:0:0:0:
32,176,97620,6,0,P|32:224|256:336,1,320,2|10,0:0|0:0,0:0:0:0:
432,320,98832,6,0,P|448:224|384:208,1,160,2|0,0:0|0:0,0:0:0:0:
368,160,99287,1,2,0:0:0:0:
320,128,99438,1,8,0:0:0:0:
272,160,99590,1,0,0:0:0:0:
208,160,99741,1,2,0:0:0:0:
80,64,100044,6,0,P|48:112|64:208,1,160,2|0,0:0|0:0,0:0:0:0:
96,256,100499,1,2,0:0:0:0:
144,288,100650,1,8,0:0:0:0:
224,304,100802,1,0,0:0:0:0:
304,304,100953,1,2,0:0:0:0:
480,160,101256,6,0,P|400:208|304:208,1,160,2|0,0:0|0:0,0:0:0:0:
304,160,101711,1,2,0:0:0:0:
352,128,101862,1,8,0:0:0:0:
400,96,102014,1,0,0:0:0:0:
336,80,102165,1,2,0:0:0:0:
192,128,102468,6,0,P|48:128|80:288,1,320,2|10,0:0|0:0,0:0:0:0:
160,288,103377,1,2,0:0:0:0:
384,288,103680,6,0,P|454:263|449:189,1,160,6|2,0:0|0:0,0:0:0:0:
384,128,104135,1,2,0:0:0:0:
304,64,104287,2,0,P|372:113|380:184,1,160,8|2,0:0|0:0,0:0:0:0:
208,272,104893,6,0,L|48:272,1,160,2|2,0:0|0:0,0:0:0:0:
144,208,105347,1,0,0:0:0:0:
224,176,105499,2,0,P|192:80|144:112,1,160,8|2,0:0|0:0,0:0:0:0:
304,80,106105,6,0,L|480:80,1,160,2|0,0:0|0:0,0:0:0:0:
416,128,106560,1,2,0:0:0:0:
336,128,106711,2,0,P|320:176|416:192,1,160,8|2,0:0|0:0,0:0:0:0:
224,256,107317,6,0,P|160:256|32:240,1,160,2|0,0:0|0:0,0:0:0:0:
144,192,107771,1,0,0:0:0:0:
224,160,107923,2,0,L|384:160,1,160,10|0,0:0|0:0,0:0:0:0:
112,96,108529,6,0,P|48:128|112:192,1,160,2|0,0:0|0:0,0:0:0:0:
176,208,108984,1,0,0:0:0:0:
272,208,109135,2,0,P|352:224|432:176,1,160,10|0,0:0|0:0,0:0:0:0:
464,80,109741,6,0,P|384:48|288:64,1,160,2|0,0:0|0:0,0:0:0:0:
224,48,110196,1,0,0:0:0:0:
144,48,110347,2,0,P|80:64|48:160,1,160,8|2,0:0|0:0,0:0:0:0:
160,240,110953,6,0,P|272:256|336:256,1,160,2|0,0:0|0:0,0:0:0:0:
416,256,111408,2,0,P|464:224|432:128,1,160,2|0,0:0|0:0,0:0:0:0:
352,128,111862,1,2,0:0:0:0:
192,128,112166,6,0,P|112:128|64:192,1,160,6|0,0:0|0:0,0:0:0:0:
48,240,112620,1,0,0:0:0:0:
64,288,112772,2,0,P|110:346|190:346,1,160,12|0,0:0|0:0,0:0:0:0:
435,351,113378,6,0,L|467:175,1,160,6|2,0:0|0:0,0:0:0:0:
256,240,113984,2,0,L|288:64,1,160,10|2,0:0|0:0,0:0:0:0:
77,351,114590,6,0,L|45:175,1,160,2|2,0:0|0:0,0:0:0:0:
256,240,115196,2,0,L|224:64,1,160,10|2,0:0|0:0,0:0:0:0:
400,336,115802,6,0,P|416:288|336:240,1,160,2|2,0:0|0:0,0:0:0:0:
112,336,116408,2,0,P|96:288|176:240,1,160,10|2,0:0|0:0,0:0:0:0:
416,176,117014,6,0,L|240:176,1,160,2|2,0:0|0:0,0:0:0:0:
96,112,117620,2,0,L|272:112,1,160,10|2,0:0|0:0,0:0:0:0:
400,192,118226,6,0,P|363:156|264:214,1,160,2|2,0:0|0:0,0:0:0:0:
352,192,118832,2,0,P|316:156|217:214,1,160,10|2,0:0|0:0,0:0:0:0:
96,144,119438,6,0,L|256:144,1,160,2|2,0:0|0:0,0:0:0:0:
32,144,120044,2,0,L|192:144,1,160,10|2,0:0|0:0,0:0:0:0:
352,112,120650,5,2,0:0:0:0:
160,112,120953,1,2,0:0:0:0:
128,160,121257,1,10,0:0:0:0:
384,160,121560,1,2,0:0:0:0:
256,80,121711,6,0,P|208:192|432:208,1,400,2|14,0:0|0:0,0:0:0:0:
48,96,123075,6,0,P|32:160|48:256,1,160,6|2,0:0|0:0,0:0:0:0:
176,160,123681,2,0,P|192:224|176:320,1,160,10|2,0:0|0:0,0:0:0:0:
320,160,124287,6,0,P|304:224|320:320,1,160,2|2,0:0|0:0,0:0:0:0:
464,96,124893,2,0,P|480:160|464:256,1,160,10|2,0:0|0:0,0:0:0:0:
320,96,125499,6,0,L|176:208,1,160,2|2,0:0|0:0,0:0:0:0:
0,96,126105,2,0,L|144:208,1,160,10|2,0:0|0:0,0:0:0:0:
320,144,126711,6,0,P|320:96|176:176,1,320,2|10,0:0|0:0,0:0:0:0:
320,208,127620,1,2,0:0:0:0:
160,144,127923,6,0,L|272:288,1,160,2|2,0:0|0:0,0:0:0:0:
32,160,128529,2,0,L|144:304,1,160,10|2,0:0|0:0,0:0:0:0:
352,144,129135,6,0,L|240:288,1,160,2|2,0:0|0:0,0:0:0:0:
480,224,129741,2,0,L|368:368,1,160,10|2,0:0|0:0,0:0:0:0:
208,48,130347,6,0,L|320:192,1,160,2|2,0:0|0:0,0:0:0:0:
128,160,130953,2,0,L|16:304,1,160,10|2,0:0|0:0,0:0:0:0:
304,288,131560,5,2,0:0:0:0:
448,288,131863,1,2,0:0:0:0:
480,176,132166,1,10,0:0:0:0:
272,128,132469,1,2,0:0:0:0:
480,80,132772,5,6,0:0:0:0:
256,192,133075,12,0,137014,0:0:0:0:
288,80,137620,6,0,L|208:256,1,160,2|0,0:0|0:0,0:0:0:0:
400,176,138226,2,0,L|320:352,1,160,10|0,0:0|0:0,0:0:0:0:
160,80,138832,6,0,L|80:256,1,160,0|0,0:0|0:0,0:0:0:0:
272,176,139438,2,0,L|192:352,1,160,10|2,0:0|0:0,0:0:0:0:
384,320,140044,5,2,0:0:0:0:
512,320,140347,1,2,0:0:0:0:
480,192,140650,1,8,0:0:0:0:
352,192,140954,2,0,L|240:192,1,80,2|0,0:0|0:0,0:0:0:0:
192,192,141257,5,2,0:0:0:0:
336,128,141560,1,2,0:0:0:0:
176,128,141863,1,10,0:0:0:0:
320,64,142166,2,0,L|224:64,1,80,2|0,0:0|0:0,0:0:0:0:
160,64,142469,6,0,P|96:96|48:192,1,160,2|0,0:0|0:0,0:0:0:0:
256,160,143075,2,0,P|320:192|368:288,1,160,10|0,0:0|0:0,0:0:0:0:
460,169,143681,6,0,P|421:101|352:64,1,160,0|0,0:0|0:0,0:0:0:0:
147,265,144287,2,0,P|186:197|256:160,1,160,8|2,0:0|0:0,0:0:0:0:
48,160,144893,5,6,0:0:0:0:
256,256,145196,2,0,P|352:224|240:96,1,320
480,32,146105,5,6,0:0:0:0:
256,48,146408,2,0,B|320:16|320:128|432:96,2,160,2|10|0,0:0|0:0|0:0,0:0:0:0:
384,96,147317,6,0,P|400:160|384:272,1,160,2|2,0:0|0:0,0:0:0:0:
128,96,147923,2,0,P|112:160|128:272,1,160,10|0,0:0|0:0,0:0:0:0:
336,288,148529,6,0,L|144:288,1,160,2|2,0:0|0:0,0:0:0:0:
256,224,148984,1,0,0:0:0:0:
176,176,149135,2,0,L|336:176,1,160,10|2,0:0|0:0,0:0:0:0:
144,96,149741,5,2,0:0:0:0:
80,176,150044,1,2,0:0:0:0:
256,176,150347,1,10,0:0:0:0:
432,176,150650,1,2,0:0:0:0:
256,96,150954,6,0,L|208:32,1,80,2|0,0:0|0:0,0:0:0:0:
256,48,151257,2,0,L|304:112,1,80,2|0,0:0|0:0,0:0:0:0:
256,128,151560,1,10,0:0:0:0:
432,112,151863,1,0,0:0:0:0:
256,176,152166,6,0,L|64:176,1,160,2|0,0:0|0:0,0:0:0:0:
192,128,152620,1,0,0:0:0:0:
288,80,152772,2,0,L|128:80,1,160,10|2,0:0|0:0,0:0:0:0:
224,48,153226,1,2,0:0:0:0:
320,32,153378,6,0,L|144:32,1,160,2|2,0:0|0:0,0:0:0:0:
0,48,153984,2,0,L|160:48,1,160,10|0,0:0|0:0,0:0:0:0:
256,192,154590,12,4,156408,0:0:0:0:
256,160,157014,5,4,0:0:0:0:
128,160,157620,5,10,0:0:0:0:
384,160,158226,5,2,0:0:0:0:
96,208,158832,5,8,0:0:0:0:
416,208,159438,6,0,L|480:48,1,160,2|0,0:0|0:0,0:0:0:0:
336,48,160044,2,0,L|160:48,1,160,8|0,0:0|0:0,0:0:0:0:
36,59,160650,6,0,L|96:208,1,160,2|2,0:0|0:0,0:0:0:0:
176,208,161256,2,0,L|336:208,1,160,8|2,0:0|0:0,0:0:0:0:
480,64,161863,6,0,L|304:64,1,160,2|0,0:0|0:0,0:0:0:0:
256,64,162317,1,0,0:0:0:0:
192,64,162469,2,0,L|32:64,1,160,10|2,0:0|0:0,0:0:0:0:
16,128,163075,6,0,L|208:128,1,160,2|2,0:0|0:0,0:0:0:0:
256,128,163529,1,2,0:0:0:0:
336,128,163681,2,0,L|512:128,1,160,8|2,0:0|0:0,0:0:0:0:
336,192,164287,6,0,L|176:192,1,160,2|0,0:0|0:0,0:0:0:0:
256,240,164741,1,2,0:0:0:0:
176,272,164893,2,0,L|0:272,1,160,8|2,0:0|0:0,0:0:0:0:
96,320,165347,1,0,0:0:0:0:
16,256,165499,6,0,P|48:192|128:160,1,160,0|0,0:0|0:0,0:0:0:0:
320,176,166105,2,0,P|288:112|208:80,1,160,10|0,0:0|0:0,0:0:0:0:
400,80,166711,5,6,0:0:0:0:
112,80,167317,1,10,0:0:0:0:
256,112,167620,1,2,0:0:0:0:
168,128,167772,1,0,0:0:0:0:
80,144,167923,5,2,0:0:0:0:
432,144,168529,1,10,0:0:0:0:
256,112,168832,1,2,0:0:0:0:
344,128,168984,1,0,0:0:0:0:
432,192,169135,6,0,L|272:192,3,160,2|2|10|2,0:0|0:0|0:0|0:0,0:0:0:0:
80,192,170347,6,0,L|240:192,3,160,2|2|10|2,0:0|0:0|0:0|0:0,0:0:0:0:
32,128,171560,5,2,0:0:0:0:
256,128,172166,2,0,P|192:128|144:224,1,160,8|0,0:0|0:0,0:0:0:0:
224,208,172620,1,0,0:0:0:0:
304,208,172772,5,2,0:0:0:0:
32,240,173378,2,0,P|69:172|146:166,1,160,8|2,0:0|0:0,0:0:0:0:
224,160,173832,1,0,0:0:0:0:
304,160,173984,5,0,0:0:0:0:
256,192,174287,12,2,176408,0:0:0:0:
256,192,194590,12,0,196408,0:0:0:0:
336,320,197014,6,0,L|160:320,1,160,6|2,0:0|0:0,0:0:0:0:
96,304,197468,1,2,0:0:0:0:
48,256,197620,2,0,P|32:192|128:160,1,160,8|2,0:0|0:0,0:0:0:0:
272,144,198226,6,0,P|368:144|432:176,1,160,2|2,0:0|0:0,0:0:0:0:
464,208,198680,1,2,0:0:0:0:
448,288,198832,2,0,P|384:320|288:320,1,160,8|2,0:0|0:0,0:0:0:0:
128,320,199438,6,0,P|80:304|64:192,1,160,2|2,0:0|0:0,0:0:0:0:
112,128,199892,1,2,0:0:0:0:
192,96,200044,2,0,L|368:96,1,160,8|0,0:0|0:0,0:0:0:0:
160,160,200650,6,0,L|176:320,1,160,2|2,0:0|0:0,0:0:0:0:
352,160,201256,2,0,L|336:320,1,160,10|2,0:0|0:0,0:0:0:0:
160,96,201862,6,0,P|64:128|32:208,1,160,2|2,0:0|0:0,0:0:0:0:
48,240,202317,1,2,0:0:0:0:
96,288,202468,2,0,P|160:304|256:304,1,160,8|0,0:0|0:0,0:0:0:0:
416,304,203074,6,0,P|464:256|416:192,1,160,2|2,0:0|0:0,0:0:0:0:
336,176,203529,1,2,0:0:0:0:
240,176,203680,2,0,L|80:176,1,160,10|2,0:0|0:0,0:0:0:0:
48,128,204286,6,0,P|80:80|192:96,1,160,2|0,0:0|0:0,0:0:0:0:
256,80,204741,1,2,0:0:0:0:
336,80,204892,2,0,P|400:80|464:176,1,160,8|0,0:0|0:0,0:0:0:0:
336,176,205498,6,0,L|160:176,1,160,2|0,0:0|0:0,0:0:0:0:
80,240,206104,2,0,L|256:240,1,160,10|2,0:0|0:0,0:0:0:0:
480,160,206710,6,0,P|464:96|352:80,1,160,6|2,0:0|0:0,0:0:0:0:
304,64,207165,1,0,0:0:0:0:
224,64,207317,2,0,P|112:64|64:96,1,160,8|0,0:0|0:0,0:0:0:0:
32,192,207923,6,0,P|112:224|208:224,1,160,2|2,0:0|0:0,0:0:0:0:
272,224,208377,1,2,0:0:0:0:
352,224,208529,2,0,P|432:224|464:144,1,160,10|2,0:0|0:0,0:0:0:0:
448,64,209135,6,0,P|384:48|256:48,1,160,2|2,0:0|0:0,0:0:0:0:
208,48,209589,1,0,0:0:0:0:
128,64,209741,2,0,P|64:96|48:208,1,160,10|2,0:0|0:0,0:0:0:0:
144,208,210347,6,0,L|304:208,1,160,2|2,0:0|0:0,0:0:0:0:
224,160,210801,1,0,0:0:0:0:
144,112,210953,2,0,L|320:112,1,160,10|2,0:0|0:0,0:0:0:0:
480,112,211559,6,0,L|448:272,1,160,2|0,0:0|0:0,0:0:0:0:
400,320,212014,1,0,0:0:0:0:
288,320,212165,2,0,L|320:160,1,160,10|0,0:0|0:0,0:0:0:0:
272,112,212620,1,0,0:0:0:0:
176,96,212771,6,0,P|103:97|96:176,1,160,2|0,0:0|0:0,0:0:0:0:
336,96,213377,2,0,P|409:97|416:176,1,160,8|2,0:0|0:0,0:0:0:0:
160,208,213983,6,0,P|144:112|192:64,1,160,2|0,0:0|0:0,0:0:0:0:
256,64,214438,1,2,0:0:0:0:
331,69,214589,2,0,P|375:133|352:208,1,160,8|2,0:0|0:0,0:0:0:0:
160,208,215195,6,0,P|160:240|272:304,1,160,6|0,0:0|0:0,0:0:0:0:
432,208,215801,6,0,P|432:240|320:304,1,160,4|0,0:0|0:0,0:0:0:0:
96,336,216407,6,0,L|64:160,1,160,6|2,0:0|0:0,0:0:0:0:
256,240,217013,2,0,L|224:64,1,160,10|2,0:0|0:0,0:0:0:0:
416,336,217619,6,0,L|448:160,1,160,2|2,0:0|0:0,0:0:0:0:
256,240,218225,2,0,L|288:64,1,160,8|2,0:0|0:0,0:0:0:0:
96,336,218831,6,0,P|80:288|160:240,1,160,2|2,0:0|0:0,0:0:0:0:
416,336,219437,2,0,P|432:288|352:240,1,160,10|2,0:0|0:0,0:0:0:0:
96,176,220043,6,0,L|272:176,1,160,2|2,0:0|0:0,0:0:0:0:
480,96,220649,2,0,L|304:96,1,160,10|2,0:0|0:0,0:0:0:0:
160,176,221255,6,0,P|124:139|182:40,1,160,2|2,0:0|0:0,0:0:0:0:
352,176,221861,2,0,P|388:140|330:41,1,160,10|2,0:0|0:0,0:0:0:0:
144,48,222467,6,0,L|160:208,1,160,2|2,0:0|0:0,0:0:0:0:
368,48,223073,2,0,L|352:208,1,160,10|2,0:0|0:0,0:0:0:0:
160,96,223679,5,2,0:0:0:0:
352,96,223982,1,2,0:0:0:0:
384,144,224286,1,10,0:0:0:0:
128,144,224589,1,2,0:0:0:0:
256,64,224741,6,0,P|336:112|480:384,1,400,2|14,0:0|0:0,0:0:0:0:
256,256,225801,1,2,0:0:0:0:
32,48,226104,5,6,0:0:0:0:
240,48,226407,1,2,0:0:0:0:
48,96,226710,1,10,0:0:0:0:
256,96,227014,1,2,0:0:0:0:
480,48,227317,5,2,0:0:0:0:
272,48,227620,1,2,0:0:0:0:
464,96,227923,1,10,0:0:0:0:
256,96,228226,1,2,0:0:0:0:
96,240,228529,6,0,L|256:240,1,160,2|2,0:0|0:0,0:0:0:0:
416,240,229135,2,0,L|256:240,1,160,10|2,0:0|0:0,0:0:0:0:
496,128,229741,6,0,L|176:128,1,320,2|10,0:0|0:0,0:0:0:0:
336,176,230650,1,2,0:0:0:0:
176,176,230953,6,0,L|288:320,1,160,2|2,0:0|0:0,0:0:0:0:
144,208,231559,2,0,L|32:352,1,160,10|2,0:0|0:0,0:0:0:0:
224,144,232165,6,0,L|336:288,1,160,2|2,0:0|0:0,0:0:0:0:
464,208,232771,2,0,L|352:352,1,160,10|2,0:0|0:0,0:0:0:0:
208,48,233377,6,0,L|320:192,1,160,2|2,0:0|0:0,0:0:0:0:
144,160,233983,2,0,L|32:304,1,160,10|2,0:0|0:0,0:0:0:0:
256,304,234590,5,2,0:0:0:0:
448,288,234893,1,2,0:0:0:0:
416,176,235196,1,10,0:0:0:0:
224,176,235499,1,2,0:0:0:0:
480,176,235802,5,6,0:0:0:0:
256,192,236104,12,0,240347,0:0:0:0:
480,32,240650,6,0,L|448:192,1,160,2|2,0:0|0:0,0:0:0:0:
320,192,241256,2,0,L|352:352,1,160,10|2,0:0|0:0,0:0:0:0:
63,188,241862,6,0,L|32:32,1,160,2|2,0:0|0:0,0:0:0:0:
160,348,242468,2,0,L|192:192,1,160,10|2,0:0|0:0,0:0:0:0:
256,192,243074,12,2,245195,0:0:0:0:
448,32,245498,6,0,L|336:176,1,160,6|2,0:0|0:0,0:0:0:0:
160,128,246104,1,10,0:0:0:0:
352,128,246407,1,2,0:0:0:0:
64,96,246710,6,0,L|176:240,1,160,2|2,0:0|0:0,0:0:0:0:
352,224,247316,2,0,L|253:97,1,160,10|2,0:0|0:0,0:0:0:0:
448,32,247923,6,0,L|320:160,1,160,2|2,0:0|0:0,0:0:0:0:
144,192,248529,2,0,L|257:78,1,160,10|2,0:0|0:0,0:0:0:0:
64,32,249135,6,0,L|192:160,1,160,2|2,0:0|0:0,0:0:0:0:
448,144,249741,2,0,L|334:30,1,160,10|2,0:0|0:0,0:0:0:0:
64,48,250347,5,2,0:0:0:0:
256,96,250650,2,0,L|384:224,2,160,2|10|2,0:0|0:0|0:0,0:0:0:0:
64,112,251559,5,2,0:0:0:0:
256,96,251862,2,0,L|128:224,2,160,2|10|2,0:0|0:0|0:0,0:0:0:0:
480,96,252771,6,0,P|480:192|464:256,1,160,2|2,0:0|0:0,0:0:0:0:
336,176,253377,2,0,P|336:272|352:336,1,160,10|2,0:0|0:0,0:0:0:0:
128,336,253983,6,0,L|288:336,1,160,2|2,0:0|0:0,0:0:0:0:
512,336,254589,2,0,L|352:336,1,160,10|2,0:0|0:0,0:0:0:0:
256,192,255195,12,0,258832,0:0:0:0:
