osu file format v14

[General]
AudioFilename: Star!!.mp3
AudioLeadIn: 1500
PreviewTime: 62005
Countdown: 0
SampleSet: Soft
StackLeniency: 0.7
Mode: 0
LetterboxInBreaks: 0
WidescreenStoryboard: 0

[Editor]
DistanceSpacing: 0.9
BeatDivisor: 4
GridSize: 8
TimelineZoom: 1

[Metadata]
Title:Star!!
TitleUnicode:Star!!
Artist:CINDERELLA PROJECT
ArtistUnicode:CINDERELLA PROJECT
Creator:wcx19911123
Version:Insane
Source:アイドルマスター シンデレラガールズ
Tags:THE iDOLM@STER CINDERELLA GIRLS opening idolmaster im@s Momochikun
BeatmapID:608787
BeatmapSetID:255003

[Difficulty]
HPDrainRate:7
CircleSize:4
OverallDifficulty:8
ApproachRate:9
SliderMultiplier:1.92
SliderTickRate:1

[Events]
//Background and Video events
Video,-40,"Star!!.flv"
0,0,"BG.jpg",0,0
//Break Periods
//Storyboard Layer 0 (Background)
//Storyboard Layer 1 (Fail)
//Storyboard Layer 2 (Pass)
//Storyboard Layer 3 (Foreground)
//Storyboard Sound Samples

[TimingPoints]
-523,337.078651685393,4,2,1,60,1,0
151,-120.481927710843,4,2,1,60,0,0
11274,-120.481927710843,4,2,1,50,0,0
11611,-120.481927710843,4,2,1,70,0,0
13634,-120.481927710843,4,2,1,50,0,0
14139,-120.481927710843,4,2,1,70,0,0
14476,-120.481927710843,4,2,1,40,0,0
14645,-120.481927710843,4,2,1,50,0,0
14982,-120.481927710843,4,2,1,60,0,0
16330,-100,4,2,1,55,0,0
17005,-100,4,2,1,75,0,0
18353,-100,4,2,1,70,0,0
25937,-100,4,2,1,50,0,0
26106,-100,4,2,1,60,0,0
26274,-100,4,2,1,70,0,0
26611,-100,4,2,1,60,0,0
27033,-120.481927710843,4,2,1,60,0,0
27201,-120.481927710843,4,2,1,40,0,0
27370,-120.481927710843,4,2,1,60,0,0
27454,-120.481927710843,4,2,1,50,0,0
27791,-120.481927710843,4,2,1,65,0,0
37229,-120.481927710843,4,2,1,55,0,0
37735,-120.481927710843,4,2,1,65,0,0
48690,-120.481927710843,4,2,1,70,0,0
49364,-133.333333333333,4,2,1,60,0,0
49701,-133.333333333333,4,2,1,50,0,0
54589,-120.481927710843,4,2,1,60,0,0
57285,-120.481927710843,4,2,1,65,0,0
59476,-120.481927710843,4,2,1,70,0,0
61499,-120.481927710843,4,2,1,75,0,0
62173,-120.481927710843,4,2,1,70,0,0
62257,-120.481927710843,4,2,1,45,0,0
62510,-100,4,2,1,70,0,0
62594,-100,4,2,1,50,0,0
62847,-100,4,2,1,75,0,1
73550,-100,4,2,1,75,0,0
73634,-100,4,2,1,75,0,1
83746,-133.333333333333,4,2,0,80,0,1
84083,-100,4,2,1,60,0,1
84420,-100,4,2,1,50,0,0
84926,-100,4,2,1,55,0,0
85432,-100,4,2,1,60,0,0
86443,-100,4,2,1,55,0,0
86948,-100,4,2,1,75,0,0
87033,-100,4,2,1,50,0,0
88465,-100,4,2,1,35,0,0

[Colours]
Combo1 : 255,77,224
Combo2 : 104,209,255
Combo3 : 255,151,47

[HitObjects]
352,192,151,6,0,B|336:224|304:232|304:232|328:280|384:272,1,159.360002310059,0|2,0:0|0:0,0:0:0:0:
256,48,825,6,0,P|192:64|128:128,1,159.360002310059,2|0,0:0|0:0,0:0:0:0:
136,320,1499,1,2,0:0:0:0:
184,176,1668,1,0,0:0:0:0:
216,264,1836,2,0,P|256:288|312:288,1,79.6800011550293,0|0,0:0|0:0,0:0:0:0:
472,296,2173,6,0,B|424:264|376:296|376:296|376:328|352:352,1,159.360002310059,2|0,0:0|0:0,0:0:0:0:
296,152,2679,2,0,B|344:176|360:220|360:220|384:208|421:207,1,159.360002310059,2|0,0:0|0:0,0:0:0:0:
512,232,3184,1,2,0:0:0:0:
192,344,3521,6,0,P|112:328|56:272,1,159.360002310059,2|0,0:0|0:0,0:0:0:0:
24,32,4196,1,2,0:0:0:0:
216,72,4364,1,0,0:0:0:0:
120,88,4533,2,0,P|80:120|64:160,1,79.6800011550293
192,344,4870,6,0,P|200:256|152:176,1,159.360002310059,2|0,0:0|0:0,0:0:0:0:
376,48,5375,2,0,P|360:88|376:224,1,159.360002310059,2|0,0:0|0:0,0:0:0:0:
280,328,5881,2,0,P|312:296|352:288,1,79.6800011550293
440,296,6218,5,2,0:0:0:0:
296,224,6387,1,0,0:0:0:0:
352,376,6555,1,0,0:0:0:0:
192,344,6724,2,0,P|136:288|112:208,1,159.360002310059,2|0,0:0|0:0,0:0:0:0:
104,120,7229,1,0,0:0:0:0:
64,320,7398,6,0,P|120:304|192:232,1,159.360002310059,2|0,0:0|0:0,0:0:0:0:
224,144,7903,1,0,0:0:0:0:
400,136,8072,2,0,P|336:160|280:248,1,159.360002310059,2|0,0:0|0:0,0:0:0:0:
472,200,8578,2,0,P|496:152|496:120,1,79.6800011550293,2|0,0:0|0:0,0:0:0:0:
392,24,8915,6,0,B|312:24|328:80|248:80,1,159.360002310059,2|0,0:0|0:0,0:0:0:0:
104,120,9420,2,0,B|184:120|168:176|248:176,1,159.360002310059,2|0,0:0|0:0,0:0:0:0:
344,160,9926,1,0,0:0:0:0:
112,216,10094,6,0,P|112:288|176:264,1,159.360002310059,2|0,0:0|0:0,0:0:0:0:
248,80,10600,1,2,0:0:0:0:
248,80,10937,2,0,L|260:192,1,79.6800011550293,2|0,0:0|0:0,0:0:0:0:
264,236,11190,1,0,0:0:0:0:
264,236,11274,1,4,1:0:0:0:
472,368,11611,6,0,L|480:328,5,39.8400005775147,6|0|0|0|0|0,0:0|0:0|0:0|0:0|0:0|0:0,0:0:0:0:
424,280,12117,2,0,L|416:240,5,39.8400005775147,2|0|0|0|0|0,0:0|0:0|0:0|0:0|0:0|0:0,0:0:0:0:
456,168,12623,2,0,L|464:120,5,39.8400005775147,2|0|0|0|0|0,0:0|0:0|0:0|0:0|0:0|0:0,0:0:0:0:
400,64,13128,2,0,L|384:16,5,39.8400005775147,2|0|0|0|0|0,0:0|0:0|0:0|0:0|0:0|0:0,0:0:0:0:
360,152,13634,5,8,0:0:0:0:
208,96,13802,1,8,0:0:0:0:
304,216,13971,1,8,0:0:0:0:
264,48,14139,2,0,P|224:24|208:24,1,39.8400005775147,4|0,0:0|0:0,0:0:0:0:
144,32,14308,6,0,L|104:40,3,39.8400005775147,0|0|8|0,0:0|0:0|0:0|0:0,0:0:0:0:
176,144,14645,2,0,L|208:120,3,39.8400005775147,8|0|8|0,0:0|0:0|0:0|0:0,0:0:0:0:
112,232,14982,6,0,L|80:208,3,39.8400005775147,8|0|8|0,0:0|0:0|0:0|0:0,0:0:0:0:
192,320,15319,2,0,L|232:304,3,39.8400005775147,8|0|8|0,0:0|0:0|0:0|0:0,0:0:0:0:
320,352,15656,5,8,0:0:0:0:
328,312,15741,1,8,0:0:0:0:
336,272,15825,1,8,0:0:0:0:
432,208,15993,1,8,0:0:0:0:
424,168,16078,1,8,0:0:0:0:
416,128,16162,1,8,0:0:0:0:
308,81,16330,5,8,0:0:0:0:
305,124,16415,1,8,0:0:0:0:
290,164,16499,1,8,0:0:0:0:
259,194,16583,1,8,0:0:0:0:
221,216,16668,1,8,0:0:0:0:
179,226,16752,1,8,0:0:0:0:
136,218,16836,1,8,0:0:0:0:
99,194,16920,1,8,0:0:0:0:
79,155,17005,6,0,P|72:88|80:56,1,96,4|0,0:0|0:0,0:0:0:0:
312,16,17342,2,0,P|319:83|311:115,1,96,8|0,0:0|0:0,0:0:0:0:
244,222,17679,1,8,0:1:0:0:
152,288,17847,1,8,0:1:0:0:
32,88,18016,1,8,0:0:0:0:
144,112,18184,1,0,0:0:0:0:
244,222,18353,6,0,P|312:232|392:200,1,144,4|0,0:0|0:0,0:0:0:0:
428,152,18690,1,8,0:0:0:0:
240,48,18859,2,0,P|208:104|208:160,1,96,4|0,0:0|0:0,0:0:0:0:
256,304,19196,1,8,0:1:0:0:
256,304,19280,1,0,0:0:0:0:
256,304,19364,2,0,L|160:296,1,96,8|0,0:0|0:0,0:0:0:0:
408,280,19701,6,0,B|344:274|344:274|308:220|308:220|224:212,1,192,4|8,0:0|0:0,0:0:0:0:
48,192,20207,1,0,0:0:0:0:
212,152,20375,1,8,0:1:0:0:
116,112,20544,1,8,0:1:0:0:
192,256,20712,1,8,0:0:0:0:
234,279,20797,1,2,0:0:0:0:
281,281,20881,1,0,0:0:0:0:
328,276,20965,1,2,0:0:0:0:
369,251,21050,6,0,P|400:200|400:152,1,96,4|0,0:0|0:0,0:0:0:0:
360,56,21387,1,8,0:0:0:0:
464,264,21555,2,0,P|408:328|352:352,1,144,4|0,0:0|0:0,0:0:0:0:
284,360,21892,1,8,0:1:0:0:
192,256,22061,1,8,0:0:0:0:
80,344,22229,1,0,0:0:0:0:
280,272,22398,6,0,P|304:224|304:152,1,96,4|0,0:0|0:0,0:0:0:0:
272,72,22735,1,8,0:0:0:0:
48,16,22903,2,0,P|32:72|48:160,1,144,4|0,0:0|0:0,0:0:0:0:
96,208,23241,1,8,0:1:0:0:
224,248,23409,1,8,0:0:0:0:
64,296,23578,1,0,0:0:0:0:
216,168,23746,6,0,P|272:168|312:184,1,96,4|0,0:0|0:0,0:0:0:0:
400,248,24083,1,8,0:0:0:0:
472,72,24252,2,0,P|416:32|280:32,1,192,4|8,0:0|0:1,0:0:0:0:
48,144,24757,1,8,0:0:0:0:
96,152,24842,1,2,0:0:0:0:
144,160,24926,1,0,0:0:0:0:
192,168,25010,1,2,0:0:0:0:
240,176,25094,6,0,L|336:192,1,96,4|0,0:0|0:0,0:0:0:0:
408,344,25432,2,0,P|360:360|312:360,1,96,8|0,0:0|0:0,0:0:0:0:
128,280,25769,1,8,0:1:0:0:
240,256,25937,1,8,0:0:0:0:
240,256,26021,1,8,0:0:0:0:
240,256,26106,1,8,0:0:0:0:
280,56,26274,1,4,0:0:0:0:
360,232,26611,5,8,1:0:0:0:
272,80,26780,2,0,P|224:56|136:56,1,144,8|0,1:0|0:0,0:0:0:0:
72,96,27117,2,0,L|56:144,3,39.8400005775147,4|8|8|0,0:0|0:0|0:0|0:0,0:0:0:0:
120,176,27454,2,0,L|128:224,3,39.8400005775147,8|8|8|8,0:0|0:0|0:0|0:0,0:0:0:0:
88,280,27791,6,0,P|96:320|120:352,1,79.6800011550293,4|0,0:0|0:0,0:0:0:0:
240,224,28128,2,0,L|248:144,1,79.6800011550293,8|0,0:1|0:0,0:0:0:0:
400,48,28465,1,8,0:1:0:0:
344,128,28634,1,0,0:0:0:0:
480,224,28802,1,8,0:1:0:0:
440,136,28971,1,0,0:0:0:0:
296,48,29139,6,0,P|256:40|144:80,1,159.360002310059,10|8,0:1|0:1,0:0:0:0:
24,176,29645,2,0,L|112:168,1,79.6800011550293,0|8,0:0|0:1,0:0:0:0:
192,208,29982,1,0,0:0:0:0:
176,320,30151,2,0,P|120:344|72:328,1,79.6800011550293,8|0,0:1|0:0,0:0:0:0:
104,168,30488,6,0,P|128:112|208:56,1,159.360002310059,10|8,0:1|0:1,0:0:0:0:
376,48,30993,2,0,L|304:80,1,79.6800011550293,0|8,0:0|0:1,0:0:0:0:
280,176,31330,1,0,0:0:0:0:
352,264,31499,2,0,P|400:256|432:224,1,79.6800011550293,8|0,0:1|0:0,0:0:0:0:
304,80,31836,6,0,P|256:64|152:88,1,159.360002310059,10|8,0:1|0:1,0:0:0:0:
96,168,32342,1,0,0:0:0:0:
280,176,32510,2,0,P|336:200|392:288,1,159.360002310059,10|8,0:1|0:1,0:0:0:0:
400,376,33016,1,0,0:0:0:0:
280,368,33184,6,0,P|232:328|224:296,1,79.6800011550293,10|0,0:1|0:0,0:0:0:0:
192,112,33521,2,0,P|192:160|160:200,1,79.6800011550293,8|0,0:1|0:0,0:0:0:0:
96,240,33859,1,8,0:1:0:0:
224,272,34027,1,0,0:0:0:0:
120,136,34196,2,0,P|72:136|40:152,1,79.6800011550293,8|0,0:1|0:0,0:0:0:0:
48,336,34533,6,0,P|120:336|200:296,1,159.360002310059,10|8,0:1|0:1,0:0:0:0:
256,184,35038,2,0,L|264:96,1,79.6800011550293,0|8,0:0|0:1,0:0:0:0:
336,40,35375,1,0,0:0:0:0:
424,104,35544,2,0,P|432:184|416:216,1,79.6800011550293,8|0,0:1|0:0,0:0:0:0:
408,360,35881,6,0,P|392:280|328:224,1,159.360002310059,10|8,0:1|0:1,0:0:0:0:
248,192,36387,1,0,0:0:0:0:
160,256,36555,2,0,L|72:240,1,79.6800011550293,8|0,0:1|0:0,0:0:0:0:
8,176,36892,1,8,0:1:0:0:
8,176,37061,1,0,0:0:0:0:
56,336,37229,1,8,0:3:0:0:
72,344,37735,6,0,P|112:360|128:360,1,39.8400005775147,2|0,0:0|0:0,0:0:0:0:
176,328,37903,2,0,P|208:312|240:312,3,39.8400005775147,2|0|0|0,0:0|0:0|0:0|0:0,0:0:0:0:
280,344,38241,2,0,P|320:344|336:336,3,39.8400005775147,8|0|2|0,0:0|0:0|0:0|0:0,0:0:0:0:
384,312,38578,6,0,P|408:280|416:224,1,79.6800011550293,4|0,0:0|0:0,0:0:0:0:
384,112,38915,1,8,0:0:0:0:
304,64,39083,1,0,0:0:0:0:
152,32,39252,1,8,0:1:0:0:
216,104,39420,1,8,0:1:0:0:
136,232,39589,2,0,P|128:192|144:152,1,79.6800011550293,8|0,0:0|0:0,0:0:0:0:
304,200,39926,6,0,L|216:208,1,79.6800011550293,2|0,0:0|0:0,0:0:0:0:
200,304,40263,1,8,0:0:0:0:
280,360,40432,2,0,L|368:352,2,79.6800011550293,0|8|8,0:0|0:1|0:1,0:0:0:0:
128,368,40937,1,8,0:0:0:0:
128,368,41106,1,0,0:0:0:0:
32,272,41274,6,0,P|16:216|24:176,1,79.6800011550293,2|0,0:0|0:0,0:0:0:0:
48,104,41611,1,8,0:0:0:0:
176,64,41780,2,0,L|192:144,1,79.6800011550293,0|8,0:0|0:1,0:0:0:0:
212,236,42117,1,8,0:1:0:0:
328,296,42285,2,0,P|384:288|424:256,1,79.6800011550293,8|0,0:0|0:0,0:0:0:0:
464,200,42623,5,2,0:0:0:0:
384,120,42791,2,0,P|376:80|392:32,2,79.6800011550293,0|8|0,0:0|0:0|0:0,0:0:0:0:
464,200,43297,1,8,0:1:0:0:
304,104,43465,1,8,0:1:0:0:
240,280,43634,1,8,0:0:0:0:
232,296,43971,6,0,P|192:328|160:336,1,79.6800011550293,4|0,0:0|0:0,0:0:0:0:
72,304,44308,1,8,0:0:0:0:
40,216,44476,1,0,0:0:0:0:
216,184,44645,1,8,0:1:0:0:
136,232,44814,1,8,0:1:0:0:
56,112,44982,2,0,P|72:72|112:40,1,79.6800011550293,8|0,0:0|0:0,0:0:0:0:
288,8,45319,6,0,P|368:16|440:72,1,159.360002310059,4|8,0:0|0:0,0:0:0:0:
360,236,45825,2,0,P|280:228|208:172,1,159.360002310059,4|8,0:0|0:1,0:0:0:0:
184,96,46330,1,8,0:0:0:0:
128,216,46499,5,2,0:0:0:0:
128,216,46583,1,0,0:0:0:0:
128,216,46668,2,0,P|120:264|128:312,1,79.6800011550293,4|0,0:0|0:0,0:0:0:0:
240,368,47005,2,0,P|280:368|320:352,1,79.6800011550293,8|0,0:0|0:0,0:0:0:0:
432,232,47342,1,8,0:1:0:0:
344,264,47510,1,8,0:1:0:0:
424,360,47679,1,8,0:0:0:0:
368,192,47847,6,0,P|312:152|224:144,1,159.360002310059,4|8,0:0|0:1,0:0:0:0:
136,184,48353,1,8,0:0:0:0:
136,184,48437,1,0,0:0:0:0:
136,184,48521,1,0,0:0:0:0:
184,56,48690,2,0,P|232:32|352:40,1,159.360002310059,8|4,0:1|0:3,0:0:0:0:
456,224,49364,6,0,P|424:264|336:288,1,144.000005493164,4|0,0:0|0:0,0:0:0:0:
256,256,49870,1,8,0:1:0:0:
180,216,50038,2,0,P|140:224|112:252,1,72.0000027465821,8|0,0:1|0:0,0:0:0:0:
120,332,50375,2,0,P|160:324|188:296,1,72.0000027465821,8|0,0:0|0:0,0:0:0:0:
184,140,50712,6,0,P|120:148|48:212,1,144.000005493164,10|0,0:1|0:0,0:0:0:0:
32,280,51218,1,8,0:1:0:0:
144,232,51387,2,0,P|184:224|288:272,1,144.000005493164,8|8,0:1|0:0,0:0:0:0:
352,376,51892,1,0,0:0:0:0:
352,376,51976,1,2,0:0:0:0:
352,376,52061,6,0,P|352:320|392:240,1,144.000005493164,10|0,0:1|0:0,0:0:0:0:
464,200,52566,1,8,0:1:0:0:
432,120,52735,2,0,P|400:88|352:80,1,72.0000027465821,8|0,0:1|0:0,0:0:0:0:
304,168,53072,2,0,P|264:184|224:176,1,72.0000027465821,8|0,0:0|0:0,0:0:0:0:
112,64,53409,5,2,0:0:0:0:
160,136,53578,1,0,0:0:0:0:
160,224,53746,1,0,0:0:0:0:
112,296,53915,1,10,0:1:0:0:
248,360,54083,1,8,0:1:0:0:
200,288,54252,2,0,P|192:240|200:216,1,72.0000027465821,8|8,0:0|0:0,0:0:0:0:
320,64,54589,6,0,P|344:112|320:224,1,159.360002310059,4|0,0:0|0:0,0:0:0:0:
128,176,55094,2,0,P|128:136|152:88,1,79.6800011550293,8|0,0:0|0:0,0:0:0:0:
224,48,55432,1,8,0:1:0:0:
264,136,55600,1,8,0:1:0:0:
320,64,55769,1,8,0:0:0:0:
168,128,55937,6,0,P|120:120|88:96,2,79.6800011550293,2|0|0,0:0|0:0|0:0,0:0:0:0:
256,232,56443,2,0,P|304:224|344:192,1,79.6800011550293,8|0,0:0|0:0,0:0:0:0:
176,328,56780,2,0,P|128:344|80:336,1,79.6800011550293,8|0,0:1|0:0,0:0:0:0:
16,296,57117,1,8,0:0:0:0:
80,144,57285,6,0,P|136:104|240:104,1,159.360002310059,4|0,0:0|0:0,0:0:0:0:
400,176,57791,1,10,0:0:0:0:
312,216,57960,1,0,0:0:0:0:
320,120,58128,1,8,0:1:0:0:
392,272,58297,1,10,0:1:0:0:
304,312,58465,1,8,0:0:0:0:
312,216,58634,1,0,0:0:0:0:
480,232,58802,5,10,0:1:0:0:
392,272,58971,1,0,0:0:0:0:
400,176,59139,2,0,P|448:136|496:136,1,79.6800011550293,8|0,0:0|0:0,0:0:0:0:
368,368,59476,2,0,P|328:352|304:312,1,79.6800011550293,10|8,0:1|0:1,0:0:0:0:
280,176,59814,1,8,0:0:0:0:
216,328,59982,6,0,P|136:360|56:344,1,159.360002310059,4|8,0:0|0:1,0:0:0:0:
16,288,60403,1,0,0:0:0:0:
16,288,60488,2,0,L|8:208,1,79.6800011550293,8|8,0:0|0:1,0:0:0:0:
144,40,60825,2,0,L|152:120,1,79.6800011550293,8|8,0:0|0:1,0:0:0:0:
172,280,61162,1,8,0:0:0:0:
212,192,61330,1,8,0:1:0:0:
304,328,61499,5,8,0:0:0:0:
128,200,61668,1,8,0:0:0:0:
256,24,61836,1,8,0:0:0:0:
392,96,62173,5,8,0:3:0:0:
392,96,62257,1,8,0:0:0:0:
392,96,62342,2,0,L|384:152,1,39.8400005775147,8|8,0:0|0:0,0:0:0:0:
304,176,62510,1,4,0:3:0:0:
304,176,62594,1,8,0:0:0:0:
304,176,62679,2,0,L|312:232,1,48,8|8,0:0|0:0,0:0:0:0:
296,312,62847,6,0,P|240:352|200:352,1,96,4|0,0:0|0:0,0:0:0:0:
8,304,63184,1,8,0:0:0:0:
112,352,63353,1,0,0:0:0:0:
256,224,63521,1,10,0:1:0:0:
144,232,63690,1,8,0:1:0:0:
16,128,63859,2,0,P|0:80|16:32,1,96,8|0,0:0|0:0,0:0:0:0:
296,40,64196,6,0,L|200:56,1,96,4|0,0:0|0:0,0:0:0:0:
88,80,64533,1,8,0:0:0:0:
144,232,64701,2,0,P|192:264|248:264,1,96,4|0,0:0|0:0,0:0:0:0:
344,248,65038,1,8,0:1:0:0:
256,80,65207,2,0,P|224:120|224:184,1,96,8|0,0:0|0:0,0:0:0:0:
384,336,65544,6,0,B|448:308|440:232|440:232|476:240|480:276,1,192,4|8,0:0|0:0,0:0:0:0:
344,248,66050,1,0,0:0:0:0:
176,328,66218,1,10,0:1:0:0:
232,224,66387,1,8,0:1:0:0:
320,152,66555,2,0,P|392:128|464:136,1,144,8|0,0:0|0:0,0:0:0:0:
320,152,66892,6,0,P|284:120|232:108,1,96,4|0,0:0|0:0,0:0:0:0:
128,136,67229,1,8,0:0:0:0:
40,352,67398,2,0,B|64:216|64:216|32:160,1,192,4|8,0:0|0:1,0:0:0:0:
96,24,67903,1,8,0:0:0:0:
128,136,68072,5,0,0:0:0:0:
128,136,68156,1,0,0:0:0:0:
128,136,68241,2,0,P|160:184|208:208,1,96,4|0,0:0|0:0,0:0:0:0:
304,216,68578,1,8,0:0:0:0:
476,32,68746,2,0,P|412:32|348:80,1,144,2|0,0:0|0:0,0:0:0:0:
320,144,69083,1,10,0:1:0:0:
288,252,69252,1,8,0:0:0:0:
436,128,69420,1,2,0:0:0:0:
240,64,69589,5,0,0:0:0:0:
144,128,69757,1,2,0:0:0:0:
144,128,69842,1,0,0:0:0:0:
144,128,69926,1,8,0:0:0:0:
304,192,70094,2,0,B|352:236|336:304|336:304|364:332|400:324,1,192,4|8,0:0|0:1,0:0:0:0:
488,280,70600,1,8,0:0:0:0:
232,276,70769,6,0,P|176:280|128:312,1,96,0|4,0:0|0:0,0:0:0:0:
48,368,71106,1,2,0:0:0:0:
192,360,71274,1,8,0:0:0:0:
104,224,71443,1,2,0:0:0:0:
312,256,71611,1,8,0:1:0:0:
208,88,71780,1,10,0:1:0:0:
48,176,71948,1,8,0:0:0:0:
184,320,72117,6,0,P|240:344|384:320,1,192,4|0,0:0|0:0,0:0:0:0:
424,280,72538,1,0,0:0:0:0:
424,280,72623,2,0,L|440:184,1,96,8|0,0:0|0:0,0:0:0:0:
336,48,72960,2,0,P|280:88|288:168,1,144,4|0,0:3|0:0,0:0:0:0:
292,232,73297,2,0,P|348:192|340:112,1,144,4|0,0:3|0:0,0:0:0:0:
224,40,73634,6,0,P|176:24|120:40,1,96,4|0,0:0|0:0,0:0:0:0:
8,192,73971,1,8,0:0:0:0:
120,168,74139,1,0,0:0:0:0:
216,320,74308,1,10,0:1:0:0:
104,296,74476,1,8,0:1:0:0:
240,136,74645,2,0,P|296:112|336:120,1,96,8|0,0:0|0:0,0:0:0:0:
360,376,74982,6,0,P|312:344|304:288,1,96,4|0,0:0|0:0,0:0:0:0:
296,192,75319,1,8,0:0:0:0:
472,272,75488,2,0,L|376:304,1,96,4|0,0:0|0:0,0:0:0:0:
216,352,75825,1,8,0:1:0:0:
336,224,75993,2,0,P|336:160|304:120,1,96,8|0,0:0|0:0,0:0:0:0:
88,112,76330,6,0,P|160:184|248:192,1,192,4|8,0:0|0:0,0:0:0:0:
376,136,76836,1,0,0:0:0:0:
472,272,77005,1,10,0:1:0:0:
312,240,77173,1,8,0:1:0:0:
472,128,77342,1,8,0:0:0:0:
368,320,77510,6,0,P|312:336|272:328,1,96,10|4,0:1|0:0,0:0:0:0:
144,256,77847,1,0,0:0:0:0:
56,328,78016,1,8,0:0:0:0:
232,320,78184,2,0,B|304:280|280:192|280:192|216:184,1,192,4|8,0:0|0:1,0:0:0:0:
56,176,78690,1,8,0:0:0:0:
136,64,78859,5,0,0:0:0:0:
136,64,78943,1,0,0:0:0:0:
136,64,79027,2,0,P|192:40|240:48,1,96,4|0,0:0|0:0,0:0:0:0:
344,96,79364,1,8,0:0:0:0:
512,160,79533,2,0,B|456:184|400:160|400:160|368:188|328:180,1,192,4|10,0:0|0:1,0:0:0:0:
224,136,80038,1,8,0:0:0:0:
56,240,80207,6,0,P|104:248|160:232,2,96,4|0|2,0:0|0:0|0:0,0:0:0:0:
100,132,80712,1,8,0:0:0:0:
224,224,80881,2,0,B|232:288|168:312|168:312|192:344|240:336,1,192,4|8,0:0|0:1,0:0:0:0:
131,148,81387,2,0,P|131:204|155:244,1,96,8|0,0:0|0:0,0:0:0:0:
320,304,81724,6,0,P|384:296|416:272,1,96,4|0,0:0|0:0,0:0:0:0:
456,80,82061,2,0,L|352:88,1,96,8|0,0:0|0:0,0:0:0:0:
248,96,82398,1,8,0:1:0:0:
320,8,82566,1,10,0:1:0:0:
304,184,82735,1,8,0:0:0:0:
168,48,82903,6,0,B|140:104|176:152|176:152|192:192|160:232,1,192,4|8,0:0|0:0,0:0:0:0:
64,288,83409,1,8,0:0:0:0:
176,128,83746,6,0,P|192:184|144:256,1,144.000005493164,2|8,0:0|0:0,0:0:0:0:
32,112,84420,6,0,L|48:56,1,48,8|0,0:0|0:0,0:0:0:0:
104,120,84589,2,0,L|120:64,1,48,8|0,0:0|0:0,0:0:0:0:
176,128,84757,2,0,L|192:72,1,48,8|0,0:0|0:0,0:0:0:0:
256,56,84926,6,0,L|272:120,1,48,8|0,0:0|0:0,0:0:0:0:
328,48,85094,2,0,L|344:112,1,48,8|0,0:0|0:0,0:0:0:0:
400,40,85263,2,0,L|416:104,1,48,8|0,0:0|0:0,0:0:0:0:
480,152,85432,6,0,L|424:160,1,48,8|0,0:0|0:0,0:0:0:0:
472,232,85600,2,0,L|416:240,1,48,8|0,0:0|0:0,0:0:0:0:
464,312,85769,2,0,L|408:320,1,48,8|0,0:0|0:0,0:0:0:0:
344,336,85937,6,0,L|288:320,1,48,8|0,0:0|0:0,0:0:0:0:
352,256,86106,2,0,L|296:240,1,48,8|0,0:0|0:0,0:0:0:0:
360,176,86274,2,0,L|304:160,1,48,8|0,0:0|0:0,0:0:0:0:
240,136,86443,6,0,L|184:152,1,48,8|8,0:0|0:0,0:0:0:0:
80,192,86611,2,0,L|128:200,1,48,8|8,0:0|0:0,0:0:0:0:
248,216,86780,2,0,L|192:232,1,48,8|8,0:0|0:0,0:0:0:0:
88,272,86948,1,4,0:0:0:0:
256,192,87033,12,0,88465,0:0:0:0:
