osu file format v14

[General]
AudioFilename: Star!!.mp3
AudioLeadIn: 1500
PreviewTime: 62005
Countdown: 0
SampleSet: Soft
StackLeniency: 0.7
Mode: 0
LetterboxInBreaks: 0
WidescreenStoryboard: 0

[Editor]
DistanceSpacing: 1
BeatDivisor: 4
GridSize: 8
TimelineZoom: 1

[Metadata]
Title:Star!!
TitleUnicode:Star!!
Artist:CINDERELLA PROJECT
ArtistUnicode:CINDERELLA PROJECT
Creator:wcx19911123
Version:Easy
Source:アイドルマスター シンデレラガールズ
Tags:THE iDOLM@STER CINDERELLA GIRLS opening idolmaster im@s Momochikun
BeatmapID:608785
BeatmapSetID:255003

[Difficulty]
HPDrainRate:2
CircleSize:3
OverallDifficulty:2
ApproachRate:3
SliderMultiplier:0.8
SliderTickRate:1

[Events]
//Background and Video events
Video,-40,"Star!!.flv"
0,0,"BG.jpg",0,0
//Break Periods
//Storyboard Layer 0 (Background)
//Storyboard Layer 1 (Fail)
//Storyboard Layer 2 (Pass)
//Storyboard Layer 3 (Foreground)
//Storyboard Sound Samples

[TimingPoints]
-523,337.078651685393,4,2,1,60,1,0
11274,-100,4,2,1,50,0,0
11611,-100,4,2,1,70,0,0
13634,-100,4,2,1,45,0,0
14139,-100,4,2,1,70,0,0
14645,-100,4,2,1,50,0,0
14982,-100,4,2,1,60,0,0
16330,-100,4,2,1,55,0,0
17005,-100,4,2,1,75,0,0
17342,-100,4,1,1,75,0,0
17510,-100,4,2,1,75,0,0
17679,-100,4,3,1,75,0,0
18016,-100,4,2,1,75,0,0
18353,-100,4,2,1,70,0,0
18690,-100,4,1,1,70,0,0
18859,-100,4,2,1,70,0,0
20038,-100,4,1,1,70,0,0
20375,-100,4,2,1,70,0,0
21387,-100,4,1,1,70,0,0
21555,-100,4,2,1,70,0,0
21724,-100,4,3,1,70,0,0
22061,-100,4,2,1,70,0,0
22735,-100,4,1,1,70,0,0
22903,-100,4,2,1,70,0,0
24083,-100,4,1,1,70,0,0
24252,-100,4,2,1,70,0,0
26106,-100,4,1,1,60,0,0
26274,-100,4,2,1,70,0,0
26611,-100,4,2,1,60,0,0
27454,-100,4,2,1,50,0,0
27791,-100,4,2,1,65,0,0
28465,-100,4,3,1,65,0,0
28802,-100,4,2,1,65,0,0
29476,-100,4,3,1,65,0,0
29645,-100,4,2,1,65,0,0
29814,-100,4,3,1,65,0,0
30151,-100,4,2,1,65,0,0
30825,-100,4,3,1,65,0,0
30993,-100,4,2,1,65,0,0
32847,-100,4,3,1,65,0,0
33184,-100,4,2,1,65,0,0
34870,-100,4,3,1,65,0,0
35038,-100,4,2,1,65,0,0
35207,-100,4,3,1,65,0,0
35544,-100,4,2,1,65,0,0
37229,-100,4,2,1,55,0,0
37735,-100,4,2,1,65,0,0
40263,-100,4,1,1,65,0,0
40432,-100,4,2,1,65,0,0
40600,-100,4,3,1,65,0,0
40937,-100,4,2,1,65,0,0
41611,-100,4,1,1,65,0,0
41780,-100,4,2,1,65,0,0
44308,-100,4,1,1,65,0,0
44476,-100,4,2,1,65,0,0
44645,-100,4,3,1,65,0,0
44982,-100,4,2,1,65,0,0
45656,-100,4,1,1,65,0,0
45825,-100,4,2,1,65,0,0
47679,-100,4,1,1,65,0,0
47847,-100,4,2,1,65,0,0
48690,-100,4,2,1,70,0,0
49364,-100,4,2,1,60,0,0
49701,-100,4,2,1,50,0,0
54589,-100,4,2,1,60,0,0
54926,-100,4,3,1,60,0,0
55094,-100,4,2,1,60,0,0
55769,-100,4,1,1,60,0,0
55937,-100,4,2,1,60,0,0
57117,-100,4,1,1,60,0,0
57285,-100,4,2,1,65,0,0
58128,-100,4,3,1,65,0,0
58297,-100,4,2,1,65,0,0
58465,-100,4,1,1,65,0,0
58802,-100,4,2,1,65,0,0
59476,-100,4,2,1,70,0,0
59814,-100,4,1,1,70,0,0
59982,-100,4,2,1,70,0,0
61162,-100,4,1,1,60,0,0
61499,-100,4,2,1,75,0,0
62173,-100,4,2,1,70,0,0
62510,-100,4,1,1,65,0,0
62847,-100,4,2,1,75,0,1
64533,-100,4,1,1,75,0,1
64701,-100,4,2,1,75,0,1
65881,-100,4,1,1,75,0,1
66218,-100,4,2,1,75,0,1
67229,-100,4,1,1,75,0,1
67398,-100,4,2,1,75,0,1
68578,-100,4,1,1,75,0,1
68746,-100,4,2,1,75,0,1
71948,-100,4,1,1,75,0,1
72117,-100,4,2,1,75,0,1
73550,-100,4,2,1,75,0,0
73634,-100,4,2,1,75,0,1
73971,-100,4,1,1,75,0,1
74308,-100,4,2,1,75,0,1
75319,-100,4,1,1,75,0,1
75488,-100,4,2,1,75,0,1
77342,-100,4,1,1,75,0,1
77510,-100,4,2,1,75,0,1
78521,-100,4,3,1,75,0,1
78690,-100,4,2,1,75,0,1
79364,-100,4,1,1,75,0,1
79533,-100,4,2,1,75,0,1
82061,-100,4,1,1,75,0,1
82398,-100,4,2,1,75,0,1
83241,-100,4,1,1,75,0,1
83409,-100,4,2,1,75,0,1
83746,-100,4,2,0,80,0,1
84083,-100,4,2,1,60,0,1
84420,-100,4,2,1,50,0,0
84926,-100,4,2,1,55,0,0
85432,-100,4,2,1,60,0,0
86443,-100,4,2,1,55,0,0
86948,-100,4,2,1,75,0,0

[Colours]
Combo1 : 255,77,224
Combo2 : 104,209,255
Combo3 : 255,151,47

[HitObjects]
184,256,151,6,0,P|200:304|224:328,1,80,0|2,0:0|0:0,0:0:0:0:
296,344,825,6,0,P|360:336|432:264,1,160,2|2,0:0|0:0,0:0:0:0:
432,192,1836,1,0,0:0:0:0:
428,112,2173,2,0,P|384:64|328:48,2,120,2|2|2,0:0|0:0|0:0,0:0:0:0:
432,192,3521,6,0,P|376:240|272:240,1,160,2|2,0:0|0:0,0:0:0:0:
224,208,4533,1,0,0:0:0:0:
152,176,4870,2,0,P|88:184|48:224,2,120,2|2|0,0:0|0:0|0:0,0:0:0:0:
168,256,6218,6,0,P|208:304|272:320,1,120,2|2,0:0|0:0,0:0:0:0:
372,204,7398,2,0,P|328:144|240:120,1,160,2|2,0:0|0:0,0:0:0:0:
128,128,8578,1,2,0:0:0:0:
172,60,8915,6,0,P|224:36|324:48,1,160,2|0,0:0|0:0,0:0:0:0:
416,128,10094,2,0,L|408:264,1,120,2|2,0:0|0:0,0:0:0:0:
400,328,10937,2,0,L|312:320,1,80,2|4,0:0|1:0,0:0:0:0:
256,272,11611,6,0,P|184:264|120:288,1,120,6|2,0:0|0:0,0:0:0:0:
24,320,12623,2,0,P|56:280|64:208,1,120,2|2,0:0|0:0,0:0:0:0:
56,96,13634,2,0,P|104:144|160:160,1,120,8|4,0:0|0:0,0:0:0:0:
272,168,14645,6,0,L|352:168,2,80,8|8|8,0:0|0:0|0:0,0:0:0:0:
208,216,15656,1,8,0:0:0:0:
152,272,15993,2,0,L|72:272,2,80,8|8|8,0:0|0:0|0:0,0:0:0:0:
200,336,17005,6,0,P|264:368|344:360,2,120,4|0|8,0:0|0:0|0:0,0:0:0:0:
152,272,18353,2,0,P|152:208|184:152,1,120,4|4,0:0|0:0,0:0:0:0:
272,80,19364,1,8,0:0:0:0:
352,88,19701,6,0,P|416:128|448:232,1,160,4|8,0:0|0:1,0:0:0:0:
448,284,20712,1,8,0:0:0:0:
392,344,21050,2,0,P|308:352|272:312,2,120,4|4|8,0:0|0:0|0:0,0:0:0:0:
344,280,22398,6,0,P|288:240|216:240,1,120,4|4,0:0|0:0,0:0:0:0:
120,244,23409,1,8,0:0:0:0:
168,180,23746,2,0,P|216:156|292:160,1,120,4|4,0:0|0:0,0:0:0:0:
400,176,24757,1,8,0:0:0:0:
368,104,25094,6,0,P|312:80|272:80,1,80,4|8,0:0|0:0,0:0:0:0:
212,80,25769,2,0,P|140:112|100:160,1,120,8|4,0:1|0:0,0:0:0:0:
80,216,26611,2,0,L|72:272,1,40,8|8,1:0|1:0,0:0:0:0:
112,328,27117,2,0,P|144:352|216:344,2,80,4|8|4,0:0|0:0|0:0,0:0:0:0:
172,276,28128,6,0,P|176:216|248:136,1,160,8|8,0:1|0:1,0:0:0:0:
312,112,29139,2,0,P|368:104|424:56,2,120,10|0|8,0:1|0:0|0:1,0:0:0:0:
248,64,30488,6,0,P|192:40|128:48,1,120,10|0,0:1|0:0,0:0:0:0:
80,104,31330,2,0,P|88:176|120:216,1,120,0|10,0:0|0:1,0:0:0:0:
192,240,32173,1,8,0:1:0:0:
272,240,32510,2,0,P|336:208|376:120,1,160,10|10,0:1|0:1,0:0:0:0:
364,52,33521,5,8,0:1:0:0:
300,100,33859,2,0,P|248:120|208:112,1,80,8|8,0:1|0:1,0:0:0:0:
152,80,34533,2,0,P|84:92|52:148,2,120,10|0|8,0:1|0:0|0:1,0:0:0:0:
208,136,35881,6,0,P|208:180|184:216,2,80,10|8|8,0:1|0:1|0:1,0:0:0:0:
132,156,36892,1,8,0:1:0:0:
112,232,37229,2,0,P|128:296|176:336,2,120,8|2|8,0:3|0:0|0:0,0:0:0:0:
112,152,38578,6,0,P|136:104|176:80,1,80,4|8,0:0|0:0,0:0:0:0:
232,64,39252,2,0,P|272:64|320:88,1,80,8|8,0:1|0:0,0:0:0:0:
368,136,39926,2,0,P|416:152|488:136,2,120,2|0|8,0:0|0:0|0:0,0:0:0:0:
288,152,41274,6,0,P|256:200|256:264,1,120,2|0,0:0|0:0,0:0:0:0:
320,360,42285,1,8,0:0:0:0:
240,360,42623,2,0,P|192:344|160:304,1,80,2|8,0:0|0:0,0:0:0:0:
128,256,43297,2,0,P|120:200|128:168,1,80,8|8,0:1|0:0,0:0:0:0:
192,136,43971,6,0,P|144:100|76:112,2,120,4|0|8,0:0|0:0|0:0,0:0:0:0:
232,208,45319,2,0,P|272:240|344:240,1,120,4|4,0:0|0:0,0:0:0:0:
432,168,46330,1,8,0:0:0:0:
432,88,46668,6,0,P|408:56|368:32,1,80,4|8,0:0|0:0,0:0:0:0:
296,24,47342,2,0,P|240:24|184:56,2,120,8|4|8,0:1|0:0|0:0,0:0:0:0:
352,80,48690,2,0,P|352:120|336:160,1,80,8|4,0:1|0:3,0:0:0:0:
276,208,49364,6,0,P|212:224|116:200,1,160,4|8,0:0|0:1,0:0:0:0:
56,160,50375,1,8,0:0:0:0:
52,240,50712,2,0,P|76:304|164:360,1,160,10|8,0:1|0:1,0:0:0:0:
228,364,51724,1,8,0:0:0:0:
304,336,52061,6,0,P|336:280|336:184,1,160,10|8,0:1|0:1,0:0:0:0:
288,120,53072,1,8,0:0:0:0:
224,168,53409,2,0,P|184:176|96:144,1,120,2|10,0:0|0:1,0:0:0:0:
64,88,54252,1,8,0:0:0:0:
128,40,54589,6,0,P|168:32|256:64,1,120,4|8,0:0|0:0,0:0:0:0:
288,120,55432,2,0,P|336:152|400:152,1,120,8|2,0:1|0:0,0:0:0:0:
496,80,56443,1,8,0:0:0:0:
480,160,56780,2,0,L|456:280,1,120,8|4,0:1|0:0,0:0:0:0:
360,352,57791,6,0,P|296:360|240:328,2,120,10|10|10,0:0|0:1|0:1,0:0:0:0:
408,288,59139,1,8,0:0:0:0:
400,208,59476,2,0,P|360:176|280:168,1,120,10|4,0:1|0:0,0:0:0:0:
176,200,60488,5,8,0:0:0:0:
96,208,60825,2,0,P|32:160|24:56,1,160,8|8,0:0|0:0,0:0:0:0:
56,16,61836,1,8,0:0:0:0:
96,84,62173,2,0,P|136:104|264:84,1,160,8|4,0:3|0:0,0:0:0:0:
304,40,63184,5,8,0:0:0:0:
324,116,63521,2,0,P|356:148|388:164,1,80,10|8,0:1|0:0,0:0:0:0:
456,120,64196,2,0,P|464:192|432:232,1,120,4|4,0:0|0:0,0:0:0:0:
320,248,65207,1,8,0:0:0:0:
256,200,65544,6,0,P|200:184|104:216,1,160,4|10,0:0|0:1,0:0:0:0:
56,280,66555,1,8,0:0:0:0:
104,344,66892,2,0,P|152:360|232:344,1,120,4|4,0:0|0:0,0:0:0:0:
312,272,67903,1,8,0:0:0:0:
272,200,68241,6,0,P|272:152|320:80,1,120,4|2,0:0|0:0,0:0:0:0:
384,64,69083,1,10,0:1:0:0:
448,112,69420,2,0,P|464:168|440:280,1,160,2|4,0:0|0:0,0:0:0:0:
352,344,70600,1,8,0:0:0:0:
304,280,70937,6,0,P|256:248|216:248,1,80,4|8,0:0|0:0,0:0:0:0:
160,272,71611,2,0,P|96:264|56:224,1,120,8|4,0:1|0:0,0:0:0:0:
32,112,72623,1,8,0:0:0:0:
88,56,72960,2,0,P|120:48|168:48,1,80,4|4,0:3|0:3,0:0:0:0:
240,80,73634,6,0,P|296:104|392:88,1,160,4|10,0:0|0:1,0:0:0:0:
456,40,74645,1,8,0:0:0:0:
464,120,74982,2,0,P|464:160|416:240,1,120,4|4,0:0|0:0,0:0:0:0:
320,288,75993,1,8,0:0:0:0:
272,224,76330,6,0,P|224:200|184:200,1,80,4|8,0:0|0:0,0:0:0:0:
120,216,77005,2,0,P|88:256|88:328,1,120,10|10,0:1|0:1,0:0:0:0:
144,376,77847,1,0,0:0:0:0:
224,368,78184,2,0,P|256:328|256:256,1,120,4|8,0:0|0:0,0:0:0:0:
216,192,79027,6,0,P|176:136|176:80,1,120,4|4,0:0|0:0,0:0:0:0:
224,24,79870,1,10,0:1:0:0:
304,24,80207,2,0,P|352:64|376:168,1,160,4|4,0:0|0:0,0:0:0:0:
344,272,81387,1,8,0:0:0:0:
280,224,81724,6,0,P|208:216|128:256,1,160,4|8,0:0|0:1,0:0:0:0:
72,352,82903,2,0,P|128:368|192:352,1,120,4|8,0:0|0:0,0:0:0:0:
232,288,83746,2,0,L|240:192,1,80,2|8,0:0|0:0,0:0:0:0:
248,128,84420,6,0,P|288:80|352:64,1,120,8|8,0:0|0:0,0:0:0:0:
452,116,85432,2,0,P|473:174|455:238,1,120,8|8,0:0|0:0,0:0:0:0:
360,296,86443,2,0,P|299:286|253:238,1,120,8|4,0:0|0:0,0:0:0:0:
