osu file format v14

[General]
AudioFilename: IMCN.mp3
AudioLeadIn: 0
PreviewTime: 62160
Countdown: 0
SampleSet: Normal
StackLeniency: 0.7
Mode: 1
LetterboxInBreaks: 0
WidescreenStoryboard: 0

[Editor]
DistanceSpacing: 1.9
BeatDivisor: 2
GridSize: 32
TimelineZoom: 1

[Metadata]
Title:Star!!
TitleUnicode:Star!!
Artist:CINDERELLA PROJECT
ArtistUnicode:CINDERELLA PROJECT
Creator:climbb65588
Version:Futsuu
Source:アイドルマスター シンデレラガールズ
Tags:The Idolmaster Cinderella Girls IM@S IDOLM@STER TV Size Hidekazu Tanaka MONACA
BeatmapID:745202
BeatmapSetID:336453

[Difficulty]
HPDrainRate:4
CircleSize:5
OverallDifficulty:4
ApproachRate:5
SliderMultiplier:1.4
SliderTickRate:1

[Events]
//Background and Video events
0,0,"BG.jpg",0,15
Video,-506,"imas.flv"
//Break Periods
//Storyboard Layer 0 (Background)
//Storyboard Layer 1 (Fail)
//Storyboard Layer 2 (Pass)
//Storyboard Layer 3 (Foreground)
//Storyboard Sound Samples

[TimingPoints]
980,337.078651685393,4,1,0,90,1,0
63002,-100,4,1,0,90,0,1
84575,-100,4,1,0,90,0,0

[HitObjects]
320,224,306,5,8,0:0:0:0:
360,244,980,1,0,0:0:0:0:
320,252,1654,1,8,0:0:0:0:
220,200,1991,1,8,0:0:0:0:
220,200,2328,1,0,0:0:0:0:
208,164,2834,1,0,0:0:0:0:
208,164,3339,1,8,0:0:0:0:
208,164,3676,1,0,0:0:0:0:
232,144,4351,1,8,0:0:0:0:
232,144,4688,1,8,0:0:0:0:
136,76,5025,1,0,0:0:0:0:
224,152,5530,1,8,0:0:0:0:
76,180,6373,1,0,0:0:0:0:
172,152,6879,1,0,0:0:0:0:
212,136,7384,1,8,0:0:0:0:
204,132,7721,1,0,0:0:0:0:
204,128,8227,1,0,0:0:0:0:
248,168,8733,1,8,0:0:0:0:
248,168,9070,1,0,0:0:0:0:
152,128,9744,1,8,0:0:0:0:
248,228,10249,1,0,0:0:0:0:
52,24,10587,1,0,0:0:0:0:
156,136,10755,1,0,0:0:0:0:
252,132,11429,1,8,0:0:0:0:
0,224,11766,2,0,L|160:160,5,140
244,276,13789,1,0,0:0:0:0:
156,148,14126,1,8,0:0:0:0:
188,120,14294,1,0,0:0:0:0:
124,128,14800,1,0,0:0:0:0:
224,208,15137,1,0,0:0:0:0:
224,208,15474,1,0,0:0:0:0:
228,132,15811,1,0,0:0:0:0:
180,16,16148,1,12,0:0:0:0:
184,124,16485,1,0,0:0:0:0:
184,124,16654,1,8,0:0:0:0:
196,136,16823,1,0,0:0:0:0:
188,136,17160,1,4,0:0:0:0:
224,68,17834,1,0,0:0:0:0:
212,72,18171,1,8,0:0:0:0:
100,152,18508,1,4,0:0:0:0:
232,124,19014,1,12,0:0:0:0:
128,152,19519,1,8,0:0:0:0:
228,96,19856,1,4,0:0:0:0:
276,132,20530,1,0,0:0:0:0:
212,116,20867,1,8,0:0:0:0:
224,92,21205,1,4,0:0:0:0:
316,172,21710,1,12,0:0:0:0:
160,144,22216,1,8,0:0:0:0:
288,112,22553,1,4,0:0:0:0:
288,112,23058,1,12,0:0:0:0:
184,176,23564,1,8,0:0:0:0:
188,172,23901,1,4,0:0:0:0:
264,120,24407,1,12,0:0:0:0:
144,208,24912,1,0,0:0:0:0:
180,148,25249,1,12,0:0:0:0:
180,148,25587,1,8,0:0:0:0:
180,148,25924,1,0,0:0:0:0:
180,148,26429,1,4,0:0:0:0:
128,148,26766,1,12,0:0:0:0:
128,148,26935,1,12,0:0:0:0:
316,32,27272,1,4,0:0:0:0:
148,208,27609,1,8,0:0:0:0:
232,140,27946,1,0,0:0:0:0:
208,136,28620,1,0,0:0:0:0:
208,136,29294,1,0,0:0:0:0:
316,204,29800,1,8,0:0:0:0:
148,148,30306,1,0,0:0:0:0:
384,88,30643,1,0,0:0:0:0:
236,132,31148,1,8,0:0:0:0:
236,164,31654,1,8,0:0:0:0:
252,144,31991,1,8,0:0:0:0:
252,144,32328,1,0,0:0:0:0:
252,144,32665,1,8,0:0:0:0:
296,144,33002,1,0,0:0:0:0:
296,144,33339,1,12,0:0:0:0:
284,140,34014,1,8,0:0:0:0:
152,124,34351,1,8,0:0:0:0:
276,144,34688,1,0,0:0:0:0:
144,88,35193,1,8,0:0:0:0:
0,164,35699,1,0,0:0:0:0:
260,80,36036,1,8,0:0:0:0:
4,164,36373,1,0,0:0:0:0:
248,64,36710,1,8,0:0:0:0:
140,232,37047,1,0,0:0:0:0:
188,152,37384,1,0,0:0:0:0:
92,120,37890,1,0,0:0:0:0:
88,120,38227,1,8,0:0:0:0:
220,136,38396,1,8,0:0:0:0:
104,172,38733,1,0,0:0:0:0:
316,8,39070,1,8,0:0:0:0:
160,212,39407,1,0,0:0:0:0:
124,200,39744,1,8,0:0:0:0:
204,268,40081,1,0,0:0:0:0:
172,136,40587,1,8,0:0:0:0:
276,68,41092,1,0,0:0:0:0:
60,200,41429,1,0,0:0:0:0:
308,152,41766,1,8,0:0:0:0:
184,200,42103,1,0,0:0:0:0:
188,200,42440,1,8,0:0:0:0:
280,144,42778,1,0,0:0:0:0:
40,48,43452,1,0,0:0:0:0:
160,160,43789,1,8,0:0:0:0:
208,120,44126,1,4,0:0:0:0:
248,120,44800,1,0,0:0:0:0:
244,120,45137,1,8,0:0:0:0:
208,144,45474,1,4,0:0:0:0:
208,144,45979,1,12,0:0:0:0:
56,144,46485,1,8,0:0:0:0:
316,196,46823,1,4,0:0:0:0:
88,124,47160,1,8,0:0:0:0:
200,364,47497,1,0,0:0:0:0:
148,252,48002,1,12,0:0:0:0:
260,176,48508,1,0,0:0:0:0:
260,176,48845,1,8,0:0:0:0:
168,176,49182,1,0,0:0:0:0:
168,176,49519,1,12,0:0:0:0:
136,216,50193,1,0,0:0:0:0:
104,156,50530,1,8,0:0:0:0:
112,204,50867,1,0,0:0:0:0:
392,212,51542,1,0,0:0:0:0:
132,128,51879,1,8,0:0:0:0:
404,120,52216,1,0,0:0:0:0:
180,160,52890,1,0,0:0:0:0:
100,168,53227,1,8,0:0:0:0:
140,136,53564,1,0,0:0:0:0:
140,136,54070,1,8,0:0:0:0:
128,116,54744,1,4,0:0:0:0:
256,204,55081,1,8,0:0:0:0:
128,136,55249,1,8,0:0:0:0:
60,252,55587,1,0,0:0:0:0:
4,64,56092,1,4,0:0:0:0:
256,204,56429,1,8,0:0:0:0:
128,136,56597,1,8,0:0:0:0:
60,252,56935,1,0,0:0:0:0:
152,116,57440,1,12,0:0:0:0:
152,116,57946,1,0,0:0:0:0:
108,172,58283,1,8,0:0:0:0:
108,172,58620,1,0,0:0:0:0:
108,172,58957,1,8,0:0:0:0:
384,320,59294,1,0,0:0:0:0:
292,132,59631,1,8,0:0:0:0:
24,112,60137,1,4,0:0:0:0:
152,156,60643,1,8,0:0:0:0:
144,152,60980,1,0,0:0:0:0:
68,124,61317,1,8,0:0:0:0:
164,112,61654,1,4,0:0:0:0:
164,112,61823,1,4,0:0:0:0:
168,164,61991,1,4,0:0:0:0:
92,228,62328,1,4,0:0:0:0:
68,160,63002,1,12,0:0:0:0:
92,164,63676,1,8,0:0:0:0:
92,164,64014,1,0,0:0:0:0:
36,152,64351,1,12,0:0:0:0:
176,140,64856,1,4,0:0:0:0:
128,268,65362,1,8,0:0:0:0:
200,56,65699,1,4,0:0:0:0:
232,332,66036,1,8,0:0:0:0:
220,92,66373,1,0,0:0:0:0:
220,100,66710,1,8,0:0:0:0:
176,152,67047,1,4,0:0:0:0:
80,148,67553,1,12,0:0:0:0:
288,140,68058,1,8,0:0:0:0:
20,148,68396,1,4,0:0:0:0:
144,72,68901,1,12,0:0:0:0:
108,88,69407,1,0,0:0:0:0:
108,88,69744,1,4,0:0:0:0:
120,104,70249,1,12,0:0:0:0:
216,232,70755,1,8,0:0:0:0:
216,232,71092,1,4,0:0:0:0:
120,136,71429,1,8,0:0:0:0:
120,136,71766,1,0,0:0:0:0:
120,72,72272,1,12,0:0:0:0:
88,168,72778,1,0,0:0:0:0:
344,40,73115,1,4,0:0:0:0:
68,160,73789,1,12,0:0:0:0:
92,164,74463,1,8,0:0:0:0:
92,164,74801,1,0,0:0:0:0:
36,152,75138,1,12,0:0:0:0:
176,140,75643,1,4,0:0:0:0:
128,268,76149,1,8,0:0:0:0:
200,56,76486,1,4,0:0:0:0:
232,332,76823,1,8,0:0:0:0:
220,92,77160,1,0,0:0:0:0:
220,100,77497,1,8,0:0:0:0:
176,152,77834,1,4,0:0:0:0:
80,148,78340,1,12,0:0:0:0:
120,40,78845,1,0,0:0:0:0:
248,40,79182,1,12,0:0:0:0:
280,72,79688,1,4,0:0:0:0:
152,104,80193,1,8,0:0:0:0:
56,200,80530,1,4,0:0:0:0:
152,72,81036,1,12,0:0:0:0:
88,200,81542,1,4,0:0:0:0:
152,72,81879,1,12,0:0:0:0:
120,40,82553,1,0,0:0:0:0:
152,40,82890,1,8,0:0:0:0:
216,136,83058,1,4,0:0:0:0:
184,104,83396,1,4,0:0:0:0:
184,104,83564,1,4,0:0:0:0:
184,168,84238,1,12,0:0:0:0:
164,160,84575,1,4,0:0:0:0:
164,160,84912,1,8,0:0:0:0:
160,92,85081,1,0,0:0:0:0:
164,160,85417,1,8,0:0:0:0:
160,92,85586,1,0,0:0:0:0:
164,160,85923,1,8,0:0:0:0:
160,92,86092,1,0,0:0:0:0:
320,352,86429,1,0,0:0:0:0:
152,136,86598,1,8,0:0:0:0:
88,168,86935,1,0,0:0:0:0:
120,72,87103,1,12,0:0:0:0:
