osu file format v14

[General]
AudioFilename: Shine!!(you Remix).mp3
AudioLeadIn: 0
PreviewTime: 105274
Countdown: 0
SampleSet: Soft
StackLeniency: 0.7
Mode: 3
LetterboxInBreaks: 0
SpecialStyle: 0
WidescreenStoryboard: 0

[Editor]
DistanceSpacing: 1.3
BeatDivisor: 4
GridSize: 32
TimelineZoom: 2.1

[Metadata]
Title:Shine!!(you Remix)
TitleUnicode:Shine!!(you Remix)
Artist:CINDERELLA PROJECT
ArtistUnicode:CINDERELLA PROJECT
Creator:Frim4503
Version:Sparkle!!
Source:アイドルマスター シンデレラガールズ
Tags:idolmaster idolm@ster im@s bootleg marathon 2nd opening theme song starlight stage
BeatmapID:977863
BeatmapSetID:456289

[Difficulty]
HPDrainRate:9
CircleSize:5
OverallDifficulty:9
ApproachRate:5
SliderMultiplier:1.6
SliderTickRate:1

[Events]
//Background and Video events
0,0,"BeGe.jpg",0,0
//Break Periods
//Storyboard Layer 0 (Background)
//Storyboard Layer 1 (Fail)
//Storyboard Layer 2 (Pass)
//Storyboard Layer 3 (Foreground)
//Storyboard Sound Samples

[TimingPoints]
446,342.857142857143,4,2,1,50,1,0
22046,-33.3333333333333,4,2,1,50,0,0
22088,-117.647058823529,4,2,1,50,0,0
22388,-100,4,2,3,50,0,0
33360,-100,4,2,1,50,0,0
42960,-344.827586206897,4,2,1,50,0,0
43646,-204.081632653061,4,2,1,50,0,0
43731,-1000,4,2,1,50,0,0
43817,-204.081632653061,4,2,1,50,0,0
43903,-1000,4,2,1,50,0,0
43988,-204.081632653061,4,2,1,50,0,0
44074,-1000,4,2,1,50,0,0
44160,-204.081632653061,4,2,1,50,0,0
44246,-999.99999999999,4,2,1,50,0,0
44331,-125,4,2,1,50,0,0
55303,-1000,4,2,1,50,0,0
55474,-400,4,2,1,50,0,0
55646,-200,4,2,1,50,0,0
55817,-133.333333333333,4,2,1,50,0,0
55988,-71.4285714285714,4,2,1,50,0,0
56160,-166.666666666667,4,2,1,50,0,0
56331,-66.6666666666667,4,2,3,50,0,0
56417,-200,4,2,1,50,0,0
56674,-100,4,2,1,50,0,0
59417,-166.666666666667,4,2,1,50,0,0
59588,-71.4285714285714,4,2,1,50,0,0
59760,-166.666666666667,4,2,1,50,0,0
59846,-71.4285714285714,4,2,1,50,0,0
59931,-166.666666666667,4,2,1,50,0,0
60103,-71.4285714285714,4,2,1,50,0,0
60274,-166.666666666667,4,2,1,50,0,0
60446,-71.4285714285714,4,2,1,50,0,0
60617,-100,4,2,1,50,0,0
66103,-83.3333333333333,4,2,1,50,0,0
66274,-125,4,2,1,50,0,0
66446,-62.5,4,2,1,50,0,0
66531,-250,4,2,1,50,0,0
66617,-62.5,4,2,1,50,0,0
66703,-250,4,2,1,50,0,0
66788,-62.5,4,2,1,50,0,0
66874,-250,4,2,1,50,0,0
66960,-100,4,2,1,50,0,0
67646,-133.333333333333,4,2,1,50,0,0
75874,-100,4,2,1,50,0,0
86846,-142.857142857143,4,2,1,50,0,0
87017,-76.9230769230769,4,2,1,50,0,0
87188,-142.857142857143,4,2,1,50,0,0
87274,-76.9230769230769,4,2,1,50,0,0
87360,-142.857142857143,4,2,1,50,0,0
87531,-76.9230769230769,4,2,1,50,0,0
87703,-142.857142857143,4,2,1,50,0,0
87960,-76.9230769230769,4,2,1,50,0,0
88217,-142.857142857143,4,2,1,50,0,0
88474,-76.9230769230769,4,2,1,50,0,0
88731,-142.857142857143,4,2,1,50,0,0
88817,-76.9230769230769,4,2,1,50,0,0
88903,-142.857142857143,4,2,1,50,0,0
89246,-76.9230769230769,4,2,1,50,0,0
89588,-111.111111111111,4,2,3,50,0,0
95074,-100,4,2,3,50,0,0
97817,-83.3333333333333,4,2,3,50,0,0
97988,-125,4,2,3,50,0,0
98331,-100,4,2,3,50,0,0
98503,-83.3333333333333,4,2,3,50,0,0
98846,-125,4,2,3,50,0,0
99017,-100,4,2,3,50,0,0
99360,-83.3333333333333,4,2,3,50,0,0
99703,-125,4,2,3,50,0,0
99874,-100,4,2,3,50,0,0
100560,-83.3333333333333,4,2,3,50,0,0
100903,-125,4,2,3,50,0,0
101074,-100,4,2,3,50,0,0
101246,-83.3333333333333,4,2,3,50,0,0
101588,-125,4,2,3,50,0,0
101760,-100,4,2,3,50,0,0
102103,-83.3333333333333,4,2,3,50,0,0
102446,-125,4,2,3,50,0,0
102617,-100,4,2,1,50,0,0
104674,-76.9230769230769,4,2,1,50,0,0
104760,-142.857142857143,4,2,1,50,0,0
104846,-76.9230769230769,4,2,1,50,0,0
104931,-142.857142857143,4,2,1,50,0,0
105017,-344.827586206897,4,2,1,50,0,0
105360,-204.081632653061,4,2,1,50,0,0
105403,-1000,4,2,1,50,0,0
105531,-204.081632653061,4,2,1,50,0,0
105574,-1000,4,2,1,50,0,0
105703,-204.081632653061,4,2,1,50,0,0
105746,-1000,4,2,1,50,0,0
105874,-204.081632653061,4,2,1,50,0,0
105960,-125,4,2,1,50,0,0
106046,-100,4,2,1,50,0,1
114274,-166.666666666667,4,2,1,50,0,1
114446,-71.4285714285714,4,2,1,50,0,1
114617,-166.666666666667,4,2,1,50,0,1
114703,-71.4285714285714,4,2,1,50,0,1
114788,-166.666666666667,4,2,1,50,0,1
114960,-71.4285714285714,4,2,1,50,0,1
115131,-166.666666666667,4,2,1,50,0,1
115303,-71.4285714285714,4,2,1,50,0,1
115474,-166.666666666667,4,2,1,50,0,1
115646,-100,4,2,1,50,0,1
116503,-250,4,2,3,50,0,1
116588,-62.5,4,2,1,50,0,1
116674,-250,4,2,3,50,0,1
116931,-62.5,4,2,1,50,0,0
117017,-100,4,2,3,50,0,1
122503,-100,4,2,1,50,0,1
127646,-33.3333333333333,4,2,3,50,0,1
127731,-117.647058823529,4,2,1,50,0,1
127988,-100,4,2,3,50,0,0
141703,-166.666666666667,4,2,3,50,0,0
141874,-71.4285714285714,4,2,3,50,0,0
142046,-166.666666666667,4,2,3,50,0,0
142131,-71.4285714285714,4,2,3,50,0,0
142217,-166.666666666667,4,2,1,50,0,0
142388,-71.4285714285714,4,2,1,50,0,0
142560,-166.666666666667,4,2,1,50,0,0
142731,-71.4285714285714,4,2,1,50,0,0
142903,-100,4,2,1,50,0,0
148388,-83.3333333333333,4,2,1,50,0,0
148560,-125,4,2,1,50,0,0
148646,-250,4,2,1,50,0,0
148731,-100,4,2,1,50,0,0
148817,-250,4,2,1,50,0,0
148903,-100,4,2,1,50,0,0
148988,-250,4,2,1,50,0,0
149074,-100,4,2,1,50,0,0
149160,-250,4,2,1,50,0,0
149246,-100,4,2,1,50,0,0
169131,-142.857142857143,4,2,1,50,0,0
169303,-76.9230769230769,4,2,1,50,0,0
169474,-142.857142857143,4,2,1,50,0,0
169560,-76.9230769230769,4,2,1,50,0,0
169646,-142.857142857143,4,2,1,50,0,0
170246,-76.9230769230769,4,2,1,50,0,0
170503,-142.857142857143,4,2,1,50,0,0
170760,-76.9230769230769,4,2,1,50,0,0
171017,-142.857142857143,4,2,1,50,0,0
171103,-76.9230769230769,4,2,1,50,0,0
171188,-142.857142857143,4,2,1,50,0,0
171531,-76.9230769230769,4,2,1,50,0,0
171874,-111.111111111111,4,2,3,50,0,0
177360,-99.9999999999999,4,2,3,50,0,0
180103,-83.3333333333333,4,2,1,50,0,0
180274,-125,4,2,1,50,0,0
180617,-100,4,2,1,50,0,0
180788,-83.3333333333333,4,2,1,50,0,0
181131,-125,4,2,1,50,0,0
181303,-100,4,2,1,50,0,0
181646,-83.3333333333333,4,2,1,50,0,0
181988,-125,4,2,1,50,0,0
182160,-100,4,2,1,50,0,0
182846,-83.3333333333333,4,2,1,50,0,0
183188,-125,4,2,1,50,0,0
183360,-100,4,2,1,50,0,0
183531,-83.3333333333333,4,2,1,50,0,0
183874,-125,4,2,1,50,0,0
184046,-100,4,2,1,50,0,0
184388,-83.3333333333333,4,2,1,50,0,0
184731,-125,4,2,1,50,0,0
184903,-100,4,2,1,50,0,0
186960,-76.9230769230769,4,2,1,50,0,0
187046,-142.857142857143,4,2,1,50,0,0
187131,-76.9230769230769,4,2,1,50,0,0
187217,-142.857142857143,4,2,1,50,0,0
187303,-344.827586206898,4,2,1,50,0,0
187646,-204.081632653061,4,2,1,50,0,0
187688,-1000,4,2,1,50,0,0
187817,-204.081632653061,4,2,1,50,0,0
187860,-1000,4,2,1,50,0,0
187988,-204.081632653061,4,2,1,50,0,0
188031,-1000,4,2,1,50,0,0
188160,-204.081632653061,4,2,1,50,0,0
188246,-125,4,2,1,50,0,0
188331,-100,4,2,1,50,0,1
196560,-166.666666666667,4,2,1,50,0,1
196731,-71.4285714285714,4,2,1,50,0,1
196903,-166.666666666667,4,2,1,50,0,1
196988,-71.4285714285714,4,2,1,50,0,1
197074,-166.666666666667,4,2,1,50,0,1
197246,-71.4285714285714,4,2,1,50,0,1
197417,-166.666666666667,4,2,1,50,0,1
197588,-71.4285714285714,4,2,1,50,0,1
197760,-166.666666666667,4,2,1,50,0,1
197931,-100,4,2,1,50,0,1
198788,-250,4,2,1,50,0,1
198874,-62.5,4,2,1,50,0,1
198960,-250,4,2,1,50,0,1
199217,-62.5,4,2,1,50,0,0
199303,-100,4,2,3,50,0,1
204788,-100,4,2,1,50,0,1
212674,-40,4,2,1,50,0,0
212760,-200,4,2,1,50,0,0
213017,-111.111111111111,4,2,1,50,0,0
236331,-344.827586206897,4,2,1,50,0,0
237017,-204.081632653061,4,2,1,50,0,0
237103,-1000,4,2,1,50,0,0
237188,-204.081632653061,4,2,1,50,0,0
237274,-1000,4,2,1,50,0,0
237360,-204.081632653061,4,2,1,50,0,0
237446,-1000,4,2,1,50,0,0
237531,-204.081632653061,4,2,1,50,0,0
237617,-1000,4,2,1,50,0,0
237703,-125,4,2,1,50,0,0
248674,-111.111111111111,4,2,1,50,0,0
254160,-100,4,2,1,50,0,0
259646,-125,4,2,1,50,0,0
260674,-66.6666666666667,4,2,1,50,0,0
260760,-200,4,2,1,50,0,0
261017,-100,4,2,1,50,0,1
269246,-166.666666666667,4,2,1,50,0,1
269417,-71.4285714285714,4,2,1,50,0,1
269588,-166.666666666667,4,2,1,50,0,1
269674,-71.4285714285714,4,2,1,50,0,1
269760,-166.666666666667,4,2,1,50,0,1
269931,-71.4285714285714,4,2,1,50,0,1
270103,-166.666666666667,4,2,1,50,0,1
270274,-71.4285714285714,4,2,1,50,0,1
270446,-166.666666666667,4,2,1,50,0,1
270617,-100,4,2,1,50,0,1
271474,-250,4,2,1,50,0,1
271560,-62.5,4,2,1,50,0,1
271646,-250,4,2,1,50,0,1
271903,-62.5,4,2,1,50,0,0
271988,-100,4,2,3,50,0,1
277474,-100,4,2,1,50,0,1
282617,-33.3333333333333,4,2,1,50,0,1
282703,-117.647058823529,4,2,1,50,0,1
282960,-100,4,2,1,50,0,0
288103,-33.3333333333333,4,2,1,50,0,0
288188,-117.647058823529,4,2,1,50,0,0
288446,-100,4,2,3,50,0,0
302160,-166.666666666667,4,2,3,50,0,0
302331,-71.4285714285714,4,2,3,50,0,0
302503,-166.666666666667,4,2,3,50,0,0
302588,-71.4285714285714,4,2,3,50,0,0
302674,-166.666666666667,4,2,3,50,0,0
302846,-71.4285714285714,4,2,3,50,0,0
303017,-166.666666666667,4,2,3,50,0,0
303188,-71.4285714285714,4,2,3,50,0,0
303360,-166.666666666667,4,2,3,50,0,0
303531,-100,4,2,3,50,0,0
308846,-83.3333333333333,4,2,3,50,0,0
309017,-125,4,2,3,50,0,0
309188,-250,4,2,3,50,0,0
309274,-62.5,4,2,3,50,0,0
309360,-250,4,2,3,50,0,0
309446,-62.5,4,2,3,50,0,0
309531,-250,4,2,3,50,0,0
309617,-62.5,4,2,3,50,0,0
309703,-250,4,2,3,50,0,0
309874,-62.5,4,2,3,50,0,0
310046,-66.6666666666667,4,2,3,50,0,0
310131,-200,4,2,3,50,0,0
310388,-100,4,2,3,50,0,0
326846,-100,4,2,1,50,0,0

[HitObjects]
460,192,446,5,2,0:0:0:0:
256,192,446,1,0,0:0:0:0:
51,192,446,1,4,0:0:0:0:
358,192,531,1,0,0:0:0:0:
256,192,617,1,0,0:0:0:0:
153,192,703,1,0,0:0:0:0:
51,192,788,1,8,0:0:0:0:
358,192,788,1,0,0:0:0:0:
460,192,960,1,0,0:0:0:0:
358,192,1046,1,0,0:0:0:0:
256,192,1131,1,8,0:0:0:0:
51,192,1131,1,0,0:0:0:0:
153,192,1217,1,0,0:0:0:0:
460,192,1474,1,0,0:0:0:0:
358,192,1474,1,8,0:0:0:0:
51,192,1817,1,8,0:0:0:0:
460,192,1817,1,0,0:0:0:0:
153,192,1903,1,0,0:0:0:0:
256,192,1988,1,0,0:0:0:0:
358,192,2074,1,0,0:0:0:0:
460,192,2160,1,0,0:0:0:0:
153,192,2160,1,8,0:0:0:0:
51,192,2331,1,0,0:0:0:0:
153,192,2417,1,0,0:0:0:0:
256,192,2503,1,0,0:0:0:0:
460,192,2503,1,8,0:0:0:0:
358,192,2588,1,0,0:0:0:0:
153,192,2846,1,0,0:0:0:0:
51,192,2846,1,8,0:0:0:0:
51,192,3188,1,8,0:0:0:0:
460,192,3188,1,0,0:0:0:0:
358,192,3274,1,0,0:0:0:0:
256,192,3360,1,0,0:0:0:0:
153,192,3446,1,0,0:0:0:0:
51,192,3531,1,8,0:0:0:0:
358,192,3531,1,0,0:0:0:0:
460,192,3703,1,0,0:0:0:0:
358,192,3788,1,0,0:0:0:0:
51,192,3874,1,8,0:0:0:0:
256,192,3874,1,0,0:0:0:0:
153,192,3960,1,0,0:0:0:0:
460,192,4217,1,0,0:0:0:0:
358,192,4217,1,8,0:0:0:0:
51,192,4560,1,0,0:0:0:0:
460,192,4560,1,8,0:0:0:0:
153,192,4646,1,0,0:0:0:0:
256,192,4731,1,0,0:0:0:0:
358,192,4817,1,0,0:0:0:0:
153,192,4903,1,8,0:0:0:0:
460,192,4903,1,0,0:0:0:0:
51,192,5074,1,0,0:0:0:0:
153,192,5160,1,0,0:0:0:0:
256,192,5246,1,8,0:0:0:0:
460,192,5246,1,0,0:0:0:0:
358,192,5331,1,0,0:0:0:0:
256,192,5588,1,8,0:0:0:0:
51,192,5588,1,0,0:0:0:0:
153,192,5674,1,0,0:0:0:0:
256,192,5760,1,0,0:0:0:0:
358,192,5846,1,0,0:0:0:0:
51,192,5931,1,0,0:0:0:0:
460,192,5931,1,8,0:0:0:0:
358,192,6017,1,0,0:0:0:0:
256,192,6103,1,0,0:0:0:0:
153,192,6188,1,0,0:0:0:0:
51,192,6274,1,8,0:0:0:0:
460,192,6274,1,0,0:0:0:0:
358,192,6446,1,0,0:0:0:0:
256,192,6531,1,0,0:0:0:0:
153,192,6617,1,8,0:0:0:0:
51,192,6617,1,0,0:0:0:0:
460,192,6703,1,0,0:0:0:0:
256,192,6960,1,0,0:0:0:0:
358,192,6960,1,8,0:0:0:0:
51,192,7303,1,0,0:0:0:0:
460,192,7303,1,8,0:0:0:0:
153,192,7388,1,0,0:0:0:0:
256,192,7474,1,0,0:0:0:0:
358,192,7560,1,0,0:0:0:0:
51,192,7646,1,8,0:0:0:0:
460,192,7646,1,0,0:0:0:0:
153,192,7817,1,0,0:0:0:0:
256,192,7903,1,0,0:0:0:0:
460,192,7988,1,0,0:0:0:0:
358,192,7988,1,8,0:0:0:0:
51,192,8074,1,0,0:0:0:0:
153,192,8331,1,0,0:0:0:0:
256,192,8331,1,8,0:0:0:0:
51,192,8674,1,8,0:0:0:0:
460,192,8674,1,0,0:0:0:0:
358,192,8760,1,0,0:0:0:0:
256,192,8846,1,0,0:0:0:0:
153,192,8931,1,0,0:0:0:0:
460,192,9017,1,0,0:0:0:0:
51,192,9017,1,8,0:0:0:0:
358,192,9188,1,0,0:0:0:0:
256,192,9274,1,0,0:0:0:0:
153,192,9360,1,0,0:0:0:0:
51,192,9360,1,8,0:0:0:0:
460,192,9446,1,0,0:0:0:0:
256,192,9703,1,0,0:0:0:0:
358,192,9703,1,8,0:0:0:0:
51,192,10046,1,0,0:0:0:0:
460,192,10046,1,8,0:0:0:0:
153,192,10131,1,0,0:0:0:0:
256,192,10217,1,0,0:0:0:0:
358,192,10303,1,0,0:0:0:0:
51,192,10388,1,8,0:0:0:0:
460,192,10388,1,0,0:0:0:0:
153,192,10560,1,0,0:0:0:0:
256,192,10646,1,0,0:0:0:0:
358,192,10731,1,8,0:0:0:0:
460,192,10731,1,0,0:0:0:0:
51,192,10817,1,0,0:0:0:0:
256,192,11074,1,0,0:0:0:0:
51,192,11074,1,8,0:0:0:0:
460,192,11160,1,0,0:0:0:0:
153,192,11246,1,0,0:0:0:0:
358,192,11331,1,0,0:0:0:0:
51,192,11417,1,0,0:0:0:0:
460,192,11417,1,8,0:0:0:0:
256,192,11417,1,4,0:0:0:0:
153,192,11503,1,0,0:0:0:0:
256,192,11588,1,0,0:0:0:0:
358,192,11674,1,0,0:0:0:0:
153,192,11760,1,0,0:0:0:0:
460,192,11760,1,8,0:0:0:0:
51,192,11931,1,0,0:0:0:0:
153,192,12017,1,0,0:0:0:0:
256,192,12103,1,0,0:0:0:0:
460,192,12103,1,8,0:0:0:0:
358,192,12188,1,0,0:0:0:0:
153,192,12446,1,8,0:0:0:0:
51,192,12446,1,0,0:0:0:0:
51,192,12788,1,0,0:0:0:0:
460,192,12788,1,8,0:0:0:0:
358,192,12874,1,0,0:0:0:0:
256,192,12960,1,0,0:0:0:0:
153,192,13046,1,0,0:0:0:0:
51,192,13131,1,0,0:0:0:0:
358,192,13131,1,8,0:0:0:0:
460,192,13303,1,0,0:0:0:0:
358,192,13388,1,0,0:0:0:0:
51,192,13474,1,0,0:0:0:0:
256,192,13474,1,8,0:0:0:0:
153,192,13560,1,0,0:0:0:0:
358,192,13817,1,0,0:0:0:0:
460,192,13817,1,8,0:0:0:0:
51,192,14160,1,0,0:0:0:0:
460,192,14160,1,4,0:0:0:0:
256,192,14160,1,2,0:0:0:0:
358,192,14246,1,0,0:0:0:0:
256,192,14331,1,0,0:0:0:0:
153,192,14417,1,0,0:0:0:0:
51,192,14503,1,0,0:0:0:0:
460,192,14503,1,8,0:0:0:0:
358,192,14674,1,0,0:0:0:0:
256,192,14760,1,0,0:0:0:0:
153,192,14846,1,0,0:0:0:0:
51,192,14846,1,8,0:0:0:0:
460,192,14931,1,0,0:0:0:0:
256,192,15188,1,8,0:0:0:0:
358,192,15188,1,0,0:0:0:0:
51,192,15531,1,8,0:0:0:0:
460,192,15531,1,0,0:0:0:0:
153,192,15617,1,0,0:0:0:0:
256,192,15703,1,0,0:0:0:0:
358,192,15788,1,0,0:0:0:0:
51,192,15874,1,0,0:0:0:0:
460,192,15874,1,8,0:0:0:0:
153,192,16046,1,0,0:0:0:0:
256,192,16131,1,0,0:0:0:0:
460,192,16217,1,8,0:0:0:0:
358,192,16217,1,0,0:0:0:0:
51,192,16303,1,0,0:0:0:0:
256,192,16560,1,0,0:0:0:0:
460,192,16560,1,8,0:0:0:0:
51,192,16646,1,0,0:0:0:0:
358,192,16731,1,0,0:0:0:0:
153,192,16817,1,0,0:0:0:0:
358,192,16903,1,4,0:0:0:0:
460,192,16903,1,2,0:0:0:0:
256,192,16903,1,0,0:0:0:0:
153,192,17074,1,0,0:0:0:0:
51,192,17074,1,8,0:0:0:0:
358,192,17246,1,0,0:0:0:0:
256,192,17246,1,8,0:0:0:0:
51,192,17417,1,0,0:0:0:0:
153,192,17417,1,8,0:0:0:0:
460,192,17588,1,0,0:0:0:0:
358,192,17588,1,8,0:0:0:0:
153,192,17760,1,0,0:0:0:0:
256,192,17760,1,8,0:0:0:0:
460,192,17931,1,8,0:0:0:0:
358,192,17931,1,0,0:0:0:0:
51,192,18103,1,8,0:0:0:0:
153,192,18103,1,0,0:0:0:0:
256,192,18274,1,2,0:0:0:0:
358,192,18274,1,4,0:0:0:0:
460,192,18274,1,0,0:0:0:0:
153,192,18446,1,0,0:0:0:0:
51,192,18446,1,8,0:0:0:0:
460,192,18617,1,8,0:0:0:0:
256,192,18617,1,0,0:0:0:0:
153,192,18788,1,0,0:0:0:0:
358,192,18788,1,8,0:0:0:0:
460,192,18960,1,8,0:0:0:0:
51,192,18960,1,0,0:0:0:0:
358,192,19131,1,0,0:0:0:0:
153,192,19131,1,8,0:0:0:0:
51,192,19303,1,0,0:0:0:0:
256,192,19303,1,8,0:0:0:0:
358,192,19474,1,0,0:0:0:0:
460,192,19474,1,8,0:0:0:0:
51,192,19646,1,0,0:0:0:0:
256,192,19646,1,4,0:0:0:0:
153,192,19646,1,2,0:0:0:0:
460,192,19731,1,8,0:0:0:0:
358,192,19731,1,0,0:0:0:0:
153,192,19817,1,8,0:0:0:0:
51,192,19817,1,0,0:0:0:0:
256,192,19903,1,8,0:0:0:0:
358,192,19903,1,0,0:0:0:0:
51,192,19988,1,8,0:0:0:0:
460,192,19988,1,0,0:0:0:0:
153,192,20074,1,8,0:0:0:0:
358,192,20074,1,0,0:0:0:0:
460,192,20160,1,8,0:0:0:0:
256,192,20160,1,0,0:0:0:0:
153,192,20246,1,8,0:0:0:0:
51,192,20246,1,0,0:0:0:0:
460,192,20331,1,2,0:0:0:0:
256,192,20331,1,4,0:0:0:0:
358,192,20331,1,0,0:0:0:0:
153,192,20417,1,8,0:0:0:0:
51,192,20417,1,0,0:0:0:0:
358,192,20503,1,8,0:0:0:0:
460,192,20503,1,0,0:0:0:0:
153,192,20588,1,8,0:0:0:0:
256,192,20588,1,0,0:0:0:0:
51,192,20674,1,8,0:0:0:0:
460,192,20674,1,0,0:0:0:0:
358,192,20760,1,8,0:0:0:0:
153,192,20760,1,0,0:0:0:0:
256,192,20846,1,8,0:0:0:0:
51,192,20846,1,0,0:0:0:0:
460,192,20931,1,8,0:0:0:0:
358,192,20931,1,0,0:0:0:0:
51,192,21017,1,2,0:0:0:0:
153,192,21017,1,0,0:0:0:0:
256,192,21017,1,4,0:0:0:0:
51,192,21274,1,0,0:0:0:0:
153,192,21274,1,0,0:0:0:0:
358,192,21360,1,0,0:0:0:0:
460,192,21360,1,0,0:0:0:0:
153,192,21531,1,0,0:0:0:0:
256,192,21531,1,0,0:0:0:0:
460,192,21617,1,0,0:0:0:0:
358,192,21617,1,0,0:0:0:0:
153,192,21703,1,0,0:0:0:0:
51,192,21703,1,0,0:0:0:0:
358,192,21788,1,0,0:0:0:0:
256,192,21788,1,0,0:0:0:0:
153,192,21874,1,0,0:0:0:0:
51,192,21874,1,0,0:0:0:0:
460,192,22046,1,8,0:0:0:0:
358,192,22046,1,0,0:0:0:0:
256,192,22046,1,0,0:0:0:0:
153,192,22388,1,4,0:0:0:0:
358,192,22388,1,2,0:0:0:0:
256,192,22388,1,0,0:0:0:0:
460,192,22560,1,0,0:0:0:0:
153,192,22731,1,0,0:0:0:0:
51,192,22731,1,8,0:0:0:0:
256,192,22731,1,0,0:0:0:0:
358,192,22903,1,0,0:0:0:0:
460,192,23074,1,2,0:0:0:0:
153,192,23074,1,0,0:0:0:0:
256,192,23246,1,0,0:0:0:0:
153,192,23417,1,0,0:0:0:0:
358,192,23417,1,8,0:0:0:0:
51,192,23417,1,0,0:0:0:0:
460,192,23588,1,0,0:0:0:0:
256,192,23760,1,0,0:0:0:0:
153,192,23760,1,2,0:0:0:0:
51,192,23931,1,0,0:0:0:0:
358,192,24103,1,0,0:0:0:0:
256,192,24103,1,8,0:0:0:0:
460,192,24103,1,0,0:0:0:0:
153,192,24274,1,0,0:0:0:0:
51,192,24446,1,0,0:0:0:0:
460,192,24446,1,2,0:0:0:0:
358,192,24617,1,0,0:0:0:0:
460,192,24788,1,0,0:0:0:0:
153,192,24788,1,8,0:0:0:0:
256,192,24788,1,0,0:0:0:0:
358,192,24960,1,0,0:0:0:0:
256,192,25131,1,0,0:0:0:0:
51,192,25131,1,2,0:0:0:0:
460,192,25303,1,0,0:0:0:0:
358,192,25474,1,8,0:0:0:0:
153,192,25474,1,0,0:0:0:0:
256,192,25474,1,0,0:0:0:0:
51,192,25646,1,0,0:0:0:0:
460,192,25817,1,2,0:0:0:0:
153,192,25817,1,0,0:0:0:0:
256,192,25988,1,0,0:0:0:0:
358,192,26160,1,0,0:0:0:0:
153,192,26160,1,0,0:0:0:0:
460,192,26160,1,8,0:0:0:0:
51,192,26331,1,0,0:0:0:0:
460,192,26503,1,0,0:0:0:0:
256,192,26503,1,2,0:0:0:0:
358,192,26674,1,0,0:0:0:0:
460,192,26846,1,0,0:0:0:0:
153,192,26846,1,8,0:0:0:0:
51,192,26846,1,0,0:0:0:0:
256,192,27017,1,0,0:0:0:0:
358,192,27188,1,0,0:0:0:0:
51,192,27188,1,2,0:0:0:0:
256,192,27360,1,0,0:0:0:0:
460,192,27531,1,0,0:0:0:0:
153,192,27531,1,0,0:0:0:0:
358,192,27531,1,8,0:0:0:0:
51,192,27617,1,0,0:0:0:0:
256,192,27703,1,0,0:0:0:0:
460,192,27788,1,0,0:0:0:0:
153,192,27874,1,0,0:0:0:0:
358,192,27874,1,2,0:0:0:0:
256,192,28046,1,0,0:0:0:0:
51,192,28217,1,8,0:0:0:0:
460,192,28217,1,0,0:0:0:0:
358,192,28217,1,0,0:0:0:0:
153,192,28388,1,0,0:0:0:0:
358,192,28560,1,2,0:0:0:0:
256,192,28560,1,0,0:0:0:0:
51,192,28731,1,0,0:0:0:0:
256,192,28903,1,0,0:0:0:0:
460,192,28903,1,0,0:0:0:0:
153,192,28903,1,8,0:0:0:0:
358,192,29074,1,0,0:0:0:0:
153,192,29246,1,0,0:0:0:0:
51,192,29246,1,2,0:0:0:0:
256,192,29417,1,0,0:0:0:0:
358,192,29588,1,0,0:0:0:0:
51,192,29588,1,0,0:0:0:0:
460,192,29588,1,8,0:0:0:0:
153,192,29760,1,0,0:0:0:0:
256,192,29931,1,2,0:0:0:0:
358,192,29931,1,0,0:0:0:0:
153,192,30103,1,0,0:0:0:0:
256,192,30274,1,0,0:0:0:0:
51,192,30274,1,8,0:0:0:0:
460,192,30274,1,0,0:0:0:0:
153,192,30446,1,0,0:0:0:0:
358,192,30617,1,0,0:0:0:0:
256,192,30617,1,2,0:0:0:0:
51,192,30788,1,0,0:0:0:0:
358,192,30960,1,8,0:0:0:0:
153,192,30960,1,0,0:0:0:0:
460,192,30960,1,0,0:0:0:0:
51,192,31131,1,0,0:0:0:0:
256,192,31303,1,2,0:0:0:0:
358,192,31303,1,0,0:0:0:0:
460,192,31474,1,0,0:0:0:0:
358,192,31646,1,0,0:0:0:0:
153,192,31646,1,8,0:0:0:0:
256,192,31646,1,0,0:0:0:0:
51,192,31817,1,0,0:0:0:0:
460,192,31988,1,2,0:0:0:0:
153,192,31988,1,0,0:0:0:0:
358,192,32160,1,0,0:0:0:0:
256,192,32331,1,8,0:0:0:0:
153,192,32331,1,0,0:0:0:0:
460,192,32331,1,0,0:0:0:0:
358,192,32503,1,0,0:0:0:0:
256,192,32674,1,0,0:0:0:0:
51,192,32674,1,2,0:0:0:0:
460,192,32846,1,0,0:0:0:0:
460,192,33017,1,0,0:0:0:0:
358,192,33103,1,0,0:0:0:0:
51,192,33188,1,2,0:0:0:0:
153,192,33188,1,0,0:0:0:0:
358,192,33274,1,0,0:0:0:0:
256,192,33274,1,2,0:0:0:0:
51,192,33360,1,2,0:0:0:0:
460,192,33360,1,0,0:0:0:0:
153,192,33360,1,4,0:0:0:0:
358,192,33531,1,0,0:0:0:0:
256,192,33703,1,8,0:0:0:0:
460,192,33703,1,0,0:0:0:0:
153,192,33703,1,0,0:0:0:0:
51,192,33874,1,0,0:0:0:0:
358,192,34046,1,8,0:0:0:0:
153,192,34046,1,0,0:0:0:0:
256,192,34046,1,0,0:0:0:0:
460,192,34217,1,0,0:0:0:0:
256,192,34388,1,0,0:0:0:0:
51,192,34388,1,8,0:0:0:0:
358,192,34388,1,0,0:0:0:0:
153,192,34560,1,0,0:0:0:0:
460,192,34731,1,8,0:0:0:0:
358,192,34731,1,0,0:0:0:0:
256,192,34731,1,0,0:0:0:0:
153,192,34903,1,0,0:0:0:0:
256,192,35074,1,8,0:0:0:0:
51,192,35074,1,0,0:0:0:0:
460,192,35074,1,0,0:0:0:0:
358,192,35246,1,0,0:0:0:0:
460,192,35417,1,0,0:0:0:0:
153,192,35417,1,8,0:0:0:0:
256,192,35417,1,0,0:0:0:0:
51,192,35588,1,0,0:0:0:0:
358,192,35760,1,0,0:0:0:0:
153,192,35760,1,8,0:0:0:0:
256,192,35760,1,0,0:0:0:0:
460,192,35931,1,0,0:0:0:0:
153,192,36103,1,4,0:0:0:0:
51,192,36103,1,0,0:0:0:0:
256,192,36103,1,2,0:0:0:0:
358,192,36103,1,0,0:0:0:0:
460,192,36274,1,0,0:0:0:0:
51,192,36446,1,8,0:0:0:0:
460,192,36446,1,0,0:0:0:0:
153,192,36446,1,0,0:0:0:0:
256,192,36617,1,0,0:0:0:0:
460,192,36788,1,8,0:0:0:0:
51,192,36788,1,0,0:0:0:0:
358,192,36788,1,0,0:0:0:0:
153,192,36960,1,0,0:0:0:0:
256,192,37131,1,8,0:0:0:0:
460,192,37131,1,0,0:0:0:0:
358,192,37131,1,0,0:0:0:0:
153,192,37303,1,0,0:0:0:0:
358,192,37474,1,0,0:0:0:0:
51,192,37474,1,8,0:0:0:0:
256,192,37474,1,0,0:0:0:0:
460,192,37646,1,0,0:0:0:0:
153,192,37817,1,8,0:0:0:0:
51,192,37817,1,0,0:0:0:0:
358,192,37817,1,0,0:0:0:0:
256,192,37988,1,0,0:0:0:0:
153,192,38160,1,8,0:0:0:0:
358,192,38160,1,0,0:0:0:0:
460,192,38160,1,0,0:0:0:0:
51,192,38331,1,0,0:0:0:0:
460,192,38417,1,0,0:0:0:0:
256,192,38503,1,0,0:0:0:0:
153,192,38588,1,0,0:0:0:0:
460,192,38674,1,0,0:0:0:0:
358,192,38760,1,0,0:0:0:0:
153,192,38846,1,4,0:0:0:0:
51,192,38846,1,2,0:0:0:0:
256,192,38846,1,0,0:0:0:0:
460,192,39017,1,0,0:0:0:0:
358,192,39017,1,8,0:0:0:0:
51,192,39188,1,8,0:0:0:0:
153,192,39188,1,0,0:0:0:0:
460,192,39360,1,8,0:0:0:0:
358,192,39360,1,0,0:0:0:0:
51,192,39531,1,8,0:0:0:0:
256,192,39531,1,0,0:0:0:0:
358,192,39703,1,8,0:0:0:0:
153,192,39703,1,0,0:0:0:0:
256,192,39874,1,8,0:0:0:0:
460,192,39874,1,0,0:0:0:0:
153,192,40046,1,0,0:0:0:0:
358,192,40046,1,8,0:0:0:0:
460,192,40217,1,0,0:0:0:0:
51,192,40217,1,4,0:0:0:0:
256,192,40217,1,2,0:0:0:0:
153,192,40388,1,0,0:0:0:0:
51,192,40388,1,8,0:0:0:0:
460,192,40560,1,0,0:0:0:0:
358,192,40560,1,8,0:0:0:0:
153,192,40731,1,0,0:0:0:0:
51,192,40731,1,8,0:0:0:0:
460,192,40903,1,8,0:0:0:0:
256,192,40903,1,0,0:0:0:0:
358,192,41074,1,0,0:0:0:0:
153,192,41074,1,8,0:0:0:0:
256,192,41246,1,8,0:0:0:0:
51,192,41246,1,0,0:0:0:0:
153,192,41417,1,0,0:0:0:0:
358,192,41417,1,8,0:0:0:0:
460,192,41588,1,8,0:0:0:0:
51,192,41588,1,0,0:0:0:0:
358,192,41674,1,8,0:0:0:0:
256,192,41674,1,0,0:0:0:0:
51,192,41760,1,8,0:0:0:0:
153,192,41760,1,0,0:0:0:0:
358,192,41846,5,8,0:0:0:0:
460,192,41846,1,0,0:0:0:0:
153,192,41931,5,0,0:0:0:0:
256,192,41931,1,0,0:0:0:0:
51,192,42017,5,8,0:0:0:0:
460,192,42017,1,0,0:0:0:0:
256,192,42103,5,8,0:0:0:0:
358,192,42103,1,0,0:0:0:0:
51,192,42188,5,8,0:0:0:0:
153,192,42188,1,0,0:0:0:0:
358,192,42274,5,2,0:0:0:0:
460,192,42274,1,4,0:0:0:0:
256,192,42274,1,0,0:0:0:0:
153,192,42360,1,8,0:0:0:0:
51,192,42360,1,0,0:0:0:0:
358,192,42446,1,8,0:0:0:0:
256,192,42446,1,0,0:0:0:0:
51,192,42531,1,8,0:0:0:0:
460,192,42531,1,0,0:0:0:0:
256,192,42617,1,0,0:0:0:0:
153,192,42617,1,0,0:0:0:0:
358,192,42703,1,8,0:0:0:0:
460,192,42703,1,0,0:0:0:0:
153,192,42788,1,8,0:0:0:0:
51,192,42788,1,0,0:0:0:0:
256,192,42874,1,8,0:0:0:0:
358,192,42874,1,0,0:0:0:0:
460,192,42960,5,2,0:0:0:0:
153,192,42960,1,4,0:0:0:0:
51,192,42960,1,0,0:0:0:0:
51,192,44331,128,2,45017:0:0:0:0:
256,192,44331,1,4,0:0:0:0:
460,192,44331,1,0,0:0:0:0:
153,192,45017,128,0,45703:0:0:0:0:
358,192,45017,1,0,0:0:0:0:
256,192,45703,128,0,46388:0:0:0:0:
460,192,45703,1,0,0:0:0:0:
358,192,46388,128,0,47074:0:0:0:0:
51,192,46388,1,0,0:0:0:0:
460,192,47074,128,0,48446:0:0:0:0:
153,192,47074,1,0,0:0:0:0:
153,192,48446,128,0,49131:0:0:0:0:
256,192,48446,1,0,0:0:0:0:
460,192,49131,128,0,49303:0:0:0:0:
51,192,49131,1,0,0:0:0:0:
358,192,49303,128,0,49474:0:0:0:0:
256,192,49474,128,0,49646:0:0:0:0:
153,192,49646,128,0,49817:0:0:0:0:
51,192,49817,128,0,51188:0:0:0:0:
460,192,49817,1,0,0:0:0:0:
256,192,51188,128,0,52560:0:0:0:0:
358,192,51188,1,0,0:0:0:0:
460,192,52560,128,0,53931:0:0:0:0:
153,192,52560,1,0,0:0:0:0:
51,192,53931,128,0,55303:0:0:0:0:
358,192,53931,1,0,0:0:0:0:
153,192,55303,1,0,0:0:0:0:
460,192,55303,1,2,0:0:0:0:
256,192,55303,1,4,0:0:0:0:
358,192,56331,1,0,0:0:0:0:
153,192,56331,1,0,0:0:0:0:
51,192,56331,1,8,0:0:0:0:
460,192,56331,1,0,0:0:0:0:
256,192,56674,1,2,0:0:0:0:
153,192,56674,1,4,0:0:0:0:
460,192,56674,1,0,0:0:0:0:
358,192,56846,1,0,0:0:0:0:
51,192,56846,1,0,0:0:0:0:
358,192,57017,1,0,0:0:0:0:
51,192,57017,1,2,0:0:0:0:
153,192,57188,1,0,0:0:0:0:
358,192,57360,1,0,0:0:0:0:
256,192,57360,1,2,0:0:0:0:
460,192,57531,1,0,0:0:0:0:
51,192,57531,128,0,57703:0:0:0:0:
358,192,57703,1,2,0:0:0:0:
153,192,57703,128,0,57874:0:0:0:0:
460,192,57874,1,0,0:0:0:0:
256,192,57874,128,0,58046:0:0:0:0:
51,192,58046,1,2,0:0:0:0:
358,192,58046,1,0,0:0:0:0:
153,192,58217,1,0,0:0:0:0:
460,192,58217,128,0,58388:0:0:0:0:
358,192,58388,1,2,0:0:0:0:
51,192,58388,128,0,58560:0:0:0:0:
153,192,58560,1,0,0:0:0:0:
256,192,58560,128,0,58731:0:0:0:0:
358,192,58731,1,2,0:0:0:0:
460,192,58731,128,0,58903:0:0:0:0:
256,192,58903,1,0,0:0:0:0:
153,192,59074,1,2,0:0:0:0:
51,192,59074,128,0,59246:0:0:0:0:
256,192,59246,1,0,0:0:0:0:
460,192,59417,1,2,0:0:0:0:
358,192,59417,1,4,0:0:0:0:
153,192,59417,1,0,0:0:0:0:
358,192,59760,1,2,0:0:0:0:
460,192,59760,1,0,0:0:0:0:
256,192,59931,1,0,0:0:0:0:
153,192,59931,1,4,0:0:0:0:
51,192,59931,1,2,0:0:0:0:
460,192,60274,1,4,0:0:0:0:
358,192,60274,1,0,0:0:0:0:
256,192,60274,1,2,0:0:0:0:
153,192,60617,1,4,0:0:0:0:
51,192,60617,1,2,0:0:0:0:
460,192,60617,128,0,60960:0:0:0:0:
51,192,60960,1,0,0:0:0:0:
153,192,61046,1,0,0:0:0:0:
256,192,61131,1,0,0:0:0:0:
358,192,61217,1,0,0:0:0:0:
460,192,61303,1,0,0:0:0:0:
358,192,61388,1,0,0:0:0:0:
256,192,61474,1,2,0:0:0:0:
51,192,61474,128,0,61560:0:0:0:0:
153,192,61474,1,0,0:0:0:0:
460,192,61646,1,0,0:0:0:0:
153,192,61646,128,0,61731:0:0:0:0:
256,192,61817,1,0,0:0:0:0:
358,192,61817,128,0,61903:0:0:0:0:
51,192,61988,1,0,0:0:0:0:
460,192,61988,128,0,62074:0:0:0:0:
358,192,62160,1,4,0:0:0:0:
256,192,62160,1,0,0:0:0:0:
153,192,62160,1,2,0:0:0:0:
51,192,62331,1,0,0:0:0:0:
256,192,62417,1,0,0:0:0:0:
460,192,62417,1,0,0:0:0:0:
51,192,62503,1,8,0:0:0:0:
153,192,62588,1,0,0:0:0:0:
358,192,62588,1,0,0:0:0:0:
256,192,62674,1,0,0:0:0:0:
358,192,62760,1,0,0:0:0:0:
153,192,62760,1,0,0:0:0:0:
460,192,62846,1,8,0:0:0:0:
51,192,63017,1,0,0:0:0:0:
256,192,63017,128,0,63188:0:0:0:0:
153,192,63188,1,8,0:0:0:0:
460,192,63188,128,0,63360:0:0:0:0:
51,192,63360,128,0,63531:0:0:0:0:
358,192,63360,1,0,0:0:0:0:
256,192,63531,5,4,0:0:0:0:
153,192,63531,1,2,0:0:0:0:
460,192,63531,1,0,0:0:0:0:
358,192,63703,1,8,0:0:0:0:
51,192,63703,128,0,63874:0:0:0:0:
460,192,63874,1,8,0:0:0:0:
153,192,63874,128,0,64046:0:0:0:0:
256,192,64046,1,8,0:0:0:0:
460,192,64046,128,0,64217:0:0:0:0:
51,192,64217,1,8,0:0:0:0:
358,192,64217,128,0,64388:0:0:0:0:
256,192,64388,1,0,0:0:0:0:
153,192,64388,1,8,0:0:0:0:
460,192,64560,1,8,0:0:0:0:
51,192,64560,128,0,64731:0:0:0:0:
358,192,64731,1,8,0:0:0:0:
153,192,64731,1,0,0:0:0:0:
460,192,64903,1,2,0:0:0:0:
256,192,64903,1,0,0:0:0:0:
51,192,64988,1,0,0:0:0:0:
358,192,65074,1,2,0:0:0:0:
153,192,65074,1,0,0:0:0:0:
460,192,65160,1,0,0:0:0:0:
256,192,65246,1,2,0:0:0:0:
51,192,65246,1,0,0:0:0:0:
460,192,65331,1,0,0:0:0:0:
358,192,65417,1,0,0:0:0:0:
153,192,65417,1,2,0:0:0:0:
51,192,65503,1,0,0:0:0:0:
460,192,65588,1,2,0:0:0:0:
256,192,65588,1,0,0:0:0:0:
51,192,65674,1,0,0:0:0:0:
358,192,65760,1,0,0:0:0:0:
153,192,65760,1,2,0:0:0:0:
460,192,65846,1,0,0:0:0:0:
256,192,65931,1,2,0:0:0:0:
51,192,65931,1,0,0:0:0:0:
460,192,66017,1,0,0:0:0:0:
358,192,66103,1,4,0:0:0:0:
153,192,66103,1,2,0:0:0:0:
256,192,66103,1,0,0:0:0:0:
51,192,66446,5,2,0:0:0:0:
358,192,66446,1,4,0:0:0:0:
256,192,66446,1,0,0:0:0:0:
51,192,66617,1,4,0:0:0:0:
358,192,66617,1,0,0:0:0:0:
256,192,66617,1,2,0:0:0:0:
51,192,66788,1,0,0:0:0:0:
358,192,66788,1,2,0:0:0:0:
256,192,66788,1,4,0:0:0:0:
51,192,66960,1,4,0:0:0:0:
358,192,66960,1,0,0:0:0:0:
256,192,66960,1,2,0:0:0:0:
460,192,67131,1,0,0:0:0:0:
153,192,67303,1,0,0:0:0:0:
358,192,67388,1,0,0:0:0:0:
256,192,67474,1,0,0:0:0:0:
460,192,67560,1,0,0:0:0:0:
358,192,67646,1,2,0:0:0:0:
153,192,67646,1,4,0:0:0:0:
51,192,67646,128,0,68846:0:0:0:0:
256,192,68846,128,0,70388:0:0:0:0:
460,192,68846,1,0,0:0:0:0:
460,192,70388,128,0,71588:0:0:0:0:
153,192,70388,1,0,0:0:0:0:
358,192,71588,128,0,73131:0:0:0:0:
51,192,71588,1,0,0:0:0:0:
153,192,72446,1,0,0:0:0:0:
460,192,72617,1,0,0:0:0:0:
256,192,72788,1,0,0:0:0:0:
153,192,72960,1,0,0:0:0:0:
256,192,73131,128,0,74331:0:0:0:0:
51,192,73131,1,0,0:0:0:0:
51,192,74331,128,0,75874:0:0:0:0:
358,192,74331,1,0,0:0:0:0:
153,192,75874,128,0,76388:0:0:0:0:
256,192,75874,1,2,0:0:0:0:
460,192,75874,1,4,0:0:0:0:
256,192,76388,128,0,77246:0:0:0:0:
460,192,76388,1,2,0:0:0:0:
358,192,76388,1,4,0:0:0:0:
460,192,77246,128,0,77760:0:0:0:0:
358,192,77246,1,4,0:0:0:0:
51,192,77246,1,2,0:0:0:0:
153,192,77760,1,4,0:0:0:0:
256,192,77760,1,0,0:0:0:0:
51,192,77760,1,2,0:0:0:0:
358,192,77931,1,0,0:0:0:0:
460,192,78017,1,0,0:0:0:0:
256,192,78103,1,0,0:0:0:0:
358,192,78188,1,0,0:0:0:0:
51,192,78274,1,0,0:0:0:0:
153,192,78446,1,0,0:0:0:0:
358,192,78531,1,0,0:0:0:0:
51,192,78617,1,0,0:0:0:0:
460,192,78617,1,2,0:0:0:0:
256,192,78617,1,4,0:0:0:0:
358,192,78788,1,0,0:0:0:0:
153,192,78960,1,2,0:0:0:0:
460,192,78960,1,0,0:0:0:0:
256,192,79131,1,0,0:0:0:0:
358,192,79303,1,2,0:0:0:0:
51,192,79303,1,0,0:0:0:0:
460,192,79474,1,0,0:0:0:0:
153,192,79646,1,0,0:0:0:0:
256,192,79646,1,2,0:0:0:0:
51,192,79817,1,0,0:0:0:0:
358,192,79988,1,0,0:0:0:0:
460,192,79988,1,2,0:0:0:0:
153,192,80160,1,0,0:0:0:0:
256,192,80331,1,0,0:0:0:0:
51,192,80331,1,2,0:0:0:0:
358,192,80503,1,0,0:0:0:0:
153,192,80674,1,2,0:0:0:0:
460,192,80674,1,0,0:0:0:0:
256,192,80846,1,0,0:0:0:0:
460,192,81017,1,0,0:0:0:0:
358,192,81017,1,2,0:0:0:0:
51,192,81188,1,0,0:0:0:0:
358,192,81360,1,0,0:0:0:0:
153,192,81360,1,4,0:0:0:0:
256,192,81360,1,2,0:0:0:0:
460,192,81531,1,0,0:0:0:0:
358,192,81703,1,0,0:0:0:0:
51,192,81703,1,2,0:0:0:0:
256,192,81874,1,0,0:0:0:0:
153,192,82046,1,0,0:0:0:0:
460,192,82046,1,2,0:0:0:0:
358,192,82217,1,0,0:0:0:0:
256,192,82388,1,2,0:0:0:0:
51,192,82388,1,0,0:0:0:0:
460,192,82560,1,0,0:0:0:0:
358,192,82731,1,0,0:0:0:0:
153,192,82731,1,2,0:0:0:0:
256,192,82903,1,0,0:0:0:0:
460,192,83074,1,0,0:0:0:0:
51,192,83074,1,2,0:0:0:0:
153,192,83246,1,0,0:0:0:0:
460,192,83417,1,2,0:0:0:0:
358,192,83417,128,0,83588:0:0:0:0:
153,192,83588,1,0,0:0:0:0:
51,192,83588,128,0,83760:0:0:0:0:
256,192,83760,1,8,0:0:0:0:
460,192,83760,128,0,83931:0:0:0:0:
51,192,83931,1,8,0:0:0:0:
153,192,83931,1,0,0:0:0:0:
256,192,84017,1,8,0:0:0:0:
358,192,84017,1,0,0:0:0:0:
51,192,84103,1,2,0:0:0:0:
460,192,84103,1,4,0:0:0:0:
153,192,84103,1,0,0:0:0:0:
358,192,84274,1,0,0:0:0:0:
460,192,84446,1,2,0:0:0:0:
256,192,84446,1,0,0:0:0:0:
153,192,84617,1,0,0:0:0:0:
460,192,84788,1,2,0:0:0:0:
51,192,84788,1,0,0:0:0:0:
153,192,84960,1,0,0:0:0:0:
256,192,85131,1,2,0:0:0:0:
460,192,85131,1,0,0:0:0:0:
358,192,85303,1,0,0:0:0:0:
460,192,85474,1,4,0:0:0:0:
256,192,85474,1,0,0:0:0:0:
51,192,85474,1,2,0:0:0:0:
153,192,85646,1,0,0:0:0:0:
51,192,85817,1,2,0:0:0:0:
256,192,85817,1,0,0:0:0:0:
358,192,85988,1,0,0:0:0:0:
51,192,86160,1,2,0:0:0:0:
460,192,86160,1,0,0:0:0:0:
358,192,86331,1,0,0:0:0:0:
51,192,86503,1,2,0:0:0:0:
256,192,86503,1,0,0:0:0:0:
153,192,86674,1,0,0:0:0:0:
460,192,86846,1,4,0:0:0:0:
358,192,86846,1,2,0:0:0:0:
51,192,86846,1,0,0:0:0:0:
256,192,87188,1,0,0:0:0:0:
460,192,87188,1,4,0:0:0:0:
153,192,87188,1,2,0:0:0:0:
256,192,87360,1,4,0:0:0:0:
51,192,87360,1,2,0:0:0:0:
358,192,87360,1,0,0:0:0:0:
153,192,87703,1,2,0:0:0:0:
460,192,87703,128,0,88217:0:0:0:0:
51,192,87703,1,4,0:0:0:0:
358,192,88217,1,2,0:0:0:0:
256,192,88217,1,4,0:0:0:0:
51,192,88217,128,0,88731:0:0:0:0:
256,192,88731,1,4,0:0:0:0:
358,192,88731,1,0,0:0:0:0:
153,192,88731,1,2,0:0:0:0:
153,192,88903,1,4,0:0:0:0:
358,192,88903,1,2,0:0:0:0:
460,192,88903,128,0,89588:0:0:0:0:
153,192,89588,5,2,0:0:0:0:
256,192,89588,1,4,0:0:0:0:
358,192,89588,1,0,0:0:0:0:
51,192,89760,1,0,0:0:0:0:
153,192,89931,1,0,0:0:0:0:
358,192,90103,1,0,0:0:0:0:
460,192,90103,1,2,0:0:0:0:
358,192,90274,1,2,0:0:0:0:
460,192,90274,1,0,0:0:0:0:
256,192,90446,1,0,0:0:0:0:
358,192,90617,1,0,0:0:0:0:
51,192,90617,1,8,0:0:0:0:
153,192,90617,1,0,0:0:0:0:
256,192,90788,1,0,0:0:0:0:
153,192,90960,1,2,0:0:0:0:
460,192,90960,1,0,0:0:0:0:
51,192,91131,1,0,0:0:0:0:
460,192,91303,1,0,0:0:0:0:
256,192,91474,1,0,0:0:0:0:
358,192,91474,1,2,0:0:0:0:
358,192,91646,1,0,0:0:0:0:
256,192,91646,1,2,0:0:0:0:
460,192,91817,1,0,0:0:0:0:
256,192,91988,1,0,0:0:0:0:
51,192,91988,1,0,0:0:0:0:
153,192,91988,1,8,0:0:0:0:
460,192,92160,1,0,0:0:0:0:
153,192,92331,1,0,0:0:0:0:
358,192,92331,1,2,0:0:0:0:
51,192,92503,1,0,0:0:0:0:
460,192,92674,1,0,0:0:0:0:
256,192,92846,1,2,0:0:0:0:
153,192,92846,1,0,0:0:0:0:
153,192,93017,1,2,0:0:0:0:
256,192,93017,1,0,0:0:0:0:
358,192,93188,1,0,0:0:0:0:
256,192,93360,1,0,0:0:0:0:
51,192,93360,1,0,0:0:0:0:
460,192,93360,1,8,0:0:0:0:
358,192,93531,1,0,0:0:0:0:
256,192,93703,1,0,0:0:0:0:
153,192,93703,1,2,0:0:0:0:
460,192,93874,1,0,0:0:0:0:
358,192,94046,5,0,0:0:0:0:
153,192,94217,1,0,0:0:0:0:
51,192,94217,1,2,0:0:0:0:
51,192,94388,1,0,0:0:0:0:
153,192,94388,1,2,0:0:0:0:
358,192,94560,1,0,0:0:0:0:
153,192,94731,1,8,0:0:0:0:
256,192,94731,1,0,0:0:0:0:
460,192,94731,1,0,0:0:0:0:
153,192,94903,1,0,0:0:0:0:
358,192,94903,1,2,0:0:0:0:
256,192,95074,1,4,0:0:0:0:
460,192,95074,1,0,0:0:0:0:
51,192,95074,1,2,0:0:0:0:
153,192,95246,1,0,0:0:0:0:
51,192,95417,1,0,0:0:0:0:
358,192,95417,1,2,0:0:0:0:
256,192,95588,1,0,0:0:0:0:
153,192,95760,1,0,0:0:0:0:
460,192,95760,1,2,0:0:0:0:
358,192,95931,1,0,0:0:0:0:
256,192,96103,1,0,0:0:0:0:
51,192,96103,1,2,0:0:0:0:
460,192,96274,1,0,0:0:0:0:
358,192,96446,1,2,0:0:0:0:
153,192,96446,1,0,0:0:0:0:
256,192,96617,1,0,0:0:0:0:
51,192,96788,1,0,0:0:0:0:
153,192,96788,1,2,0:0:0:0:
460,192,96960,1,0,0:0:0:0:
358,192,97131,1,0,0:0:0:0:
51,192,97131,1,2,0:0:0:0:
256,192,97303,1,0,0:0:0:0:
153,192,97474,1,0,0:0:0:0:
460,192,97474,1,2,0:0:0:0:
51,192,97646,1,0,0:0:0:0:
358,192,97817,1,2,0:0:0:0:
153,192,97817,1,4,0:0:0:0:
460,192,97817,128,0,98331:0:0:0:0:
358,192,98331,128,0,99017:0:0:0:0:
51,192,98331,1,2,0:0:0:0:
256,192,98331,1,4,0:0:0:0:
153,192,99017,1,4,0:0:0:0:
460,192,99017,1,2,0:0:0:0:
256,192,99017,128,0,99874:0:0:0:0:
51,192,99874,1,2,0:0:0:0:
153,192,99874,1,4,0:0:0:0:
460,192,99874,1,0,0:0:0:0:
358,192,100046,1,0,0:0:0:0:
460,192,100131,1,0,0:0:0:0:
153,192,100217,1,0,0:0:0:0:
51,192,100303,1,0,0:0:0:0:
358,192,100388,1,0,0:0:0:0:
460,192,100474,1,0,0:0:0:0:
153,192,100560,1,2,0:0:0:0:
256,192,100560,1,4,0:0:0:0:
51,192,100560,128,0,101074:0:0:0:0:
153,192,101074,128,0,101760:0:0:0:0:
358,192,101074,1,4,0:0:0:0:
256,192,101074,1,2,0:0:0:0:
460,192,101760,1,4,0:0:0:0:
256,192,101760,128,0,102617:0:0:0:0:
358,192,101760,1,2,0:0:0:0:
358,192,102617,1,0,0:0:0:0:
153,192,102617,1,4,0:0:0:0:
51,192,102617,1,2,0:0:0:0:
460,192,102874,1,0,0:0:0:0:
358,192,102960,1,0,0:0:0:0:
51,192,103131,1,0,0:0:0:0:
153,192,103217,1,0,0:0:0:0:
460,192,103303,1,0,0:0:0:0:
256,192,103303,1,2,0:0:0:0:
358,192,103303,1,0,0:0:0:0:
153,192,103474,1,0,0:0:0:0:
256,192,103646,1,2,0:0:0:0:
51,192,103646,1,0,0:0:0:0:
358,192,103646,1,0,0:0:0:0:
460,192,103817,1,0,0:0:0:0:
153,192,103988,1,2,0:0:0:0:
256,192,103988,1,0,0:0:0:0:
51,192,103988,1,0,0:0:0:0:
358,192,104160,1,0,0:0:0:0:
153,192,104331,1,2,0:0:0:0:
51,192,104331,1,0,0:0:0:0:
460,192,104331,1,0,0:0:0:0:
256,192,104503,1,0,0:0:0:0:
51,192,104674,1,2,0:0:0:0:
153,192,104674,1,4,0:0:0:0:
358,192,104674,1,0,0:0:0:0:
460,192,104674,1,0,0:0:0:0:
153,192,104846,1,0,0:0:0:0:
460,192,104846,1,2,0:0:0:0:
358,192,104846,1,4,0:0:0:0:
51,192,104846,1,0,0:0:0:0:
460,192,105017,1,0,0:0:0:0:
358,192,105017,1,4,0:0:0:0:
153,192,105017,1,2,0:0:0:0:
51,192,105017,1,0,0:0:0:0:
51,192,106046,1,2,0:0:0:0:
153,192,106046,1,4,0:0:0:0:
460,192,106046,128,0,107417:0:0:0:0:
358,192,106217,1,0,0:0:0:0:
256,192,106388,1,2,0:0:0:0:
51,192,106388,1,0,0:0:0:0:
153,192,106560,1,0,0:0:0:0:
358,192,106731,1,0,0:0:0:0:
256,192,106731,1,2,0:0:0:0:
51,192,106903,1,0,0:0:0:0:
153,192,107074,1,2,0:0:0:0:
256,192,107074,1,0,0:0:0:0:
51,192,107246,1,0,0:0:0:0:
153,192,107417,1,2,0:0:0:0:
358,192,107417,128,0,108103:0:0:0:0:
256,192,107588,1,0,0:0:0:0:
460,192,107760,1,2,0:0:0:0:
51,192,107760,1,0,0:0:0:0:
153,192,107931,1,0,0:0:0:0:
51,192,108103,1,2,0:0:0:0:
256,192,108103,128,0,108788:0:0:0:0:
460,192,108274,1,0,0:0:0:0:
358,192,108446,1,2,0:0:0:0:
153,192,108446,1,0,0:0:0:0:
51,192,108617,1,0,0:0:0:0:
460,192,108788,1,2,0:0:0:0:
153,192,108788,128,0,109817:0:0:0:0:
358,192,108960,1,0,0:0:0:0:
256,192,109131,1,0,0:0:0:0:
51,192,109131,1,2,0:0:0:0:
358,192,109303,1,0,0:0:0:0:
51,192,109474,1,0,0:0:0:0:
460,192,109474,1,2,0:0:0:0:
358,192,109646,1,0,0:0:0:0:
51,192,109817,1,2,0:0:0:0:
256,192,109817,128,0,109988:0:0:0:0:
358,192,109988,128,0,110160:0:0:0:0:
460,192,110160,1,2,0:0:0:0:
51,192,110160,128,0,110846:0:0:0:0:
153,192,110331,128,0,110503:0:0:0:0:
256,192,110503,1,2,0:0:0:0:
460,192,110503,128,0,110674:0:0:0:0:
358,192,110674,128,0,110846:0:0:0:0:
153,192,110846,1,2,0:0:0:0:
256,192,110846,128,0,111531:0:0:0:0:
460,192,111017,1,0,0:0:0:0:
358,192,111188,1,2,0:0:0:0:
153,192,111188,1,0,0:0:0:0:
51,192,111360,1,0,0:0:0:0:
358,192,111531,1,2,0:0:0:0:
460,192,111531,128,0,112903:0:0:0:0:
153,192,111703,1,0,0:0:0:0:
51,192,111874,1,2,0:0:0:0:
256,192,111874,1,0,0:0:0:0:
153,192,112046,1,0,0:0:0:0:
256,192,112217,1,0,0:0:0:0:
358,192,112217,1,2,0:0:0:0:
51,192,112388,1,0,0:0:0:0:
153,192,112560,1,0,0:0:0:0:
256,192,112560,1,2,0:0:0:0:
358,192,112731,1,0,0:0:0:0:
153,192,112903,1,2,0:0:0:0:
51,192,112903,128,0,113588:0:0:0:0:
256,192,113074,1,0,0:0:0:0:
460,192,113246,5,2,0:0:0:0:
153,192,113246,1,0,0:0:0:0:
358,192,113417,1,0,0:0:0:0:
153,192,113588,1,2,0:0:0:0:
460,192,113588,128,0,113760:0:0:0:0:
358,192,113760,128,0,113931:0:0:0:0:
256,192,113931,1,2,0:0:0:0:
51,192,113931,128,0,114103:0:0:0:0:
153,192,114103,128,0,114274:0:0:0:0:
256,192,114274,1,2,0:0:0:0:
460,192,114274,1,4,0:0:0:0:
358,192,114274,1,0,0:0:0:0:
358,192,114617,1,2,0:0:0:0:
460,192,114617,1,0,0:0:0:0:
153,192,114617,1,4,0:0:0:0:
358,192,114788,1,2,0:0:0:0:
51,192,114788,1,4,0:0:0:0:
256,192,114788,1,0,0:0:0:0:
51,192,115131,1,0,0:0:0:0:
358,192,115131,1,2,0:0:0:0:
460,192,115131,1,4,0:0:0:0:
153,192,115474,1,4,0:0:0:0:
51,192,115474,1,2,0:0:0:0:
460,192,115474,1,0,0:0:0:0:
51,192,115817,1,2,0:0:0:0:
256,192,115817,1,4,0:0:0:0:
153,192,115817,1,0,0:0:0:0:
51,192,115988,1,0,0:0:0:0:
256,192,115988,1,2,0:0:0:0:
153,192,115988,1,4,0:0:0:0:
460,192,116160,5,0,0:0:0:0:
460,192,116246,1,0,0:0:0:0:
358,192,116331,1,2,0:0:0:0:
153,192,116331,1,0,0:0:0:0:
51,192,116503,1,0,0:0:0:0:
256,192,116503,1,0,0:0:0:0:
460,192,116503,1,8,0:0:0:0:
256,192,116674,1,0,0:0:0:0:
51,192,116674,1,8,0:0:0:0:
460,192,116674,1,0,0:0:0:0:
153,192,117017,1,2,0:0:0:0:
358,192,117017,1,4,0:0:0:0:
51,192,117017,128,0,118388:0:0:0:0:
256,192,117188,1,0,0:0:0:0:
153,192,117360,1,0,0:0:0:0:
460,192,117360,1,8,0:0:0:0:
358,192,117360,1,0,0:0:0:0:
256,192,117531,1,0,0:0:0:0:
460,192,117703,1,2,0:0:0:0:
358,192,117703,1,0,0:0:0:0:
256,192,117874,1,0,0:0:0:0:
153,192,118046,1,8,0:0:0:0:
460,192,118046,1,0,0:0:0:0:
358,192,118046,1,0,0:0:0:0:
256,192,118217,1,0,0:0:0:0:
460,192,118388,1,0,0:0:0:0:
153,192,118388,128,2,119074:0:0:0:0:
358,192,118560,1,0,0:0:0:0:
256,192,118731,1,0,0:0:0:0:
51,192,118731,1,8,0:0:0:0:
460,192,118731,1,0,0:0:0:0:
358,192,118903,1,0,0:0:0:0:
51,192,119074,1,2,0:0:0:0:
256,192,119074,128,0,119760:0:0:0:0:
460,192,119246,1,0,0:0:0:0:
153,192,119417,1,0,0:0:0:0:
358,192,119417,1,8,0:0:0:0:
51,192,119417,1,0,0:0:0:0:
153,192,119588,1,0,0:0:0:0:
51,192,119760,1,2,0:0:0:0:
460,192,119760,1,4,0:0:0:0:
358,192,119760,128,0,120446:0:0:0:0:
153,192,119931,1,0,0:0:0:0:
256,192,120103,1,0,0:0:0:0:
460,192,120103,1,8,0:0:0:0:
51,192,120103,1,0,0:0:0:0:
153,192,120274,1,0,0:0:0:0:
256,192,120446,1,2,0:0:0:0:
460,192,120446,128,0,120788:0:0:0:0:
153,192,120617,1,0,0:0:0:0:
358,192,120788,1,8,0:0:0:0:
51,192,120788,128,0,120960:0:0:0:0:
256,192,120788,1,0,0:0:0:0:
153,192,120960,128,0,121131:0:0:0:0:
460,192,121131,1,2,0:0:0:0:
256,192,121131,128,0,122503:0:0:0:0:
358,192,121303,1,0,0:0:0:0:
51,192,121474,1,8,0:0:0:0:
153,192,121474,1,0,0:0:0:0:
460,192,121474,1,0,0:0:0:0:
358,192,121646,1,0,0:0:0:0:
51,192,121817,1,2,0:0:0:0:
460,192,121817,1,0,0:0:0:0:
153,192,121988,1,0,0:0:0:0:
51,192,122160,1,0,0:0:0:0:
358,192,122160,1,8,0:0:0:0:
460,192,122160,1,0,0:0:0:0:
153,192,122331,1,0,0:0:0:0:
460,192,122503,1,2,0:0:0:0:
358,192,122503,1,4,0:0:0:0:
51,192,122503,128,0,122674:0:0:0:0:
153,192,122674,128,0,122846:0:0:0:0:
460,192,122846,1,8,0:0:0:0:
256,192,122846,128,0,123017:0:0:0:0:
460,192,123017,128,0,123188:0:0:0:0:
51,192,123188,1,8,0:0:0:0:
358,192,123188,128,0,123360:0:0:0:0:
256,192,123360,128,0,123531:0:0:0:0:
460,192,123531,1,8,0:0:0:0:
51,192,123531,128,0,123703:0:0:0:0:
153,192,123703,128,0,123874:0:0:0:0:
460,192,123874,1,4,0:0:0:0:
256,192,123874,128,0,124046:0:0:0:0:
358,192,123874,1,2,0:0:0:0:
460,192,124046,128,0,124217:0:0:0:0:
51,192,124217,1,8,0:0:0:0:
358,192,124217,128,0,124388:0:0:0:0:
256,192,124388,128,0,124560:0:0:0:0:
460,192,124560,1,8,0:0:0:0:
51,192,124560,128,0,124731:0:0:0:0:
153,192,124731,128,0,124903:0:0:0:0:
256,192,124903,1,8,0:0:0:0:
460,192,124903,128,0,125074:0:0:0:0:
358,192,125074,128,0,125246:0:0:0:0:
51,192,125246,128,4,125760:0:0:0:0:
256,192,125246,128,0,125760:0:0:0:0:
153,192,125246,1,2,0:0:0:0:
153,192,125760,128,0,126274:0:0:0:0:
460,192,125760,1,2,0:0:0:0:
358,192,125760,128,4,126274:0:0:0:0:
51,192,126274,1,4,0:0:0:0:
256,192,126274,128,2,126617:0:0:0:0:
460,192,126274,128,0,126617:0:0:0:0:
153,192,126617,1,2,0:0:0:0:
358,192,126617,128,4,126788:0:0:0:0:
51,192,126617,128,0,126788:0:0:0:0:
256,192,126960,1,2,0:0:0:0:
460,192,126960,128,0,127646:0:0:0:0:
153,192,126960,128,0,127646:0:0:0:0:
256,192,127646,1,0,0:0:0:0:
51,192,127646,1,8,0:0:0:0:
358,192,127646,1,0,0:0:0:0:
51,192,127988,1,2,0:0:0:0:
358,192,127988,1,4,0:0:0:0:
460,192,127988,1,0,0:0:0:0:
153,192,128160,1,0,0:0:0:0:
256,192,128331,1,8,0:0:0:0:
358,192,128331,1,0,0:0:0:0:
51,192,128503,1,0,0:0:0:0:
460,192,128674,1,2,0:0:0:0:
358,192,128674,1,0,0:0:0:0:
153,192,128846,1,0,0:0:0:0:
256,192,128846,128,0,129017:0:0:0:0:
51,192,129017,1,8,0:0:0:0:
460,192,129017,128,0,129188:0:0:0:0:
358,192,129188,1,0,0:0:0:0:
153,192,129188,128,0,129360:0:0:0:0:
256,192,129360,1,2,0:0:0:0:
153,192,129531,1,0,0:0:0:0:
51,192,129531,128,0,129703:0:0:0:0:
358,192,129703,1,8,0:0:0:0:
460,192,129703,128,0,129874:0:0:0:0:
256,192,129874,1,0,0:0:0:0:
153,192,129874,128,0,130046:0:0:0:0:
460,192,130046,1,2,0:0:0:0:
358,192,130046,128,0,130217:0:0:0:0:
51,192,130217,1,0,0:0:0:0:
153,192,130388,1,8,0:0:0:0:
256,192,130388,128,0,130560:0:0:0:0:
358,192,130560,1,0,0:0:0:0:
153,192,130731,128,0,130903:0:0:0:0:
51,192,130731,1,2,0:0:0:0:
460,192,130903,1,0,0:0:0:0:
358,192,131074,1,0,0:0:0:0:
256,192,131074,1,8,0:0:0:0:
51,192,131246,1,0,0:0:0:0:
153,192,131417,1,2,0:0:0:0:
460,192,131417,1,0,0:0:0:0:
358,192,131588,1,0,0:0:0:0:
51,192,131588,128,0,131760:0:0:0:0:
153,192,131760,1,8,0:0:0:0:
460,192,131760,128,0,131931:0:0:0:0:
256,192,131931,128,0,132103:0:0:0:0:
358,192,131931,1,0,0:0:0:0:
153,192,132103,1,2,0:0:0:0:
51,192,132103,1,0,0:0:0:0:
358,192,132188,1,0,0:0:0:0:
460,192,132274,1,0,0:0:0:0:
153,192,132446,1,8,0:0:0:0:
256,192,132446,1,0,0:0:0:0:
51,192,132617,1,0,0:0:0:0:
460,192,132703,1,0,0:0:0:0:
256,192,132788,1,2,0:0:0:0:
51,192,132788,1,0,0:0:0:0:
358,192,132874,1,0,0:0:0:0:
153,192,132960,128,0,133131:0:0:0:0:
460,192,132960,1,0,0:0:0:0:
460,192,133131,1,8,0:0:0:0:
256,192,133131,128,0,133303:0:0:0:0:
51,192,133303,1,0,0:0:0:0:
358,192,133303,128,0,133474:0:0:0:0:
153,192,133474,1,2,0:0:0:0:
460,192,133474,1,0,0:0:0:0:
256,192,133560,1,0,0:0:0:0:
51,192,133646,1,0,0:0:0:0:
153,192,133731,1,0,0:0:0:0:
256,192,133817,1,8,0:0:0:0:
358,192,133817,1,0,0:0:0:0:
460,192,133903,1,0,0:0:0:0:
51,192,133988,1,0,0:0:0:0:
153,192,134074,1,0,0:0:0:0:
358,192,134160,1,2,0:0:0:0:
460,192,134160,1,0,0:0:0:0:
256,192,134331,1,0,0:0:0:0:
153,192,134331,128,0,134503:0:0:0:0:
358,192,134503,1,8,0:0:0:0:
460,192,134503,128,0,134674:0:0:0:0:
153,192,134674,1,0,0:0:0:0:
51,192,134674,128,0,134846:0:0:0:0:
460,192,134846,1,2,0:0:0:0:
256,192,135017,1,0,0:0:0:0:
153,192,135017,128,0,135188:0:0:0:0:
358,192,135188,128,0,135360:0:0:0:0:
51,192,135188,1,8,0:0:0:0:
153,192,135360,1,0,0:0:0:0:
256,192,135360,128,0,135531:0:0:0:0:
51,192,135531,1,2,0:0:0:0:
460,192,135531,128,0,135703:0:0:0:0:
358,192,135703,1,0,0:0:0:0:
256,192,135874,1,8,0:0:0:0:
153,192,135874,128,0,136046:0:0:0:0:
358,192,136046,1,0,0:0:0:0:
51,192,136217,1,2,0:0:0:0:
460,192,136217,128,0,136388:0:0:0:0:
153,192,136388,1,0,0:0:0:0:
460,192,136560,128,8,136731:0:0:0:0:
358,192,136560,1,0,0:0:0:0:
51,192,136731,1,0,0:0:0:0:
153,192,136817,1,0,0:0:0:0:
256,192,136903,1,2,0:0:0:0:
460,192,136903,128,0,137074:0:0:0:0:
153,192,137074,1,0,0:0:0:0:
358,192,137246,1,8,0:0:0:0:
460,192,137246,128,0,137417:0:0:0:0:
256,192,137417,1,0,0:0:0:0:
51,192,137588,1,2,0:0:0:0:
460,192,137588,128,0,137760:0:0:0:0:
358,192,137760,1,0,0:0:0:0:
153,192,137931,1,8,0:0:0:0:
460,192,137931,128,0,138274:0:0:0:0:
256,192,138103,1,0,0:0:0:0:
358,192,138274,1,2,0:0:0:0:
153,192,138274,128,0,138446:0:0:0:0:
256,192,138446,1,0,0:0:0:0:
51,192,138446,128,0,138617:0:0:0:0:
358,192,138617,1,8,0:0:0:0:
153,192,138617,1,0,0:0:0:0:
460,192,138617,128,0,138788:0:0:0:0:
51,192,138788,1,0,0:0:0:0:
358,192,138788,128,0,138960:0:0:0:0:
256,192,138960,1,4,0:0:0:0:
460,192,138960,1,0,0:0:0:0:
153,192,138960,1,2,0:0:0:0:
51,192,139131,1,0,0:0:0:0:
153,192,139217,1,0,0:0:0:0:
358,192,139303,1,8,0:0:0:0:
256,192,139303,1,0,0:0:0:0:
460,192,139388,1,0,0:0:0:0:
51,192,139474,1,0,0:0:0:0:
153,192,139560,1,0,0:0:0:0:
460,192,139646,1,2,0:0:0:0:
358,192,139646,1,0,0:0:0:0:
51,192,139817,1,0,0:0:0:0:
256,192,139817,128,0,139988:0:0:0:0:
153,192,139988,1,8,0:0:0:0:
358,192,139988,128,0,140160:0:0:0:0:
256,192,140160,1,0,0:0:0:0:
460,192,140160,128,0,140331:0:0:0:0:
153,192,140331,1,2,0:0:0:0:
51,192,140331,1,0,0:0:0:0:
460,192,140503,1,0,0:0:0:0:
358,192,140503,128,0,140674:0:0:0:0:
51,192,140674,1,8,0:0:0:0:
256,192,140674,128,0,140846:0:0:0:0:
460,192,140846,1,0,0:0:0:0:
153,192,140846,128,0,141017:0:0:0:0:
358,192,141017,1,2,0:0:0:0:
51,192,141017,128,0,141188:0:0:0:0:
256,192,141188,1,0,0:0:0:0:
153,192,141360,1,8,0:0:0:0:
460,192,141360,128,0,141531:0:0:0:0:
51,192,141531,1,0,0:0:0:0:
256,192,141703,1,2,0:0:0:0:
358,192,141703,1,4,0:0:0:0:
153,192,141703,1,0,0:0:0:0:
460,192,142046,1,2,0:0:0:0:
358,192,142046,1,0,0:0:0:0:
51,192,142217,1,2,0:0:0:0:
153,192,142217,1,4,0:0:0:0:
256,192,142217,1,0,0:0:0:0:
358,192,142560,1,4,0:0:0:0:
460,192,142560,1,0,0:0:0:0:
256,192,142560,1,2,0:0:0:0:
256,192,142903,1,4,0:0:0:0:
153,192,142903,1,2,0:0:0:0:
51,192,142903,128,0,143246:0:0:0:0:
460,192,143246,1,0,0:0:0:0:
358,192,143331,1,0,0:0:0:0:
256,192,143417,1,0,0:0:0:0:
51,192,143503,1,0,0:0:0:0:
153,192,143588,1,0,0:0:0:0:
256,192,143674,1,0,0:0:0:0:
460,192,143760,1,2,0:0:0:0:
358,192,143760,128,0,143846:0:0:0:0:
51,192,143931,1,0,0:0:0:0:
153,192,143931,128,0,144017:0:0:0:0:
358,192,144103,1,0,0:0:0:0:
256,192,144103,1,8,0:0:0:0:
460,192,144103,128,0,144188:0:0:0:0:
153,192,144274,1,0,0:0:0:0:
51,192,144274,128,0,144360:0:0:0:0:
460,192,144446,1,4,0:0:0:0:
358,192,144446,1,8,0:0:0:0:
256,192,144446,1,0,0:0:0:0:
51,192,144617,1,0,0:0:0:0:
153,192,144703,1,0,0:0:0:0:
256,192,144703,1,0,0:0:0:0:
460,192,144788,1,8,0:0:0:0:
51,192,144874,5,0,0:0:0:0:
358,192,144874,1,0,0:0:0:0:
153,192,144960,1,0,0:0:0:0:
256,192,145046,1,0,0:0:0:0:
460,192,145046,1,0,0:0:0:0:
51,192,145131,1,8,0:0:0:0:
153,192,145303,1,0,0:0:0:0:
51,192,145303,128,0,145474:0:0:0:0:
256,192,145474,1,8,0:0:0:0:
358,192,145474,128,0,145646:0:0:0:0:
460,192,145646,1,0,0:0:0:0:
153,192,145646,128,0,145817:0:0:0:0:
256,192,145817,5,0,0:0:0:0:
51,192,145817,1,4,0:0:0:0:
358,192,145817,1,2,0:0:0:0:
153,192,145988,1,8,0:0:0:0:
460,192,145988,128,0,146160:0:0:0:0:
51,192,146160,1,8,0:0:0:0:
256,192,146160,128,0,146331:0:0:0:0:
358,192,146331,1,8,0:0:0:0:
51,192,146331,128,0,146503:0:0:0:0:
153,192,146503,1,8,0:0:0:0:
460,192,146503,128,0,146674:0:0:0:0:
256,192,146674,1,0,0:0:0:0:
358,192,146674,1,8,0:0:0:0:
51,192,146846,1,8,0:0:0:0:
153,192,146846,128,0,147017:0:0:0:0:
460,192,147017,1,8,0:0:0:0:
358,192,147017,1,0,0:0:0:0:
51,192,147188,5,2,0:0:0:0:
153,192,147188,1,0,0:0:0:0:
256,192,147188,1,4,0:0:0:0:
460,192,147274,1,0,0:0:0:0:
153,192,147360,1,0,0:0:0:0:
358,192,147360,1,2,0:0:0:0:
51,192,147446,1,0,0:0:0:0:
460,192,147531,1,2,0:0:0:0:
256,192,147531,1,0,0:0:0:0:
358,192,147617,1,0,0:0:0:0:
153,192,147703,1,2,0:0:0:0:
51,192,147703,1,0,0:0:0:0:
256,192,147788,1,0,0:0:0:0:
460,192,147874,1,0,0:0:0:0:
358,192,147874,1,2,0:0:0:0:
153,192,147960,1,0,0:0:0:0:
256,192,148046,1,2,0:0:0:0:
460,192,148046,1,0,0:0:0:0:
51,192,148131,1,0,0:0:0:0:
153,192,148217,1,2,0:0:0:0:
358,192,148217,1,0,0:0:0:0:
460,192,148388,1,4,0:0:0:0:
256,192,148388,1,0,0:0:0:0:
51,192,148388,1,2,0:0:0:0:
460,192,148731,1,0,0:0:0:0:
358,192,148731,1,2,0:0:0:0:
153,192,148731,1,4,0:0:0:0:
460,192,148903,5,2,0:0:0:0:
358,192,148903,1,0,0:0:0:0:
153,192,148903,1,4,0:0:0:0:
460,192,149074,1,0,0:0:0:0:
358,192,149074,1,2,0:0:0:0:
153,192,149074,1,4,0:0:0:0:
460,192,149246,1,2,0:0:0:0:
358,192,149246,1,0,0:0:0:0:
153,192,149246,1,4,0:0:0:0:
256,192,149417,1,0,0:0:0:0:
460,192,149588,1,0,0:0:0:0:
51,192,149674,1,0,0:0:0:0:
358,192,149760,1,0,0:0:0:0:
153,192,149846,1,0,0:0:0:0:
51,192,149931,5,2,0:0:0:0:
256,192,149931,1,0,0:0:0:0:
460,192,149931,1,4,0:0:0:0:
358,192,150103,1,0,0:0:0:0:
153,192,150274,1,2,0:0:0:0:
256,192,150274,1,0,0:0:0:0:
460,192,150446,1,0,0:0:0:0:
358,192,150617,1,2,0:0:0:0:
51,192,150617,1,0,0:0:0:0:
256,192,150788,1,0,0:0:0:0:
358,192,150960,1,0,0:0:0:0:
153,192,150960,1,2,0:0:0:0:
460,192,151131,1,0,0:0:0:0:
51,192,151303,1,2,0:0:0:0:
256,192,151303,1,0,0:0:0:0:
153,192,151474,1,0,0:0:0:0:
358,192,151646,1,2,0:0:0:0:
256,192,151646,1,0,0:0:0:0:
460,192,151817,1,0,0:0:0:0:
51,192,151988,1,0,0:0:0:0:
153,192,151988,1,2,0:0:0:0:
358,192,152160,1,0,0:0:0:0:
256,192,152331,1,0,0:0:0:0:
460,192,152331,1,2,0:0:0:0:
153,192,152503,1,0,0:0:0:0:
51,192,152674,1,2,0:0:0:0:
256,192,152674,1,0,0:0:0:0:
460,192,152846,1,0,0:0:0:0:
153,192,153017,1,0,0:0:0:0:
358,192,153017,1,2,0:0:0:0:
256,192,153188,1,0,0:0:0:0:
460,192,153360,1,2,0:0:0:0:
358,192,153360,1,0,0:0:0:0:
51,192,153531,1,0,0:0:0:0:
256,192,153703,1,2,0:0:0:0:
153,192,153703,1,0,0:0:0:0:
358,192,153874,1,0,0:0:0:0:
51,192,154046,1,2,0:0:0:0:
460,192,154046,1,0,0:0:0:0:
153,192,154217,1,0,0:0:0:0:
256,192,154388,1,0,0:0:0:0:
358,192,154388,1,2,0:0:0:0:
51,192,154560,1,0,0:0:0:0:
256,192,154731,1,2,0:0:0:0:
460,192,154731,128,0,154903:0:0:0:0:
358,192,154903,1,0,0:0:0:0:
153,192,154903,128,0,155074:0:0:0:0:
460,192,155074,1,2,0:0:0:0:
51,192,155074,128,0,155246:0:0:0:0:
256,192,155246,1,0,0:0:0:0:
358,192,155246,128,0,155417:0:0:0:0:
153,192,155417,1,2,0:0:0:0:
460,192,155417,1,0,0:0:0:0:
256,192,155588,1,0,0:0:0:0:
460,192,155760,1,0,0:0:0:0:
51,192,155760,1,2,0:0:0:0:
358,192,155931,1,0,0:0:0:0:
460,192,156103,1,2,0:0:0:0:
256,192,156103,1,0,0:0:0:0:
358,192,156274,1,0,0:0:0:0:
153,192,156446,1,2,0:0:0:0:
256,192,156446,1,0,0:0:0:0:
51,192,156617,1,0,0:0:0:0:
358,192,156788,1,2,0:0:0:0:
460,192,156788,1,0,0:0:0:0:
153,192,156960,1,0,0:0:0:0:
358,192,157131,1,0,0:0:0:0:
51,192,157131,1,2,0:0:0:0:
256,192,157303,1,0,0:0:0:0:
153,192,157474,1,0,0:0:0:0:
460,192,157474,128,0,158160:0:0:0:0:
256,192,157646,1,0,0:0:0:0:
51,192,157817,1,2,0:0:0:0:
358,192,157817,1,0,0:0:0:0:
153,192,157988,1,0,0:0:0:0:
256,192,158160,1,2,0:0:0:0:
358,192,158160,1,4,0:0:0:0:
51,192,158160,128,0,158674:0:0:0:0:
460,192,158674,128,0,159531:0:0:0:0:
358,192,158674,1,2,0:0:0:0:
153,192,158674,1,4,0:0:0:0:
256,192,159531,128,0,160046:0:0:0:0:
153,192,159531,1,4,0:0:0:0:
51,192,159531,1,2,0:0:0:0:
153,192,160046,1,0,0:0:0:0:
358,192,160046,1,2,0:0:0:0:
460,192,160046,1,4,0:0:0:0:
51,192,160217,1,0,0:0:0:0:
153,192,160303,1,0,0:0:0:0:
256,192,160388,1,0,0:0:0:0:
358,192,160474,1,0,0:0:0:0:
460,192,160560,1,0,0:0:0:0:
51,192,160731,1,0,0:0:0:0:
153,192,160817,1,0,0:0:0:0:
460,192,160903,1,0,0:0:0:0:
256,192,160903,1,2,0:0:0:0:
358,192,160903,1,4,0:0:0:0:
153,192,161074,1,0,0:0:0:0:
51,192,161246,1,2,0:0:0:0:
256,192,161246,1,0,0:0:0:0:
460,192,161417,1,0,0:0:0:0:
153,192,161588,1,2,0:0:0:0:
358,192,161588,1,0,0:0:0:0:
51,192,161760,1,0,0:0:0:0:
460,192,161931,1,0,0:0:0:0:
256,192,161931,1,2,0:0:0:0:
153,192,162103,1,0,0:0:0:0:
51,192,162274,1,0,0:0:0:0:
358,192,162274,1,2,0:0:0:0:
256,192,162446,1,0,0:0:0:0:
51,192,162617,1,2,0:0:0:0:
460,192,162617,1,0,0:0:0:0:
153,192,162788,1,0,0:0:0:0:
358,192,162960,1,0,0:0:0:0:
256,192,162960,1,2,0:0:0:0:
51,192,163131,1,0,0:0:0:0:
460,192,163303,1,0,0:0:0:0:
256,192,163303,1,2,0:0:0:0:
51,192,163474,1,0,0:0:0:0:
358,192,163646,1,0,0:0:0:0:
153,192,163646,1,2,0:0:0:0:
256,192,163646,1,4,0:0:0:0:
460,192,163817,1,0,0:0:0:0:
51,192,163988,1,2,0:0:0:0:
153,192,163988,1,0,0:0:0:0:
460,192,164160,1,0,0:0:0:0:
256,192,164331,1,0,0:0:0:0:
358,192,164331,1,2,0:0:0:0:
153,192,164503,1,0,0:0:0:0:
460,192,164674,1,2,0:0:0:0:
51,192,164674,1,0,0:0:0:0:
358,192,164846,1,0,0:0:0:0:
51,192,165017,5,0,0:0:0:0:
256,192,165017,1,2,0:0:0:0:
460,192,165188,1,0,0:0:0:0:
358,192,165360,1,0,0:0:0:0:
153,192,165360,1,2,0:0:0:0:
51,192,165531,1,0,0:0:0:0:
460,192,165703,1,2,0:0:0:0:
256,192,165703,128,0,165874:0:0:0:0:
358,192,165874,1,0,0:0:0:0:
153,192,165874,128,0,166046:0:0:0:0:
51,192,166046,128,0,166217:0:0:0:0:
256,192,166046,1,2,0:0:0:0:
358,192,166217,1,8,0:0:0:0:
460,192,166217,1,0,0:0:0:0:
153,192,166303,1,8,0:0:0:0:
256,192,166303,1,0,0:0:0:0:
51,192,166388,1,4,0:0:0:0:
460,192,166388,1,2,0:0:0:0:
358,192,166388,1,0,0:0:0:0:
256,192,166560,1,0,0:0:0:0:
358,192,166731,1,2,0:0:0:0:
153,192,166731,1,0,0:0:0:0:
51,192,166903,1,0,0:0:0:0:
256,192,167074,1,0,0:0:0:0:
460,192,167074,1,2,0:0:0:0:
358,192,167246,1,0,0:0:0:0:
153,192,167417,1,2,0:0:0:0:
460,192,167417,1,0,0:0:0:0:
256,192,167588,1,0,0:0:0:0:
358,192,167760,1,4,0:0:0:0:
51,192,167760,1,2,0:0:0:0:
153,192,167760,1,0,0:0:0:0:
460,192,167931,1,0,0:0:0:0:
358,192,168103,1,0,0:0:0:0:
256,192,168103,1,2,0:0:0:0:
153,192,168274,1,0,0:0:0:0:
51,192,168446,1,0,0:0:0:0:
460,192,168446,1,2,0:0:0:0:
256,192,168617,1,0,0:0:0:0:
358,192,168788,1,0,0:0:0:0:
153,192,168788,1,2,0:0:0:0:
460,192,168960,1,0,0:0:0:0:
153,192,169131,1,0,0:0:0:0:
358,192,169131,1,4,0:0:0:0:
256,192,169131,1,2,0:0:0:0:
51,192,169474,1,4,0:0:0:0:
460,192,169474,1,2,0:0:0:0:
358,192,169474,1,0,0:0:0:0:
51,192,169646,1,0,0:0:0:0:
153,192,169646,1,4,0:0:0:0:
460,192,169646,1,2,0:0:0:0:
358,192,169988,1,2,0:0:0:0:
460,192,169988,128,0,170503:0:0:0:0:
153,192,169988,1,4,0:0:0:0:
256,192,170503,1,4,0:0:0:0:
358,192,170503,128,0,171017:0:0:0:0:
51,192,170503,1,2,0:0:0:0:
153,192,171017,1,2,0:0:0:0:
460,192,171017,1,4,0:0:0:0:
256,192,171017,1,0,0:0:0:0:
153,192,171188,1,2,0:0:0:0:
51,192,171188,128,0,171874:0:0:0:0:
256,192,171188,1,4,0:0:0:0:
256,192,171874,1,0,0:0:0:0:
460,192,171874,1,2,0:0:0:0:
358,192,171874,1,4,0:0:0:0:
153,192,172046,1,0,0:0:0:0:
256,192,172217,1,0,0:0:0:0:
358,192,172388,1,2,0:0:0:0:
460,192,172388,1,0,0:0:0:0:
358,192,172560,1,0,0:0:0:0:
460,192,172560,1,2,0:0:0:0:
153,192,172731,1,0,0:0:0:0:
256,192,172903,1,8,0:0:0:0:
51,192,172903,1,0,0:0:0:0:
358,192,172903,1,0,0:0:0:0:
460,192,173074,1,0,0:0:0:0:
358,192,173246,1,0,0:0:0:0:
153,192,173246,1,2,0:0:0:0:
51,192,173417,1,0,0:0:0:0:
460,192,173588,1,0,0:0:0:0:
358,192,173760,1,2,0:0:0:0:
256,192,173760,1,0,0:0:0:0:
256,192,173931,1,2,0:0:0:0:
358,192,173931,1,0,0:0:0:0:
153,192,174103,1,0,0:0:0:0:
460,192,174274,1,0,0:0:0:0:
51,192,174274,1,8,0:0:0:0:
256,192,174274,1,0,0:0:0:0:
358,192,174446,1,0,0:0:0:0:
153,192,174617,1,2,0:0:0:0:
460,192,174617,1,0,0:0:0:0:
358,192,174788,1,0,0:0:0:0:
51,192,174960,1,0,0:0:0:0:
153,192,175131,1,0,0:0:0:0:
256,192,175131,1,2,0:0:0:0:
256,192,175303,1,0,0:0:0:0:
153,192,175303,1,2,0:0:0:0:
358,192,175474,1,0,0:0:0:0:
51,192,175646,1,0,0:0:0:0:
256,192,175646,1,0,0:0:0:0:
460,192,175646,1,8,0:0:0:0:
153,192,175817,1,0,0:0:0:0:
460,192,175988,1,0,0:0:0:0:
51,192,175988,1,2,0:0:0:0:
358,192,176160,1,0,0:0:0:0:
256,192,176331,1,0,0:0:0:0:
153,192,176503,1,2,0:0:0:0:
51,192,176503,1,0,0:0:0:0:
51,192,176674,1,2,0:0:0:0:
153,192,176674,1,0,0:0:0:0:
358,192,176846,1,0,0:0:0:0:
256,192,177017,1,8,0:0:0:0:
460,192,177017,1,0,0:0:0:0:
51,192,177017,1,0,0:0:0:0:
358,192,177188,1,0,0:0:0:0:
153,192,177188,1,0,0:0:0:0:
256,192,177360,1,0,0:0:0:0:
460,192,177360,1,2,0:0:0:0:
51,192,177360,1,4,0:0:0:0:
153,192,177531,1,0,0:0:0:0:
358,192,177703,1,2,0:0:0:0:
256,192,177703,1,0,0:0:0:0:
51,192,177874,1,0,0:0:0:0:
153,192,178046,1,2,0:0:0:0:
460,192,178046,1,0,0:0:0:0:
358,192,178217,1,0,0:0:0:0:
51,192,178388,1,2,0:0:0:0:
256,192,178388,1,0,0:0:0:0:
460,192,178560,1,0,0:0:0:0:
153,192,178731,1,0,0:0:0:0:
358,192,178731,1,2,0:0:0:0:
51,192,178903,1,0,0:0:0:0:
460,192,179074,1,2,0:0:0:0:
256,192,179074,1,0,0:0:0:0:
358,192,179246,1,0,0:0:0:0:
153,192,179417,1,2,0:0:0:0:
51,192,179417,1,0,0:0:0:0:
460,192,179588,1,0,0:0:0:0:
358,192,179760,1,0,0:0:0:0:
256,192,179760,1,2,0:0:0:0:
51,192,179931,1,0,0:0:0:0:
358,192,180103,1,4,0:0:0:0:
460,192,180103,128,0,180617:0:0:0:0:
153,192,180103,1,2,0:0:0:0:
358,192,180617,128,0,181303:0:0:0:0:
51,192,180617,1,4,0:0:0:0:
256,192,180617,1,2,0:0:0:0:
256,192,181303,128,0,182160:0:0:0:0:
460,192,181303,1,4,0:0:0:0:
153,192,181303,1,2,0:0:0:0:
153,192,182160,1,4,0:0:0:0:
460,192,182160,1,0,0:0:0:0:
358,192,182160,1,2,0:0:0:0:
51,192,182331,1,0,0:0:0:0:
153,192,182417,1,0,0:0:0:0:
256,192,182503,1,0,0:0:0:0:
358,192,182588,1,0,0:0:0:0:
460,192,182674,1,0,0:0:0:0:
358,192,182760,1,0,0:0:0:0:
51,192,182846,128,0,183360:0:0:0:0:
256,192,182846,1,4,0:0:0:0:
153,192,182846,1,2,0:0:0:0:
256,192,183360,128,0,184046:0:0:0:0:
358,192,183360,1,2,0:0:0:0:
460,192,183360,1,4,0:0:0:0:
358,192,184046,128,0,184903:0:0:0:0:
153,192,184046,1,2,0:0:0:0:
51,192,184046,1,4,0:0:0:0:
51,192,184903,1,0,0:0:0:0:
256,192,184903,1,2,0:0:0:0:
460,192,184903,1,4,0:0:0:0:
358,192,185160,1,0,0:0:0:0:
460,192,185246,1,0,0:0:0:0:
256,192,185417,1,0,0:0:0:0:
153,192,185503,1,0,0:0:0:0:
51,192,185588,1,8,0:0:0:0:
256,192,185588,1,0,0:0:0:0:
358,192,185588,1,4,0:0:0:0:
153,192,185760,1,0,0:0:0:0:
460,192,185931,1,8,0:0:0:0:
256,192,185931,1,0,0:0:0:0:
51,192,185931,1,0,0:0:0:0:
358,192,186103,1,0,0:0:0:0:
51,192,186274,1,8,0:0:0:0:
256,192,186274,1,0,0:0:0:0:
153,192,186274,1,0,0:0:0:0:
460,192,186446,1,0,0:0:0:0:
153,192,186617,1,8,0:0:0:0:
358,192,186617,1,0,0:0:0:0:
256,192,186617,1,0,0:0:0:0:
51,192,186788,1,0,0:0:0:0:
256,192,186960,5,0,0:0:0:0:
358,192,186960,1,4,0:0:0:0:
460,192,186960,1,2,0:0:0:0:
153,192,186960,1,0,0:0:0:0:
153,192,187131,1,4,0:0:0:0:
256,192,187131,1,2,0:0:0:0:
358,192,187131,1,0,0:0:0:0:
51,192,187131,1,0,0:0:0:0:
358,192,187303,1,2,0:0:0:0:
153,192,187303,1,0,0:0:0:0:
256,192,187303,1,4,0:0:0:0:
460,192,187303,1,0,0:0:0:0:
51,192,188331,1,2,0:0:0:0:
358,192,188331,1,4,0:0:0:0:
460,192,188331,128,0,189703:0:0:0:0:
153,192,188503,1,0,0:0:0:0:
358,192,188674,1,0,0:0:0:0:
256,192,188674,1,2,0:0:0:0:
51,192,188846,1,0,0:0:0:0:
256,192,189017,1,0,0:0:0:0:
153,192,189017,1,2,0:0:0:0:
358,192,189188,1,0,0:0:0:0:
153,192,189360,1,0,0:0:0:0:
51,192,189360,1,2,0:0:0:0:
256,192,189531,1,0,0:0:0:0:
51,192,189703,128,0,190388:0:0:0:0:
358,192,189703,1,2,0:0:0:0:
256,192,189874,1,0,0:0:0:0:
358,192,190046,1,0,0:0:0:0:
153,192,190046,1,2,0:0:0:0:
256,192,190217,1,0,0:0:0:0:
358,192,190388,128,0,191074:0:0:0:0:
460,192,190388,1,2,0:0:0:0:
256,192,190560,1,0,0:0:0:0:
51,192,190731,1,2,0:0:0:0:
153,192,190731,1,0,0:0:0:0:
460,192,190903,1,0,0:0:0:0:
153,192,191074,128,0,192103:0:0:0:0:
256,192,191074,1,2,0:0:0:0:
460,192,191246,1,0,0:0:0:0:
358,192,191417,1,2,0:0:0:0:
51,192,191417,1,0,0:0:0:0:
256,192,191588,1,0,0:0:0:0:
51,192,191760,1,0,0:0:0:0:
460,192,191760,1,2,0:0:0:0:
358,192,191931,1,0,0:0:0:0:
256,192,192103,1,2,0:0:0:0:
460,192,192103,128,0,192274:0:0:0:0:
358,192,192274,128,0,192446:0:0:0:0:
256,192,192446,128,0,193131:0:0:0:0:
51,192,192446,1,2,0:0:0:0:
153,192,192617,128,0,192788:0:0:0:0:
358,192,192788,1,2,0:0:0:0:
51,192,192788,128,0,192960:0:0:0:0:
460,192,192960,128,0,193131:0:0:0:0:
358,192,193131,128,2,193817:0:0:0:0:
153,192,193131,1,0,0:0:0:0:
460,192,193303,1,0,0:0:0:0:
51,192,193474,1,2,0:0:0:0:
256,192,193474,1,0,0:0:0:0:
153,192,193646,1,0,0:0:0:0:
460,192,193817,128,2,195188:0:0:0:0:
51,192,193817,1,0,0:0:0:0:
153,192,193988,1,0,0:0:0:0:
358,192,194160,1,2,0:0:0:0:
256,192,194160,1,0,0:0:0:0:
153,192,194331,1,0,0:0:0:0:
358,192,194503,1,0,0:0:0:0:
51,192,194503,1,2,0:0:0:0:
256,192,194674,1,0,0:0:0:0:
153,192,194846,1,2,0:0:0:0:
51,192,194846,1,0,0:0:0:0:
256,192,195017,1,0,0:0:0:0:
51,192,195188,128,0,195874:0:0:0:0:
358,192,195188,1,2,0:0:0:0:
153,192,195360,1,0,0:0:0:0:
358,192,195531,1,0,0:0:0:0:
256,192,195531,1,2,0:0:0:0:
460,192,195703,1,0,0:0:0:0:
153,192,195874,128,0,196046:0:0:0:0:
358,192,195874,1,2,0:0:0:0:
256,192,196046,128,0,196217:0:0:0:0:
358,192,196217,128,0,196388:0:0:0:0:
51,192,196217,1,2,0:0:0:0:
460,192,196388,128,0,196560:0:0:0:0:
153,192,196388,1,0,0:0:0:0:
256,192,196560,5,2,0:0:0:0:
51,192,196560,1,0,0:0:0:0:
358,192,196560,1,4,0:0:0:0:
51,192,196903,1,4,0:0:0:0:
153,192,196903,1,2,0:0:0:0:
256,192,196903,1,0,0:0:0:0:
358,192,197074,1,2,0:0:0:0:
256,192,197074,1,0,0:0:0:0:
153,192,197074,1,4,0:0:0:0:
51,192,197417,1,0,0:0:0:0:
460,192,197417,1,2,0:0:0:0:
256,192,197417,1,4,0:0:0:0:
358,192,197760,1,2,0:0:0:0:
51,192,197760,1,4,0:0:0:0:
153,192,197760,1,0,0:0:0:0:
153,192,198103,1,2,0:0:0:0:
460,192,198103,1,4,0:0:0:0:
358,192,198103,1,0,0:0:0:0:
358,192,198274,1,2,0:0:0:0:
460,192,198274,1,0,0:0:0:0:
153,192,198274,1,4,0:0:0:0:
51,192,198446,1,0,0:0:0:0:
51,192,198531,1,0,0:0:0:0:
256,192,198617,1,2,0:0:0:0:
460,192,198617,1,0,0:0:0:0:
51,192,198788,1,0,0:0:0:30:soft-hitclap3.wav
358,192,198788,1,0,0:0:0:30:soft-hitclap3.wav
153,192,198788,1,0,0:0:0:0:
51,192,198960,1,0,0:0:0:30:soft-hitclap3.wav
358,192,198960,1,0,0:0:0:30:soft-hitclap3.wav
153,192,198960,1,0,0:0:0:0:
460,192,199303,1,4,0:0:0:0:
256,192,199303,1,2,0:0:0:0:
153,192,199303,128,0,200674:0:0:0:0:
358,192,199474,1,0,0:0:0:0:
358,192,199646,1,8,0:0:0:0:
460,192,199646,1,0,0:0:0:0:
51,192,199646,1,0,0:0:0:0:
256,192,199817,1,0,0:0:0:0:
358,192,199988,1,0,0:0:0:0:
51,192,199988,1,2,0:0:0:0:
460,192,200160,1,0,0:0:0:0:
358,192,200331,1,0,0:0:0:0:
256,192,200331,1,8,0:0:0:0:
51,192,200331,1,0,0:0:0:0:
460,192,200503,1,0,0:0:0:0:
51,192,200674,128,2,201360:0:0:0:0:
256,192,200674,1,0,0:0:0:0:
358,192,200846,1,0,0:0:0:0:
153,192,201017,1,0,0:0:0:0:
460,192,201017,1,8,0:0:0:0:
256,192,201017,1,0,0:0:0:0:
358,192,201188,1,0,0:0:0:0:
153,192,201360,128,0,202046:0:0:0:0:
460,192,201360,1,2,0:0:0:0:
358,192,201531,1,0,0:0:0:0:
358,192,201703,1,0,0:0:0:0:
256,192,201703,1,8,0:0:0:0:
460,192,201703,1,0,0:0:0:0:
51,192,201874,1,0,0:0:0:0:
256,192,202046,128,4,202731:0:0:0:0:
358,192,202046,1,2,0:0:0:0:
51,192,202046,1,0,0:0:0:0:
460,192,202217,1,0,0:0:0:0:
51,192,202388,1,8,0:0:0:0:
358,192,202388,1,0,0:0:0:0:
460,192,202388,1,0,0:0:0:0:
153,192,202560,1,0,0:0:0:0:
460,192,202731,128,2,203074:0:0:0:0:
358,192,202731,1,0,0:0:0:0:
256,192,202903,1,0,0:0:0:0:
358,192,203074,128,0,203246:0:0:0:0:
153,192,203074,1,8,0:0:0:0:
51,192,203074,1,0,0:0:0:0:
256,192,203246,128,0,203417:0:0:0:0:
153,192,203417,128,0,204788:0:0:0:0:
460,192,203417,1,2,0:0:0:0:
51,192,203588,1,0,0:0:0:0:
256,192,203760,1,0,0:0:0:0:
358,192,203760,1,8,0:0:0:0:
460,192,203760,1,0,0:0:0:0:
51,192,203931,1,0,0:0:0:0:
256,192,204103,1,2,0:0:0:0:
460,192,204103,1,0,0:0:0:0:
358,192,204274,1,0,0:0:0:0:
256,192,204446,1,0,0:0:0:0:
460,192,204446,1,8,0:0:0:0:
51,192,204446,1,0,0:0:0:0:
358,192,204617,1,0,0:0:0:0:
256,192,204788,5,4,0:0:0:0:
51,192,204788,1,2,0:0:0:0:
460,192,204788,128,0,204960:0:0:0:0:
358,192,204960,128,0,205131:0:0:0:0:
51,192,205131,1,8,0:0:0:0:
256,192,205131,128,0,205303:0:0:0:0:
51,192,205303,128,0,205474:0:0:0:0:
153,192,205474,128,0,205646:0:0:0:0:
460,192,205474,1,8,0:0:0:0:
256,192,205646,128,0,205817:0:0:0:0:
51,192,205817,1,8,0:0:0:0:
460,192,205817,128,0,205988:0:0:0:0:
358,192,205988,128,0,206160:0:0:0:0:
51,192,206160,1,4,0:0:0:0:
153,192,206160,1,2,0:0:0:0:
256,192,206160,128,0,206331:0:0:0:0:
51,192,206331,128,0,206503:0:0:0:0:
153,192,206503,128,0,206674:0:0:0:0:
460,192,206503,1,8,0:0:0:0:
256,192,206674,128,0,206846:0:0:0:0:
51,192,206846,1,8,0:0:0:0:
460,192,206846,128,0,207017:0:0:0:0:
358,192,207017,128,0,207188:0:0:0:0:
51,192,207188,128,0,207360:0:0:0:0:
256,192,207188,1,8,0:0:0:0:
153,192,207360,128,0,207531:0:0:0:0:
460,192,207531,128,2,208046:0:0:0:0:
256,192,207531,128,0,208046:0:0:0:0:
358,192,207531,1,4,0:0:0:0:
358,192,208046,128,0,208560:0:0:0:0:
51,192,208046,1,2,0:0:0:0:
153,192,208046,128,4,208560:0:0:0:0:
256,192,208560,128,2,208903:0:0:0:0:
460,192,208560,1,4,0:0:0:0:
51,192,208560,128,0,208903:0:0:0:0:
153,192,208903,128,2,209074:0:0:0:0:
460,192,208903,128,0,209074:0:0:0:0:
358,192,208903,1,4,0:0:0:0:
51,192,209246,128,2,209931:0:0:0:0:
358,192,209246,128,0,209931:0:0:0:0:
256,192,209246,1,4,0:0:0:0:
153,192,210274,1,2,0:0:0:0:
256,192,210274,1,0,0:0:0:0:
460,192,210274,1,4,0:0:0:0:
358,192,212674,1,0,0:0:0:20:soft-hitclap3.wav
51,192,212674,1,0,0:0:0:20:soft-hitclap3.wav
256,192,212674,1,0,0:0:0:20:soft-hitclap3.wav
256,192,213017,1,2,0:0:0:0:
460,192,213017,1,4,0:0:0:0:
153,192,213017,128,0,214388:0:0:0:0:
51,192,213188,1,0,0:0:0:0:
256,192,213360,1,0,0:0:0:0:
358,192,213531,1,0,0:0:0:0:
256,192,213703,1,8,0:0:0:0:
460,192,213703,1,0,0:0:0:0:
358,192,213874,1,0,0:0:0:0:
51,192,214046,1,0,0:0:0:0:
256,192,214217,1,2,0:0:0:0:
51,192,214388,128,0,215760:0:0:0:0:
358,192,214388,1,0,0:0:0:0:
460,192,214560,1,0,0:0:0:0:
153,192,214731,1,2,0:0:0:0:
256,192,214903,1,0,0:0:0:0:
460,192,215074,1,0,0:0:0:0:
358,192,215074,1,8,0:0:0:0:
153,192,215246,1,0,0:0:0:0:
358,192,215417,1,0,0:0:0:0:
256,192,215588,1,0,0:0:0:0:
460,192,215760,128,0,217131:0:0:0:0:
153,192,215760,1,2,0:0:0:0:
358,192,215931,1,0,0:0:0:0:
51,192,216103,1,0,0:0:0:0:
256,192,216274,1,0,0:0:0:0:
358,192,216446,1,0,0:0:0:0:
153,192,216446,1,8,0:0:0:0:
51,192,216617,1,0,0:0:0:0:
256,192,216788,1,0,0:0:0:0:
153,192,216960,1,2,0:0:0:0:
358,192,217131,128,0,218503:0:0:0:0:
51,192,217131,1,0,0:0:0:0:
256,192,217303,1,0,0:0:0:0:
460,192,217474,1,2,0:0:0:0:
51,192,217646,1,0,0:0:0:0:
256,192,217817,1,0,0:0:0:0:
153,192,217817,1,8,0:0:0:0:
460,192,217988,1,0,0:0:0:0:
51,192,218160,1,0,0:0:0:0:
256,192,218331,1,0,0:0:0:0:
153,192,218503,128,0,219874:0:0:0:0:
460,192,218503,1,2,0:0:0:0:
51,192,218674,1,0,0:0:0:0:
256,192,218846,1,0,0:0:0:0:
460,192,219017,1,0,0:0:0:0:
358,192,219188,1,0,0:0:0:0:
51,192,219188,1,8,0:0:0:0:
256,192,219360,1,0,0:0:0:0:
460,192,219531,1,0,0:0:0:0:
51,192,219703,1,2,0:0:0:0:
460,192,219874,128,0,220560:0:0:0:0:
358,192,219874,1,0,0:0:0:0:
51,192,220046,1,0,0:0:0:0:
256,192,220217,1,2,0:0:0:0:
153,192,220388,1,0,0:0:0:0:
256,192,220560,128,0,221246:0:0:0:0:
51,192,220560,1,8,0:0:0:0:
358,192,220560,1,0,0:0:0:0:
153,192,220731,1,0,0:0:0:0:
460,192,220903,1,0,0:0:0:0:
358,192,221074,1,0,0:0:0:0:
51,192,221246,128,0,222617:0:0:0:0:
153,192,221246,1,2,0:0:0:0:
358,192,221417,1,0,0:0:0:0:
256,192,221588,1,0,0:0:0:0:
153,192,221760,1,0,0:0:0:0:
256,192,221931,1,8,0:0:0:0:
460,192,221931,1,0,0:0:0:0:
358,192,222103,1,0,0:0:0:0:
153,192,222274,1,0,0:0:0:0:
460,192,222446,1,2,0:0:0:0:
153,192,222617,128,0,223303:0:0:0:0:
256,192,222617,1,0,0:0:0:0:
358,192,222788,1,0,0:0:0:0:
256,192,222960,1,2,0:0:0:0:
51,192,223131,1,0,0:0:0:0:
256,192,223303,128,0,223988:0:0:0:0:
460,192,223303,1,8,0:0:0:0:
358,192,223303,1,0,0:0:0:0:
51,192,223474,1,0,0:0:0:0:
460,192,223646,1,0,0:0:0:0:
358,192,223817,1,0,0:0:0:0:
460,192,223988,128,0,225360:0:0:0:0:
51,192,223988,1,2,0:0:0:0:
358,192,224160,1,0,0:0:0:0:
256,192,224331,1,0,0:0:0:0:
51,192,224503,1,0,0:0:0:0:
153,192,224674,1,0,0:0:0:0:
256,192,224674,1,8,0:0:0:0:
358,192,224846,1,0,0:0:0:0:
153,192,225017,1,0,0:0:0:0:
256,192,225188,1,2,0:0:0:0:
358,192,225360,128,0,226731:0:0:0:0:
51,192,225360,1,0,0:0:0:0:
256,192,225531,1,0,0:0:0:0:
153,192,225703,1,2,0:0:0:0:
460,192,225874,1,0,0:0:0:0:
51,192,226046,1,0,0:0:0:0:
256,192,226046,1,8,0:0:0:0:
153,192,226217,1,0,0:0:0:0:
256,192,226388,1,0,0:0:0:0:
460,192,226560,1,0,0:0:0:0:
51,192,226731,128,0,227417:0:0:0:0:
153,192,226731,1,2,0:0:0:0:
460,192,226903,1,0,0:0:0:0:
358,192,227074,1,0,0:0:0:0:
256,192,227246,1,0,0:0:0:0:
153,192,227417,128,0,228103:0:0:0:0:
460,192,227417,1,0,0:0:0:0:
358,192,227417,1,8,0:0:0:0:
256,192,227588,1,0,0:0:0:0:
51,192,227760,1,0,0:0:0:0:
460,192,227931,1,2,0:0:0:0:
256,192,228103,128,0,229474:0:0:0:0:
51,192,228103,1,0,0:0:0:0:
358,192,228274,1,0,0:0:0:0:
153,192,228446,1,2,0:0:0:0:
358,192,228617,1,0,0:0:0:0:
460,192,228788,1,0,0:0:0:0:
51,192,228788,1,8,0:0:0:0:
153,192,228960,1,0,0:0:0:0:
358,192,229131,1,0,0:0:0:0:
153,192,229303,1,0,0:0:0:0:
460,192,229474,128,0,230846:0:0:0:0:
51,192,229474,1,2,0:0:0:0:
153,192,229646,1,0,0:0:0:0:
358,192,229817,1,0,0:0:0:0:
256,192,229988,1,0,0:0:0:0:
51,192,230160,1,8,0:0:0:0:
153,192,230160,1,0,0:0:0:0:
358,192,230331,1,0,0:0:0:0:
256,192,230503,1,0,0:0:0:0:
358,192,230674,1,2,0:0:0:0:
51,192,230846,128,0,232217:0:0:0:0:
256,192,230846,1,0,0:0:0:0:
358,192,231017,1,0,0:0:0:0:
460,192,231188,1,2,0:0:0:0:
256,192,231360,1,0,0:0:0:0:
460,192,231531,1,0,0:0:0:0:
358,192,231531,1,8,0:0:0:0:
153,192,231703,1,0,0:0:0:0:
256,192,231874,1,0,0:0:0:0:
460,192,232046,1,0,0:0:0:0:
358,192,232217,128,0,233588:0:0:0:0:
153,192,232217,1,2,0:0:0:0:
256,192,232388,1,0,0:0:0:0:
51,192,232560,1,0,0:0:0:0:
460,192,232731,1,0,0:0:0:0:
256,192,232903,1,8,0:0:0:0:
153,192,232903,1,0,0:0:0:0:
51,192,233074,1,0,0:0:0:0:
460,192,233246,1,0,0:0:0:0:
51,192,233417,1,2,0:0:0:0:
153,192,233588,128,0,234960:0:0:0:0:
460,192,233588,1,0,0:0:0:0:
51,192,233760,1,0,0:0:0:0:
358,192,233931,1,2,0:0:0:0:
256,192,234103,1,0,0:0:0:0:
51,192,234274,1,0,0:0:0:0:
358,192,234274,128,0,234960:0:0:0:0:
460,192,234274,1,8,0:0:0:0:
256,192,234446,1,0,0:0:0:0:
460,192,234617,1,0,0:0:0:0:
51,192,234788,1,0,0:0:0:0:
256,192,237703,1,4,0:0:0:0:
460,192,237703,1,2,0:0:0:0:
51,192,237703,128,0,238388:0:0:0:0:
460,192,238388,128,0,239074:0:0:0:0:
358,192,238388,1,0,0:0:0:0:
153,192,239074,128,0,239760:0:0:0:0:
51,192,239074,1,0,0:0:0:0:
358,192,239760,128,0,240446:0:0:0:0:
256,192,239760,1,0,0:0:0:0:
256,192,240446,128,0,241817:0:0:0:0:
460,192,240446,1,0,0:0:0:0:
153,192,241817,128,0,242503:0:0:0:0:
51,192,241817,1,0,0:0:0:0:
358,192,242503,128,0,243188:0:0:0:0:
460,192,242503,1,0,0:0:0:0:
51,192,243188,128,0,244560:0:0:0:0:
256,192,243188,1,0,0:0:0:0:
460,192,244560,128,0,245931:0:0:0:0:
153,192,244560,1,0,0:0:0:0:
256,192,245246,1,0,0:0:0:0:
358,192,245417,1,0,0:0:0:0:
153,192,245588,1,0,0:0:0:0:
256,192,245760,1,0,0:0:0:0:
358,192,245931,128,0,246446:0:0:0:0:
51,192,245931,1,0,0:0:0:0:
153,192,246274,128,0,246446:0:0:0:0:
460,192,246446,128,0,246617:0:0:0:0:
256,192,246788,128,0,247131:0:0:0:0:
51,192,246788,1,0,0:0:0:0:
153,192,247131,128,0,247988:0:0:0:0:
358,192,247131,1,0,0:0:0:0:
256,192,247474,128,0,247646:0:0:0:0:
358,192,247646,128,0,247817:0:0:0:0:
460,192,247817,128,0,247988:0:0:0:0:
51,192,247988,128,0,248674:0:0:0:0:
256,192,247988,1,0,0:0:0:0:
153,192,248331,5,8,0:0:0:0:
460,192,248331,1,0,0:0:0:0:
358,192,248503,1,0,0:0:0:0:
358,192,248588,1,0,0:0:0:0:
460,192,248674,1,4,0:0:0:0:
256,192,248674,1,2,0:0:0:0:
153,192,248674,1,0,0:0:0:0:
358,192,248846,128,0,249017:0:0:0:0:
460,192,249017,1,8,0:0:0:0:
153,192,249017,1,0,0:0:0:0:
256,192,249188,128,0,249360:0:0:0:0:
358,192,249360,1,8,0:0:0:0:
460,192,249360,1,0,0:0:0:0:
153,192,249531,128,0,249703:0:0:0:0:
51,192,249703,1,0,0:0:0:0:
358,192,249703,1,8,0:0:0:0:
460,192,249874,128,0,250046:0:0:0:0:
256,192,250046,1,0,0:0:0:0:
153,192,250046,1,8,0:0:0:0:
358,192,250217,128,0,250388:0:0:0:0:
153,192,250388,1,8,0:0:0:0:
460,192,250388,1,0,0:0:0:0:
51,192,250560,128,0,250731:0:0:0:0:
256,192,250731,1,0,0:0:0:0:
358,192,250731,1,8,0:0:0:0:
153,192,250903,128,0,251074:0:0:0:0:
51,192,251074,1,0,0:0:0:0:
358,192,251074,1,8,0:0:0:0:
460,192,251246,128,0,251417:0:0:0:0:
153,192,251417,1,0,0:0:0:0:
358,192,251417,1,8,0:0:0:0:
256,192,251588,128,0,251760:0:0:0:0:
153,192,251760,1,8,0:0:0:0:
460,192,251760,1,0,0:0:0:0:
51,192,251931,128,0,252103:0:0:0:0:
153,192,252103,1,8,0:0:0:0:
358,192,252103,1,0,0:0:0:0:
256,192,252274,128,0,252446:0:0:0:0:
460,192,252446,1,0,0:0:0:0:
51,192,252446,1,8,0:0:0:0:
358,192,252617,128,0,252788:0:0:0:0:
256,192,252788,1,0,0:0:0:0:
153,192,252788,1,8,0:0:0:0:
460,192,252960,128,0,253131:0:0:0:0:
256,192,253131,5,0,0:0:0:0:
358,192,253131,1,8,0:0:0:0:
153,192,253303,128,0,253474:0:0:0:0:
460,192,253474,5,8,0:0:0:0:
51,192,253474,1,0,0:0:0:0:
256,192,253646,128,0,253817:0:0:0:0:
460,192,253817,5,8,0:0:0:0:
358,192,253817,1,0,0:0:0:0:
51,192,253988,128,0,254160:0:0:0:0:
153,192,254160,5,4,0:0:0:0:
256,192,254160,1,2,0:0:0:0:
460,192,254160,128,0,254331:0:0:0:0:
153,192,254331,1,8,0:0:0:0:
358,192,254331,128,0,254503:0:0:0:0:
51,192,254503,1,8,0:0:0:0:
256,192,254503,128,0,254674:0:0:0:0:
153,192,254674,1,8,0:0:0:0:
51,192,254674,128,0,254846:0:0:0:0:
358,192,254846,1,8,0:0:0:0:
153,192,254846,128,0,255017:0:0:0:0:
460,192,255017,1,8,0:0:0:0:
256,192,255017,128,0,255188:0:0:0:0:
358,192,255188,1,8,0:0:0:0:
460,192,255188,128,0,255360:0:0:0:0:
153,192,255360,1,8,0:0:0:0:
358,192,255360,128,0,255531:0:0:0:0:
460,192,255531,1,4,0:0:0:0:
51,192,255531,1,2,0:0:0:0:
256,192,255531,128,0,255703:0:0:0:0:
153,192,255703,1,8,0:0:0:0:
51,192,255703,128,0,255874:0:0:0:0:
358,192,255874,1,8,0:0:0:0:
153,192,255874,128,0,256046:0:0:0:0:
460,192,256046,1,8,0:0:0:0:
256,192,256046,128,0,256217:0:0:0:0:
51,192,256217,1,8,0:0:0:0:
460,192,256217,128,0,256388:0:0:0:0:
153,192,256388,1,8,0:0:0:0:
358,192,256388,128,0,256560:0:0:0:0:
256,192,256560,1,8,0:0:0:0:
51,192,256560,128,0,256731:0:0:0:0:
358,192,256731,1,8,0:0:0:0:
153,192,256731,128,0,256903:0:0:0:0:
460,192,256903,1,0,0:0:0:0:
358,192,256903,1,2,0:0:0:0:
256,192,256903,1,4,0:0:0:0:
51,192,256988,1,0,0:0:0:0:
153,192,256988,1,8,0:0:0:0:
256,192,257074,1,8,0:0:0:0:
358,192,257074,1,0,0:0:0:0:
51,192,257160,1,0,0:0:0:0:
460,192,257160,1,8,0:0:0:0:
153,192,257246,1,8,0:0:0:0:
256,192,257246,1,0,0:0:0:0:
460,192,257331,1,0,0:0:0:0:
358,192,257331,1,8,0:0:0:0:
51,192,257417,1,8,0:0:0:0:
153,192,257417,1,0,0:0:0:0:
256,192,257503,1,8,0:0:0:0:
358,192,257503,1,0,0:0:0:0:
51,192,257588,1,0,0:0:0:0:
460,192,257588,1,8,0:0:0:0:
153,192,257674,1,8,0:0:0:0:
256,192,257674,1,0,0:0:0:0:
460,192,257760,1,0,0:0:0:0:
358,192,257760,1,8,0:0:0:0:
51,192,257846,1,8,0:0:0:0:
153,192,257846,1,0,0:0:0:0:
358,192,257931,1,0,0:0:0:0:
256,192,257931,1,8,0:0:0:0:
51,192,258017,1,0,0:0:0:0:
460,192,258017,1,8,0:0:0:0:
256,192,258103,1,0,0:0:0:0:
153,192,258103,1,8,0:0:0:0:
460,192,258188,1,0,0:0:0:0:
358,192,258188,1,8,0:0:0:0:
51,192,258274,128,4,260331:0:0:0:0:
153,192,258274,128,0,260331:0:0:0:0:
256,192,258274,1,2,0:0:0:0:
153,192,260674,1,0,0:0:0:20:soft-hitclap3.wav
256,192,260674,1,0,0:0:0:20:soft-hitclap3.wav
358,192,260674,1,0,0:0:0:20:soft-hitclap3.wav
460,192,260674,1,0,0:0:0:0:
51,192,261017,1,2,0:0:0:0:
460,192,261017,1,4,0:0:0:0:
256,192,261017,128,0,262388:0:0:0:0:
153,192,261188,1,0,0:0:0:0:
358,192,261360,1,0,0:0:0:0:
51,192,261360,1,2,0:0:0:0:
460,192,261531,1,0,0:0:0:0:
358,192,261703,1,2,0:0:0:0:
153,192,261703,1,0,0:0:0:0:
51,192,261874,1,0,0:0:0:0:
153,192,262046,1,0,0:0:0:0:
460,192,262046,1,2,0:0:0:0:
358,192,262217,1,0,0:0:0:0:
153,192,262388,128,0,263074:0:0:0:0:
51,192,262388,1,2,0:0:0:0:
358,192,262560,1,0,0:0:0:0:
256,192,262731,1,2,0:0:0:0:
460,192,262731,1,0,0:0:0:0:
51,192,262903,1,0,0:0:0:0:
358,192,263074,128,0,263760:0:0:0:0:
460,192,263074,1,2,0:0:0:0:
51,192,263246,1,0,0:0:0:0:
460,192,263417,1,0,0:0:0:0:
153,192,263417,1,2,0:0:0:0:
256,192,263588,1,0,0:0:0:0:
51,192,263760,128,0,264788:0:0:0:0:
153,192,263760,1,2,0:0:0:0:
256,192,263931,1,0,0:0:0:0:
460,192,264103,1,0,0:0:0:0:
358,192,264103,1,2,0:0:0:0:
153,192,264274,1,0,0:0:0:0:
358,192,264446,1,0,0:0:0:0:
460,192,264446,1,2,0:0:0:0:
256,192,264617,1,0,0:0:0:0:
460,192,264788,128,0,264960:0:0:0:0:
153,192,264788,1,2,0:0:0:0:
358,192,264960,128,0,265131:0:0:0:0:
256,192,265131,128,0,265817:0:0:0:0:
51,192,265131,1,2,0:0:0:0:
460,192,265303,128,0,265474:0:0:0:0:
153,192,265474,1,2,0:0:0:0:
51,192,265474,128,0,265646:0:0:0:0:
358,192,265646,128,0,265817:0:0:0:0:
153,192,265817,128,0,266503:0:0:0:0:
460,192,265817,1,2,0:0:0:0:
51,192,265988,1,0,0:0:0:0:
256,192,266160,1,2,0:0:0:0:
460,192,266160,1,0,0:0:0:0:
358,192,266331,1,0,0:0:0:0:
460,192,266503,128,0,267874:0:0:0:0:
51,192,266503,1,2,0:0:0:0:
358,192,266674,1,0,0:0:0:0:
153,192,266846,1,2,0:0:0:0:
51,192,266846,1,0,0:0:0:0:
256,192,267017,1,0,0:0:0:0:
153,192,267188,1,0,0:0:0:0:
358,192,267188,1,2,0:0:0:0:
256,192,267360,1,0,0:0:0:0:
358,192,267531,1,0,0:0:0:0:
51,192,267531,1,2,0:0:0:0:
153,192,267703,1,0,0:0:0:0:
358,192,267874,128,0,268560:0:0:0:0:
256,192,267874,1,2,0:0:0:0:
153,192,268046,1,0,0:0:0:0:
51,192,268217,1,0,0:0:0:0:
460,192,268217,1,2,0:0:0:0:
153,192,268388,1,0,0:0:0:0:
51,192,268560,128,0,268731:0:0:0:0:
256,192,268560,1,2,0:0:0:0:
153,192,268731,128,0,268903:0:0:0:0:
256,192,268903,128,0,269074:0:0:0:0:
460,192,268903,1,2,0:0:0:0:
358,192,269074,128,0,269246:0:0:0:0:
51,192,269246,1,2,0:0:0:0:
460,192,269246,1,0,0:0:0:0:
256,192,269246,1,4,0:0:0:0:
256,192,269588,1,0,0:0:0:0:
153,192,269588,1,4,0:0:0:0:
460,192,269588,1,2,0:0:0:0:
256,192,269760,1,0,0:0:0:0:
51,192,269760,1,4,0:0:0:0:
358,192,269760,1,2,0:0:0:0:
153,192,270103,1,2,0:0:0:0:
460,192,270103,1,4,0:0:0:0:
256,192,270103,1,0,0:0:0:0:
51,192,270446,1,2,0:0:0:0:
256,192,270446,1,0,0:0:0:0:
358,192,270446,1,4,0:0:0:0:
358,192,270788,1,0,0:0:0:0:
460,192,270788,1,4,0:0:0:0:
153,192,270788,1,2,0:0:0:0:
358,192,270960,1,2,0:0:0:0:
460,192,270960,1,0,0:0:0:0:
153,192,270960,1,4,0:0:0:0:
256,192,271131,1,0,0:0:0:0:
256,192,271217,1,0,0:0:0:0:
358,192,271303,1,0,0:0:0:0:
153,192,271303,1,2,0:0:0:0:
256,192,271474,1,0,0:0:0:20:soft-hitclap3.wav
51,192,271474,1,0,0:0:0:20:soft-hitclap3.wav
460,192,271474,1,0,0:0:0:20:soft-hitclap3.wav
51,192,271646,1,0,0:0:0:20:soft-hitclap3.wav
256,192,271646,1,0,0:0:0:20:soft-hitclap3.wav
460,192,271646,1,0,0:0:0:20:soft-hitclap3.wav
460,192,271988,128,0,273360:0:0:0:0:
358,192,271988,1,4,0:0:0:0:
153,192,271988,1,2,0:0:0:0:
256,192,272160,1,0,0:0:0:0:
358,192,272331,1,0,0:0:0:0:
51,192,272331,1,8,0:0:0:0:
153,192,272331,1,0,0:0:0:0:
256,192,272503,1,0,0:0:0:0:
51,192,272674,1,2,0:0:0:0:
358,192,272674,1,0,0:0:0:0:
153,192,272846,1,0,0:0:0:0:
51,192,273017,1,8,0:0:0:0:
256,192,273017,1,0,0:0:0:0:
358,192,273017,1,0,0:0:0:0:
153,192,273188,1,0,0:0:0:0:
256,192,273360,128,0,274046:0:0:0:0:
51,192,273360,1,2,0:0:0:0:
358,192,273531,1,0,0:0:0:0:
51,192,273703,1,0,0:0:0:0:
460,192,273703,1,8,0:0:0:0:
153,192,273703,1,0,0:0:0:0:
358,192,273874,1,0,0:0:0:0:
51,192,274046,128,0,274731:0:0:0:0:
153,192,274046,1,2,0:0:0:0:
460,192,274217,1,0,0:0:0:0:
358,192,274388,1,0,0:0:0:0:
460,192,274388,1,8,0:0:0:0:
256,192,274388,1,0,0:0:0:0:
153,192,274560,1,0,0:0:0:0:
358,192,274731,128,0,275417:0:0:0:0:
460,192,274731,1,4,0:0:0:0:
256,192,274731,1,2,0:0:0:0:
51,192,274903,1,0,0:0:0:0:
153,192,275074,1,0,0:0:0:0:
460,192,275074,1,8,0:0:0:0:
256,192,275074,1,0,0:0:0:0:
51,192,275246,1,0,0:0:0:0:
153,192,275417,128,0,275760:0:0:0:0:
256,192,275417,1,2,0:0:0:0:
460,192,275588,1,0,0:0:0:0:
256,192,275760,128,0,275931:0:0:0:0:
51,192,275760,1,8,0:0:0:0:
358,192,275760,1,0,0:0:0:0:
358,192,275931,128,0,276103:0:0:0:0:
51,192,276103,128,0,276788:0:0:0:0:
153,192,276103,1,2,0:0:0:0:
460,192,276274,1,0,0:0:0:0:
153,192,276446,1,0,0:0:0:0:
256,192,276446,1,8,0:0:0:0:
358,192,276446,1,0,0:0:0:0:
460,192,276617,1,0,0:0:0:0:
460,192,276788,128,0,277474:0:0:0:0:
256,192,276788,1,2,0:0:0:0:
153,192,276960,1,0,0:0:0:0:
51,192,277131,1,8,0:0:0:0:
358,192,277131,1,0,0:0:0:0:
256,192,277131,1,0,0:0:0:0:
256,192,277303,1,0,0:0:0:0:
153,192,277474,1,4,0:0:0:0:
358,192,277474,1,2,0:0:0:0:
51,192,277474,128,0,277646:0:0:0:0:
256,192,277646,128,0,277817:0:0:0:0:
460,192,277817,128,0,277988:0:0:0:0:
153,192,277817,1,8,0:0:0:0:
51,192,277988,128,0,278160:0:0:0:0:
256,192,278160,128,0,278331:0:0:0:0:
153,192,278160,1,8,0:0:0:0:
460,192,278331,128,0,278503:0:0:0:0:
51,192,278503,128,0,278674:0:0:0:0:
153,192,278503,1,8,0:0:0:0:
256,192,278674,128,0,278846:0:0:0:0:
153,192,278846,1,2,0:0:0:0:
358,192,278846,1,4,0:0:0:0:
460,192,278846,128,0,279017:0:0:0:0:
51,192,279017,128,0,279188:0:0:0:0:
256,192,279188,128,0,279360:0:0:0:0:
358,192,279188,1,8,0:0:0:0:
460,192,279360,128,0,279531:0:0:0:0:
358,192,279531,1,8,0:0:0:0:
51,192,279531,128,0,279703:0:0:0:0:
256,192,279703,128,0,279874:0:0:0:0:
358,192,279874,1,8,0:0:0:0:
460,192,279874,128,0,280046:0:0:0:0:
153,192,280046,128,0,280217:0:0:0:0:
460,192,280217,128,4,280731:0:0:0:0:
51,192,280217,128,0,280731:0:0:0:0:
256,192,280217,1,2,0:0:0:0:
256,192,280731,1,2,0:0:0:0:
358,192,280731,128,4,281246:0:0:0:0:
153,192,280731,128,0,281246:0:0:0:0:
256,192,281246,1,2,0:0:0:0:
460,192,281246,128,0,281588:0:0:0:0:
51,192,281246,128,4,281588:0:0:0:0:
153,192,281588,128,4,282617:0:0:0:0:
256,192,281588,1,2,0:0:0:0:
358,192,281588,128,0,282617:0:0:0:0:
51,192,282617,1,0,0:0:0:20:soft-hitclap3.wav
460,192,282617,1,0,0:0:0:20:soft-hitclap3.wav
256,192,282617,1,0,0:0:0:20:soft-hitclap3.wav
153,192,282960,1,4,0:0:0:0:
256,192,282960,1,0,0:0:0:0:
358,192,282960,1,8,0:0:0:0:
51,192,283131,128,0,283303:0:0:0:0:
256,192,283303,1,0,0:0:0:0:
460,192,283303,1,8,0:0:0:0:
51,192,283474,128,0,283646:0:0:0:0:
256,192,283646,1,8,0:0:0:0:
460,192,283646,1,0,0:0:0:0:
51,192,283817,128,0,283988:0:0:0:0:
256,192,283988,1,0,0:0:0:0:
460,192,283988,1,8,0:0:0:0:
51,192,284160,128,0,284331:0:0:0:0:
256,192,284331,1,0,0:0:0:0:
358,192,284331,1,4,0:0:0:0:
153,192,284331,1,2,0:0:0:0:
460,192,284503,128,0,284674:0:0:0:0:
51,192,284674,1,0,0:0:0:0:
256,192,284674,1,8,0:0:0:0:
460,192,284846,128,0,285017:0:0:0:0:
51,192,285017,1,8,0:0:0:0:
256,192,285017,1,0,0:0:0:0:
460,192,285188,128,0,285360:0:0:0:0:
51,192,285360,1,0,0:0:0:0:
256,192,285360,1,8,0:0:0:0:
460,192,285531,128,0,285703:0:0:0:0:
51,192,285703,128,4,286217:0:0:0:0:
358,192,285703,128,0,286217:0:0:0:0:
153,192,285703,1,2,0:0:0:0:
153,192,286217,128,4,286731:0:0:0:0:
460,192,286217,128,0,286731:0:0:0:0:
256,192,286217,1,2,0:0:0:0:
358,192,286731,128,4,287074:0:0:0:0:
51,192,286731,128,0,287074:0:0:0:0:
256,192,286731,1,2,0:0:0:0:
460,192,287074,128,4,287417:0:0:0:0:
153,192,287074,128,0,287417:0:0:0:0:
256,192,287074,1,2,0:0:0:0:
256,192,287417,128,0,288103:0:0:0:0:
51,192,287417,128,4,288103:0:0:0:0:
358,192,287417,1,2,0:0:0:0:
153,192,288103,1,0,0:0:0:20:soft-hitclap3.wav
460,192,288103,1,0,0:0:0:20:soft-hitclap3.wav
358,192,288103,1,0,0:0:0:20:soft-hitclap3.wav
256,192,288446,1,4,0:0:0:0:
51,192,288446,1,2,0:0:0:0:
358,192,288446,1,0,0:0:0:0:
153,192,288617,1,0,0:0:0:0:
460,192,288788,1,8,0:0:0:0:
358,192,288788,1,0,0:0:0:0:
256,192,288960,1,0,0:0:0:0:
51,192,289131,1,2,0:0:0:0:
460,192,289131,1,0,0:0:0:0:
153,192,289303,1,0,0:0:0:0:
358,192,289303,128,0,289474:0:0:0:0:
256,192,289474,1,8,0:0:0:0:
51,192,289474,128,0,289646:0:0:0:0:
153,192,289646,1,0,0:0:0:0:
358,192,289646,128,0,289817:0:0:0:0:
460,192,289817,1,2,0:0:0:0:
256,192,289988,1,0,0:0:0:0:
153,192,289988,128,0,290160:0:0:0:0:
460,192,290160,1,8,0:0:0:0:
51,192,290160,128,0,290331:0:0:0:0:
256,192,290331,1,0,0:0:0:0:
358,192,290331,128,0,290503:0:0:0:0:
460,192,290503,128,0,290674:0:0:0:0:
51,192,290503,1,2,0:0:0:0:
153,192,290674,1,0,0:0:0:0:
51,192,290846,128,0,291017:0:0:0:0:
358,192,290846,1,8,0:0:0:0:
460,192,291017,1,0,0:0:0:0:
256,192,291188,1,2,0:0:0:0:
358,192,291188,128,0,291360:0:0:0:0:
51,192,291360,1,0,0:0:0:0:
153,192,291531,1,8,0:0:0:0:
256,192,291531,1,0,0:0:0:0:
460,192,291703,1,0,0:0:0:0:
358,192,291788,1,0,0:0:0:0:
51,192,291874,1,2,0:0:0:0:
256,192,291874,1,0,0:0:0:0:
358,192,292046,1,0,0:0:0:0:
460,192,292046,128,0,292217:0:0:0:0:
153,192,292217,1,8,0:0:0:0:
256,192,292217,128,0,292388:0:0:0:0:
460,192,292388,1,0,0:0:0:0:
51,192,292388,128,0,292560:0:0:0:0:
256,192,292560,1,2,0:0:0:0:
153,192,292560,1,0,0:0:0:0:
358,192,292646,1,0,0:0:0:0:
460,192,292731,1,0,0:0:0:0:
51,192,292903,1,8,0:0:0:0:
256,192,292903,1,0,0:0:0:0:
153,192,293074,1,0,0:0:0:0:
256,192,293160,1,0,0:0:0:0:
460,192,293246,1,2,0:0:0:0:
358,192,293246,1,0,0:0:0:0:
256,192,293331,1,0,0:0:0:0:
51,192,293417,1,0,0:0:0:0:
153,192,293417,128,0,293588:0:0:0:0:
460,192,293588,1,8,0:0:0:0:
256,192,293588,128,0,293760:0:0:0:0:
51,192,293760,1,0,0:0:0:0:
358,192,293760,128,0,293931:0:0:0:0:
460,192,293931,1,0,0:0:0:0:
153,192,293931,1,2,0:0:0:0:
256,192,294103,1,0,0:0:0:0:
153,192,294188,1,0,0:0:0:0:
51,192,294274,1,8,0:0:0:0:
460,192,294274,1,0,0:0:0:0:
358,192,294360,1,0,0:0:0:0:
256,192,294446,1,0,0:0:0:0:
460,192,294531,1,0,0:0:0:0:
51,192,294617,1,2,0:0:0:0:
153,192,294617,1,0,0:0:0:0:
358,192,294788,1,0,0:0:0:0:
256,192,294788,128,0,294960:0:0:0:0:
153,192,294960,1,8,0:0:0:0:
51,192,294960,128,0,295131:0:0:0:0:
460,192,295131,1,0,0:0:0:0:
358,192,295131,128,0,295303:0:0:0:0:
153,192,295303,1,2,0:0:0:0:
256,192,295474,1,0,0:0:0:0:
51,192,295474,128,0,295646:0:0:0:0:
358,192,295646,1,8,0:0:0:0:
153,192,295646,128,0,295817:0:0:0:0:
460,192,295817,1,0,0:0:0:0:
256,192,295817,128,0,295988:0:0:0:0:
358,192,295988,128,0,296160:0:0:0:0:
51,192,295988,1,2,0:0:0:0:
460,192,296160,1,0,0:0:0:0:
256,192,296331,128,0,296503:0:0:0:0:
153,192,296331,1,8,0:0:0:0:
358,192,296503,1,0,0:0:0:0:
460,192,296674,1,2,0:0:0:0:
51,192,296674,128,0,296846:0:0:0:0:
153,192,296846,1,0,0:0:0:0:
460,192,297017,1,8,0:0:0:0:
51,192,297017,128,0,297188:0:0:0:0:
358,192,297188,1,0,0:0:0:0:
256,192,297274,1,0,0:0:0:0:
153,192,297360,1,2,0:0:0:0:
51,192,297360,128,0,297531:0:0:0:0:
460,192,297531,1,0,0:0:0:0:
358,192,297703,1,8,0:0:0:0:
51,192,297703,128,0,297874:0:0:0:0:
153,192,297874,1,0,0:0:0:0:
460,192,298046,1,2,0:0:0:0:
256,192,298046,1,0,0:0:0:0:
51,192,298046,128,0,298217:0:0:0:0:
358,192,298217,1,0,0:0:0:0:
153,192,298388,1,8,0:0:0:0:
51,192,298388,128,0,298731:0:0:0:0:
256,192,298560,1,0,0:0:0:0:
358,192,298731,1,2,0:0:0:0:
153,192,298731,128,0,298903:0:0:0:0:
460,192,298903,1,0,0:0:0:0:
256,192,298903,128,0,299074:0:0:0:0:
51,192,299074,1,8,0:0:0:0:
358,192,299074,128,0,299246:0:0:0:0:
153,192,299246,1,0,0:0:0:0:
460,192,299246,128,0,299417:0:0:0:0:
256,192,299417,1,4,0:0:0:0:
358,192,299417,1,2,0:0:0:0:
51,192,299417,1,0,0:0:0:0:
153,192,299588,1,0,0:0:0:0:
256,192,299674,1,0,0:0:0:0:
358,192,299760,1,8,0:0:0:0:
460,192,299846,1,0,0:0:0:0:
51,192,299931,1,0,0:0:0:0:
153,192,300017,1,0,0:0:0:0:
460,192,300103,1,2,0:0:0:0:
256,192,300103,1,0,0:0:0:0:
153,192,300274,1,0,0:0:0:0:
358,192,300274,128,0,300446:0:0:0:0:
256,192,300446,1,8,0:0:0:0:
460,192,300446,128,0,300617:0:0:0:0:
51,192,300617,1,0,0:0:0:0:
153,192,300617,128,0,300788:0:0:0:0:
256,192,300788,1,2,0:0:0:0:
358,192,300788,1,0,0:0:0:0:
460,192,300960,1,0,0:0:0:0:
358,192,300960,128,0,301131:0:0:0:0:
256,192,301131,1,8,0:0:0:0:
51,192,301131,128,0,301303:0:0:0:0:
153,192,301303,1,0,0:0:0:0:
460,192,301303,128,0,301474:0:0:0:0:
153,192,301474,128,0,301646:0:0:0:0:
256,192,301474,1,2,0:0:0:0:
358,192,301646,1,0,0:0:0:0:
256,192,301817,128,0,301988:0:0:0:0:
51,192,301817,1,0,0:0:0:0:
460,192,301988,1,0,0:0:0:0:
358,192,302160,1,0,0:0:0:0:
153,192,302160,1,2,0:0:0:0:
51,192,302160,1,4,0:0:0:0:
460,192,302503,1,2,0:0:0:0:
358,192,302503,1,0,0:0:0:0:
153,192,302674,1,0,0:0:0:0:
256,192,302674,1,4,0:0:0:0:
51,192,302674,1,2,0:0:0:0:
358,192,303017,1,4,0:0:0:0:
256,192,303017,1,0,0:0:0:0:
153,192,303017,1,2,0:0:0:0:
256,192,303360,1,2,0:0:0:0:
460,192,303360,1,4,0:0:0:0:
51,192,303360,128,0,303703:0:0:0:0:
460,192,303703,1,0,0:0:0:0:
358,192,303788,1,0,0:0:0:0:
256,192,303874,1,0,0:0:0:0:
153,192,303960,1,0,0:0:0:0:
51,192,304046,1,0,0:0:0:0:
153,192,304131,1,0,0:0:0:0:
460,192,304217,1,0,0:0:0:0:
256,192,304217,1,2,0:0:0:0:
358,192,304217,128,0,304303:0:0:0:0:
153,192,304388,1,0,0:0:0:0:
256,192,304388,128,0,304474:0:0:0:0:
51,192,304560,1,0,0:0:0:20:soft-hitclap3.wav
358,192,304560,1,0,0:0:0:20:soft-hitclap3.wav
153,192,304560,128,0,304646:0:0:0:20:soft-hitclap3.wav
460,192,304731,1,0,0:0:0:0:
51,192,304731,128,0,304817:0:0:0:0:
153,192,304903,1,4,0:0:0:0:
358,192,304903,1,2,0:0:0:0:
256,192,304903,1,0,0:0:0:0:
51,192,305074,1,0,0:0:0:0:
460,192,305160,1,0,0:0:0:0:
358,192,305160,1,0,0:0:0:0:
256,192,305246,1,8,0:0:0:0:
460,192,305331,1,0,0:0:0:0:
51,192,305331,1,0,0:0:0:0:
358,192,305417,1,0,0:0:0:0:
51,192,305503,1,0,0:0:0:0:
153,192,305503,1,0,0:0:0:0:
256,192,305588,1,8,0:0:0:0:
153,192,305760,1,0,0:0:0:0:
358,192,305760,128,0,305931:0:0:0:0:
460,192,305931,1,8,0:0:0:0:
256,192,305931,1,0,0:0:0:0:
51,192,305931,128,0,306103:0:0:0:0:
153,192,306103,1,0,0:0:0:0:
256,192,306103,128,0,306274:0:0:0:0:
460,192,306274,1,4,0:0:0:0:
51,192,306274,1,0,0:0:0:0:
358,192,306274,1,2,0:0:0:0:
358,192,306446,1,8,0:0:0:0:
153,192,306446,128,0,306617:0:0:0:0:
256,192,306617,1,8,0:0:0:0:
460,192,306617,128,0,306788:0:0:0:0:
153,192,306788,1,8,0:0:0:0:
51,192,306788,128,0,306960:0:0:0:0:
460,192,306960,1,8,0:0:0:0:
358,192,306960,128,0,307131:0:0:0:0:
153,192,307131,1,8,0:0:0:0:
51,192,307303,1,8,0:0:0:0:
256,192,307303,128,0,307474:0:0:0:0:
358,192,307474,1,8,0:0:0:0:
256,192,307646,1,2,0:0:0:0:
153,192,307646,1,0,0:0:0:0:
460,192,307646,1,4,0:0:0:0:
51,192,307731,1,0,0:0:0:0:
460,192,307817,1,0,0:0:0:0:
358,192,307817,1,2,0:0:0:0:
256,192,307903,1,0,0:0:0:0:
153,192,307988,1,0,0:0:0:0:
51,192,307988,1,2,0:0:0:0:
460,192,308074,1,0,0:0:0:0:
256,192,308160,1,2,0:0:0:0:
358,192,308160,1,0,0:0:0:0:
153,192,308246,1,0,0:0:0:0:
460,192,308331,1,2,0:0:0:0:
51,192,308331,1,0,0:0:0:0:
358,192,308417,1,0,0:0:0:0:
256,192,308503,1,0,0:0:0:0:
153,192,308503,1,2,0:0:0:0:
51,192,308588,1,0,0:0:0:0:
358,192,308674,1,2,0:0:0:0:
460,192,308674,1,0,0:0:0:0:
256,192,308760,1,0,0:0:0:0:
460,192,308846,1,4,0:0:0:0:
51,192,308846,1,2,0:0:0:0:
153,192,308846,1,0,0:0:0:0:
460,192,309188,1,4,0:0:0:0:
51,192,309188,1,2,0:0:0:0:
256,192,309188,1,0,0:0:0:0:
460,192,309360,1,0,0:0:0:0:
51,192,309360,1,4,0:0:0:0:
256,192,309360,1,2,0:0:0:0:
460,192,309531,1,2,0:0:0:0:
51,192,309531,1,0,0:0:0:0:
256,192,309531,1,4,0:0:0:0:
460,192,309703,1,4,0:0:0:0:
51,192,309703,1,0,0:0:0:0:
256,192,309703,1,2,0:0:0:0:
358,192,310046,1,0,0:0:0:20:soft-hitclap3.wav
153,192,310046,1,0,0:0:0:20:soft-hitclap3.wav
256,192,310046,1,0,0:0:0:20:soft-hitclap3.wav
51,192,310046,1,0,0:0:0:0:
51,192,310388,1,2,0:0:0:0:
358,192,310388,1,0,0:0:0:0:
460,192,310388,1,4,0:0:0:0:
256,192,310474,1,0,0:0:0:0:
153,192,310560,1,0,0:0:0:0:
51,192,310646,1,0,0:0:0:0:
256,192,310731,1,8,0:0:0:0:
460,192,310731,1,0,0:0:0:0:
358,192,310731,1,0,0:0:0:0:
51,192,310903,1,0,0:0:0:0:
256,192,310988,1,0,0:0:0:0:
358,192,311074,1,0,0:0:0:0:
153,192,311074,1,2,0:0:0:0:
460,192,311160,1,0,0:0:0:0:
256,192,311246,1,0,0:0:0:0:
153,192,311417,1,0,0:0:0:0:
460,192,311417,1,8,0:0:0:0:
51,192,311417,1,0,0:0:0:0:
358,192,311588,1,0,0:0:0:0:
256,192,311760,1,2,0:0:0:0:
51,192,311760,1,0,0:0:0:0:
358,192,311846,1,0,0:0:0:0:
460,192,311931,1,0,0:0:0:0:
51,192,312017,1,0,0:0:0:0:
358,192,312103,1,8,0:0:0:0:
153,192,312103,1,0,0:0:0:0:
256,192,312103,1,0,0:0:0:0:
51,192,312274,1,0,0:0:0:0:
256,192,312360,1,0,0:0:0:0:
153,192,312446,1,2,0:0:0:0:
358,192,312446,1,0,0:0:0:0:
460,192,312531,1,0,0:0:0:0:
256,192,312617,1,0,0:0:0:0:
51,192,312788,1,8,0:0:0:0:
460,192,312788,1,0,0:0:0:0:
358,192,312788,1,0,0:0:0:0:
153,192,312960,1,0,0:0:0:0:
256,192,313131,1,2,0:0:0:0:
51,192,313131,1,0,0:0:0:0:
358,192,313217,1,0,0:0:0:0:
460,192,313303,1,0,0:0:0:0:
153,192,313388,1,0,0:0:0:0:
358,192,313474,1,8,0:0:0:0:
51,192,313474,1,0,0:0:0:0:
256,192,313474,1,0,0:0:0:0:
153,192,313646,1,0,0:0:0:0:
256,192,313731,1,0,0:0:0:0:
460,192,313817,1,2,0:0:0:0:
358,192,313817,1,0,0:0:0:0:
51,192,313903,1,0,0:0:0:0:
256,192,313988,1,0,0:0:0:0:
51,192,314160,1,8,0:0:0:0:
460,192,314160,1,0,0:0:0:0:
153,192,314160,1,0,0:0:0:0:
358,192,314331,1,0,0:0:0:0:
256,192,314503,1,2,0:0:0:0:
51,192,314503,1,0,0:0:0:0:
460,192,314588,1,0,0:0:0:0:
153,192,314674,1,0,0:0:0:0:
256,192,314760,1,0,0:0:0:0:
460,192,314846,1,0,0:0:0:0:
153,192,314846,1,8,0:0:0:0:
358,192,314846,1,0,0:0:0:0:
51,192,315017,1,0,0:0:0:0:
256,192,315103,1,0,0:0:0:0:
358,192,315188,1,2,0:0:0:0:
153,192,315188,1,0,0:0:0:0:
460,192,315274,1,0,0:0:0:0:
51,192,315360,1,0,0:0:0:0:
358,192,315531,1,8,0:0:0:0:
460,192,315531,1,0,0:0:0:0:
256,192,315531,1,0,0:0:0:0:
153,192,315617,1,0,0:0:0:0:
51,192,315703,1,0,0:0:0:0:
460,192,315788,1,0,0:0:0:0:
358,192,315874,1,0,0:0:0:0:
256,192,315874,1,2,0:0:0:0:
153,192,315960,1,0,0:0:0:0:
460,192,316046,1,0,0:0:0:0:
51,192,316131,1,0,0:0:0:0:
358,192,316217,1,8,0:0:0:0:
153,192,316217,1,0,0:0:0:0:
256,192,316217,1,0,0:0:0:0:
51,192,316388,1,0,0:0:0:0:
256,192,316474,1,0,0:0:0:0:
460,192,316560,1,2,0:0:0:0:
153,192,316560,1,0,0:0:0:0:
358,192,316646,1,0,0:0:0:0:
256,192,316731,1,0,0:0:0:0:
358,192,316903,1,8,0:0:0:0:
51,192,316903,1,0,0:0:0:0:
153,192,316903,1,0,0:0:0:0:
460,192,317074,1,0,0:0:0:0:
358,192,317246,1,2,0:0:0:0:
51,192,317246,1,0,0:0:0:0:
153,192,317331,1,0,0:0:0:0:
256,192,317417,1,0,0:0:0:0:
51,192,317503,1,0,0:0:0:0:
153,192,317588,1,0,0:0:0:0:
358,192,317588,1,8,0:0:0:0:
460,192,317588,1,0,0:0:0:0:
256,192,317760,1,0,0:0:0:0:
358,192,317846,1,0,0:0:0:0:
153,192,317931,1,2,0:0:0:0:
460,192,317931,1,0,0:0:0:0:
256,192,318017,1,0,0:0:0:0:
358,192,318103,1,0,0:0:0:0:
153,192,318274,1,0,0:0:0:0:
460,192,318274,1,8,0:0:0:0:
51,192,318274,1,0,0:0:0:0:
256,192,318446,1,0,0:0:0:0:
51,192,318617,1,0,0:0:0:0:
460,192,318617,1,2,0:0:0:0:
358,192,318703,1,0,0:0:0:0:
153,192,318788,1,0,0:0:0:0:
51,192,318874,1,0,0:0:0:0:
256,192,318960,1,8,0:0:0:0:
460,192,318960,1,0,0:0:0:0:
358,192,318960,1,0,0:0:0:0:
51,192,319131,1,0,0:0:0:0:
153,192,319217,1,0,0:0:0:0:
358,192,319303,1,0,0:0:0:0:
256,192,319303,1,2,0:0:0:0:
460,192,319388,1,0,0:0:0:0:
153,192,319474,1,0,0:0:0:0:
256,192,319646,1,0,0:0:0:0:
51,192,319646,1,8,0:0:0:0:
358,192,319646,1,0,0:0:0:0:
153,192,319817,1,0,0:0:0:0:
51,192,319988,5,0,0:0:0:0:
460,192,319988,1,2,0:0:0:0:
256,192,320074,1,0,0:0:0:0:
358,192,320160,1,0,0:0:0:0:
460,192,320246,1,0,0:0:0:0:
51,192,320331,1,8,0:0:0:0:
256,192,320331,1,0,0:0:0:0:
153,192,320331,1,0,0:0:0:0:
358,192,320503,1,0,0:0:0:0:
51,192,320588,1,0,0:0:0:0:
153,192,320674,1,0,0:0:0:0:
460,192,320674,1,2,0:0:0:0:
358,192,320760,1,0,0:0:0:0:
256,192,320846,1,0,0:0:0:0:
460,192,321017,5,0,0:0:0:0:
51,192,321017,1,8,0:0:0:0:
358,192,321017,1,0,0:0:0:0:
153,192,321103,1,0,0:0:0:0:
358,192,321188,1,0,0:0:0:0:
256,192,321188,1,0,0:0:0:0:
153,192,321274,1,0,0:0:0:0:
51,192,321274,1,0,0:0:0:0:
460,192,321360,1,4,0:0:0:0:
358,192,321360,1,0,0:0:0:0:
256,192,321360,1,2,0:0:0:0:
51,192,321531,1,0,0:0:0:0:
460,192,321703,1,0,0:0:0:0:
153,192,321703,1,8,0:0:0:0:
256,192,321703,1,0,0:0:0:0:
358,192,321874,1,0,0:0:0:0:
256,192,322046,1,0,0:0:0:0:
51,192,322046,1,2,0:0:0:0:
153,192,322046,1,0,0:0:0:0:
460,192,322217,1,0,0:0:0:0:
358,192,322388,1,8,0:0:0:0:
153,192,322388,1,0,0:0:0:0:
256,192,322388,1,0,0:0:0:0:
51,192,322560,1,0,0:0:0:0:
153,192,322731,1,0,0:0:0:0:
460,192,322731,1,2,0:0:0:0:
256,192,322731,1,0,0:0:0:0:
358,192,322903,1,0,0:0:0:0:
460,192,323074,1,8,0:0:0:0:
256,192,323074,1,0,0:0:0:0:
51,192,323074,1,0,0:0:0:0:
153,192,323246,1,0,0:0:0:0:
358,192,323417,1,2,0:0:0:0:
460,192,323417,1,0,0:0:0:0:
256,192,323417,1,0,0:0:0:0:
51,192,323588,1,0,0:0:0:0:
153,192,323760,1,8,0:0:0:0:
460,192,323760,1,0,0:0:0:0:
358,192,323760,1,0,0:0:0:0:
256,192,323931,1,0,0:0:0:0:
51,192,324103,1,4,0:0:0:0:
153,192,324103,1,2,0:0:0:0:
460,192,324103,1,0,0:0:0:0:
358,192,324274,1,0,0:0:0:0:
51,192,324446,1,8,0:0:0:0:
460,192,324446,1,0,0:0:0:0:
256,192,324446,1,0,0:0:0:0:
153,192,324617,1,0,0:0:0:0:
256,192,324788,1,0,0:0:0:0:
51,192,324788,1,2,0:0:0:0:
358,192,324788,1,0,0:0:0:0:
460,192,324960,1,0,0:0:0:0:
153,192,325131,1,8,0:0:0:0:
358,192,325131,1,0,0:0:0:0:
256,192,325131,1,0,0:0:0:0:
51,192,325303,1,0,0:0:0:0:
460,192,325474,1,2,0:0:0:0:
153,192,325474,1,0,0:0:0:0:
358,192,325474,1,0,0:0:0:0:
256,192,325646,1,0,0:0:0:0:
460,192,325817,1,0,0:0:0:0:
51,192,325817,1,8,0:0:0:0:
153,192,325817,1,0,0:0:0:0:
358,192,325988,1,0,0:0:0:0:
51,192,326160,1,2,0:0:0:0:
460,192,326160,1,0,0:0:0:0:
256,192,326160,1,0,0:0:0:0:
153,192,326331,1,0,0:0:0:0:
153,192,326503,1,8,0:0:0:0:
256,192,326503,1,0,0:0:0:0:
358,192,326503,1,0,0:0:0:0:
51,192,326588,1,0,0:0:0:0:
358,192,326674,1,0,0:0:0:0:
460,192,326760,1,0,0:0:0:0:
256,192,326846,1,4,0:0:0:0:
51,192,326846,1,2,0:0:0:0:
153,192,326846,1,0,0:0:0:0:
51,192,327017,1,0,0:0:0:0:
460,192,327017,1,8,0:0:0:0:
358,192,327188,1,8,0:0:0:0:
51,192,327188,1,0,0:0:0:0:
51,192,327360,1,0,0:0:0:0:
256,192,327360,1,8,0:0:0:0:
153,192,327531,1,8,0:0:0:0:
51,192,327531,1,0,0:0:0:0:
51,192,327703,1,8,0:0:0:0:
153,192,327703,1,0,0:0:0:0:
51,192,327874,1,0,0:0:0:0:
256,192,327874,1,8,0:0:0:0:
51,192,328046,1,0,0:0:0:0:
358,192,328046,1,8,0:0:0:0:
153,192,328217,1,4,0:0:0:0:
256,192,328217,1,0,0:0:0:0:
460,192,328217,1,2,0:0:0:0:
460,192,328388,1,0,0:0:0:0:
51,192,328388,1,8,0:0:0:0:
460,192,328560,1,0,0:0:0:0:
153,192,328560,1,8,0:0:0:0:
256,192,328731,1,8,0:0:0:0:
460,192,328731,1,0,0:0:0:0:
358,192,328903,1,8,0:0:0:0:
460,192,328903,1,0,0:0:0:0:
460,192,329074,1,8,0:0:0:0:
358,192,329074,1,0,0:0:0:0:
256,192,329246,1,8,0:0:0:0:
460,192,329246,1,0,0:0:0:0:
153,192,329417,1,8,0:0:0:0:
460,192,329417,1,0,0:0:0:0:
256,192,329588,1,0,0:0:0:0:
51,192,329588,1,2,0:0:0:0:
358,192,329588,1,4,0:0:0:0:
460,192,329674,1,0,0:0:0:0:
153,192,329674,1,8,0:0:0:0:
256,192,329760,1,0,0:0:0:0:
51,192,329760,1,8,0:0:0:0:
460,192,329846,1,0,0:0:0:0:
358,192,329846,1,8,0:0:0:0:
256,192,329931,1,8,0:0:0:0:
153,192,329931,1,0,0:0:0:0:
51,192,330017,1,0,0:0:0:0:
460,192,330017,1,8,0:0:0:0:
256,192,330103,1,0,0:0:0:0:
153,192,330103,1,8,0:0:0:0:
358,192,330188,1,8,0:0:0:0:
460,192,330188,1,0,0:0:0:0:
153,192,330274,1,0,0:0:0:0:
256,192,330274,1,4,0:0:0:0:
51,192,330274,1,2,0:0:0:0:
358,192,330360,1,0,0:0:0:0:
460,192,330360,1,8,0:0:0:0:
256,192,330446,1,0,0:0:0:0:
153,192,330446,1,8,0:0:0:0:
51,192,330531,1,8,0:0:0:0:
460,192,330531,1,0,0:0:0:0:
256,192,330617,1,8,0:0:0:0:
153,192,330617,1,0,0:0:0:0:
358,192,330703,1,8,0:0:0:0:
460,192,330703,1,0,0:0:0:0:
256,192,330788,1,0,0:0:0:0:
153,192,330788,1,8,0:0:0:0:
358,192,330874,1,0,0:0:0:0:
51,192,330874,1,8,0:0:0:0:
153,192,330960,1,0,0:0:0:0:
256,192,330960,1,2,0:0:0:0:
460,192,330960,1,4,0:0:0:0:
51,192,331046,1,0,0:0:0:0:
358,192,331131,1,0,0:0:0:0:
460,192,331217,1,0,0:0:0:0:
358,192,331474,1,0,0:0:0:0:
153,192,331560,1,0,0:0:0:0:
51,192,331646,1,0,0:0:0:0:
256,192,331731,1,0,0:0:0:0:
51,192,331988,1,0,0:0:0:0:
153,192,332074,1,0,0:0:0:0:
460,192,332160,1,0,0:0:0:0:
358,192,332246,1,0,0:0:0:0:
153,192,332331,1,0,0:0:0:0:
256,192,332331,1,4,0:0:0:0:
51,192,332331,1,2,0:0:0:0:
