osu file format v14

[General]
AudioFilename: magic deresute.mp3
AudioLeadIn: 0
PreviewTime: 59382
Countdown: 0
SampleSet: Soft
StackLeniency: 0.5
Mode: 0
LetterboxInBreaks: 0
WidescreenStoryboard: 0

[Editor]
Bookmarks: 35871
DistanceSpacing: 0.5
BeatDivisor: 4
GridSize: 32
TimelineZoom: 2.6

[Metadata]
Title:M@GIC*
TitleUnicode:M@GIC☆
Artist:CINDERELLA PROJECT
ArtistUnicode:CINDERELLA PROJECT
Creator:Mamayu
Version:Insane
Source:アイドルマスター シンデレラガールズ
Tags:fuyuyu- anime the idolm@ster cinderella girls starlight stage Len Fast No_Dap Moeka Sekaii Sekai-nyan Dark_Fang
BeatmapID:838572
BeatmapSetID:383617

[Difficulty]
HPDrainRate:7.5
CircleSize:4
OverallDifficulty:8
ApproachRate:9
SliderMultiplier:1.8
SliderTickRate:2

[Events]
//Background and Video events
0,0,"BG.png",0,0
//Break Periods
//Storyboard Layer 0 (Background)
//Storyboard Layer 1 (Fail)
//Storyboard Layer 2 (Pass)
//Storyboard Layer 3 (Foreground)
//Storyboard Sound Samples

[TimingPoints]
140,337.078651685393,4,2,1,40,1,0
140,-133.333333333333,4,2,1,40,0,0
815,337.078651685393,4,2,2,40,1,0
815,-133.333333333333,4,2,2,40,0,0
3848,-133.333333333333,4,2,1,40,0,0
4017,-133.333333333333,4,2,2,40,0,0
8483,-133.333333333333,4,2,2,20,0,0
8567,-66.6666666666667,4,1,3,70,0,0
8820,-66.6666666666667,4,2,1,20,0,0
8904,-100,4,2,1,60,0,1
8989,-100,4,2,1,60,0,0
16320,-83.3333333333333,4,2,2,45,0,0
16404,-83.3333333333333,4,2,2,25,0,0
16489,-83.3333333333333,4,2,2,50,0,0
16573,-83.3333333333333,4,2,2,30,0,0
16657,-83.3333333333333,4,2,2,55,0,0
16741,-83.3333333333333,4,2,2,35,0,0
16826,-83.3333333333333,4,2,2,60,0,0
16910,-83.3333333333333,4,2,2,40,0,0
16994,-100,4,2,1,60,0,0
23736,-200,4,2,1,60,0,0
25084,-133.333333333333,4,2,3,50,0,0
25421,-133.333333333333,4,2,1,50,0,0
30477,-133.333333333333,4,2,2,50,0,0
30814,-133.333333333333,4,2,1,50,0,0
45309,-133.333333333333,4,2,2,50,0,0
45814,-133.333333333333,4,2,1,50,0,0
52050,-111.111111111111,4,2,1,60,0,0
57444,-100,4,2,1,60,0,0
57949,-100,4,2,1,65,0,0
58455,-90.9090909090909,4,2,1,70,0,0
58708,-90.9090909090909,4,2,1,20,0,0
58792,-111.111111111111,4,2,2,50,0,0
58961,-111.111111111111,4,2,2,30,0,0
59129,-111.111111111111,4,2,2,60,0,0
59298,-111.111111111111,4,2,2,40,0,0
59466,-83.3333333333333,4,2,3,60,0,0
59635,-83.3333333333333,4,2,3,65,0,0
59803,-83.3333333333333,4,2,3,70,0,0
59972,-83.3333333333333,4,2,1,75,0,0
60140,-100,4,2,1,70,0,1
63343,-100,4,2,2,70,0,1
63511,-100,4,2,1,70,0,1
65534,-100,4,2,2,70,0,1
65871,-100,4,2,1,70,0,1
67725,-100,4,2,2,70,0,1
67893,-100,4,2,1,70,0,1
70253,-83.3333333333333,4,2,3,60,0,0
70421,-83.3333333333333,4,2,3,65,0,0
70590,-83.3333333333333,4,2,3,70,0,0
70758,-83.3333333333333,4,2,1,75,0,0
70927,-100,4,2,1,70,0,1
76826,-100,4,2,2,70,0,1
76994,-100,4,2,1,70,0,1
80449,-100,4,2,1,50,0,1
80702,-100,4,2,1,70,0,1
80786,-100,4,2,1,55,0,1
81039,-100,4,2,3,60,0,0
81208,-100,4,2,3,65,0,0
81376,-83.3333333333333,4,2,3,70,0,0
81545,-83.3333333333333,4,2,1,75,0,0
81713,-100,4,2,1,70,0,1
84916,-100,4,2,2,70,0,1
85084,-100,4,2,1,70,0,1
87107,-100,4,2,2,70,0,1
87444,-100,4,2,1,70,0,1
89298,-100,4,2,2,70,0,1
89466,-100,4,2,1,70,0,1
91152,-100,4,2,4,70,0,1
91320,-100,4,2,1,70,0,1
91826,-83.3333333333333,4,2,3,60,0,0
91994,-83.3333333333333,4,2,3,65,0,0
92163,-83.3333333333333,4,2,3,70,0,0
92331,-83.3333333333333,4,2,1,75,0,0
92500,-100,4,2,1,70,0,1
98399,-100,4,2,2,70,0,1
98567,-100,4,2,1,70,0,1
102612,-100,4,2,1,60,0,0
102781,-100,4,2,1,65,0,0
102949,-100,4,2,1,70,0,0
103118,-100,4,2,1,75,0,0
103286,-100,4,2,1,70,0,1
106489,-100,4,2,2,70,0,1
106657,-100,4,2,1,70,0,1
109859,-100,4,2,2,70,0,1
110197,-100,4,2,1,70,0,1
110365,-100,4,2,1,65,0,1
110449,-100,4,2,1,60,0,1
110534,-100,4,2,1,55,0,1
110618,-100,4,2,1,50,0,1
110702,-83.3333333333333,4,2,1,60,0,1
111208,-83.3333333333333,4,2,1,70,0,1
111461,-83.3333333333333,4,2,1,20,0,1
111545,-83.3333333333333,4,2,1,70,0,1
111629,-83.3333333333333,4,2,1,20,0,1
111713,-83.3333333333333,4,2,1,70,0,0
111966,-83.3333333333333,4,2,1,20,0,0
112050,-133.333333333333,4,2,1,40,0,0
112303,-133.333333333333,4,2,1,20,0,0
112388,-66.6666666666667,4,1,3,70,0,0
112640,-66.6666666666667,4,2,1,20,0,0
112725,-100,4,2,1,70,0,1
112809,-100,4,2,1,70,0,0
114747,-83.3333333333333,4,2,2,65,0,0
114916,-83.3333333333333,4,2,2,70,0,0
115084,-83.3333333333333,4,2,2,75,0,0
115253,-83.3333333333333,4,2,1,70,0,1
115337,-83.3333333333333,4,2,1,60,0,0
115758,-83.3333333333333,4,2,1,50,0,0
116095,-83.3333333333333,4,2,1,40,0,0
116432,-83.3333333333333,4,2,1,30,0,0
116770,-83.3333333333333,4,2,2,50,0,0

[Colours]
Combo1 : 252,240,255
Combo2 : 254,192,230
Combo3 : 129,201,254
Combo4 : 243,237,163

[HitObjects]
78,192,140,6,0,P|92:245|102:299,1,101.250003862381
95,312,477,2,0,P|132:321|172:327,1,67.5000025749208
200,244,814,2,0,P|258:212|322:229,1,135.000005149842,4|2,0:0|0:0,0:0:0:0:
409,344,1320,2,0,P|414:264|426:182,1,135.000005149842,8|0,0:0|0:0,0:0:0:0:
442,190,1994,6,0,P|456:138|434:87,1,101.250003862381,4|0,0:0|0:0,0:0:0:0:
436,75,2331,2,0,P|401:71|364:60,1,67.5000025749208,2|0,0:0|0:0,0:0:0:0:
278,73,2668,2,0,P|250:134|270:197,1,135.000005149842,8|2,0:0|0:0,0:0:0:0:
172,154,3174,2,0,P|142:159|105:172,1,67.5000025749208,2|0,0:0|0:0,0:0:0:0:
42,52,3511,6,0,P|107:59|181:67,1,135.000005149842,8|2,0:0|0:0,0:0:0:0:
252,131,4017,1,0,0:0:0:0:
252,131,4185,2,0,B|299:104|346:128|346:128|357:114|376:105,1,135.000005149842,8|2,0:0|0:0,0:0:0:0:
490,193,4691,6,0,B|443:198|406:175|406:175|387:194|377:212,1,135.000005149842,4|0,0:0|0:0,0:0:0:0:
433,278,5197,2,0,P|427:311|418:343,1,67.5000025749208
291,298,5534,2,0,P|300:250|301:193,2,101.250003862381,8|8|2,0:0|0:0|0:0,0:0:0:0:
168,339,6208,6,0,P|100:298|106:232,1,135.000005149842,4|2,0:0|0:0,0:0:0:0:
181,215,6713,2,0,L|177:181|173:147,1,67.5000025749208,8|0,0:0|0:0,0:0:0:0:
79,94,7050,2,0,P|83:127|86:161,1,67.5000025749208,0|2,0:0|0:0,0:0:0:0:
185,252,7388,6,0,B|210:264|238:256|238:256|260:275|286:271|286:271|330:242|385:271,1,202.500007724762,8|0,0:0|0:0,0:0:0:0:
396,282,8230,6,0,P|380:240|419:200,1,101.250003862381,8|0,0:0|0:0,0:0:0:0:
398,182,8567,6,0,P|485:142|423:74,1,202.500007724762,4|0,1:0|0:0,0:0:0:0:
367,90,8904,6,0,P|323:95|264:101,1,90,4|0,1:2|0:0,0:0:0:0:
185,59,9241,1,0,1:0:0:0:
256,202,9410,1,8,0:0:0:0:
107,239,9579,2,0,P|117:192|120:139,1,90,0|8,1:0|0:0,0:0:0:0:
20,271,9916,1,0,1:0:0:0:
198,334,10084,6,0,P|249:327|293:323,1,90,8|0,0:0|1:0,0:0:0:0:
421,268,10421,1,8,0:0:0:0:
312,142,10590,2,0,P|315:183|320:235,1,90,0|8,1:0|0:0,0:0:0:0:
383,361,10927,1,8,1:2:0:0:
244,222,11095,1,8,0:0:0:0:
430,171,11264,1,8,1:2:0:0:
291,311,11432,6,0,L|197:299,1,90,8|0,0:0|1:0,0:0:0:0:
81,239,11770,1,8,0:0:0:0:
99,344,11938,1,0,1:0:0:0:
199,225,12107,1,8,0:0:0:0:
63,215,12275,1,8,1:2:0:0:
214,116,12444,1,8,0:2:0:0:
52,85,12612,1,8,1:2:0:0:
199,225,12781,6,0,L|288:213,1,90,8|0,0:0|1:0,0:0:0:0:
437,132,13118,1,8,0:0:0:0:
387,229,13286,2,0,P|393:275|406:337,1,90,0|8,1:0|0:0,0:0:0:0:
500,208,13623,1,8,1:2:0:0:
345,128,13792,1,8,0:0:0:0:
483,49,13961,1,8,1:2:0:0:
328,140,14129,6,0,P|317:91|311:48,1,90,8|0,0:0|1:0,0:0:0:0:
242,175,14466,1,8,0:0:0:0:
404,74,14635,1,0,1:0:0:0:
316,234,14803,1,8,0:0:0:0:
426,249,14972,1,8,1:2:0:0:
256,322,15140,1,8,0:0:0:0:
328,140,15309,1,8,1:2:0:0:
172,264,15477,5,8,0:0:0:0:
172,264,15562,1,8,0:0:0:0:
172,264,15646,2,0,P|107:272|57:226,1,135,0|0,1:0|0:0,0:0:0:0:
31,236,15983,2,0,P|61:176|52:110,1,135,4|0,0:3|0:0,0:0:0:0:
75,25,16320,5,8,0:0:0:0:
91,40,16404,1,2,0:0:0:0:
110,51,16489,2,0,P|141:63|191:69,1,53.9999983520508,8|2,0:0|0:0,0:0:0:0:
265,42,16657,2,2,P|256:78|251:119,1,53.9999983520508,10|2,0:0|0:0,0:0:0:0:
369,165,16826,2,0,P|362:134|354:104,1,53.9999983520508,8|2,0:0|0:0,0:0:0:0:
475,75,16994,6,0,P|477:153|391:187,1,180,4|8,1:2|0:0,0:0:0:0:
261,130,17500,1,0,0:0:0:0:
338,270,17668,2,0,P|389:283|439:294,1,90,0|0,1:0|1:0,0:0:0:0:
216,344,18006,2,0,P|224:295|230:243,1,90,8|0,0:0|0:0,0:0:0:0:
47,174,18343,6,0,P|48:261|147:282,1,180,0|8,1:0|0:0,0:0:0:0:
256,234,18848,2,0,P|251:171|232:53,1,180,0|0,1:0|1:0,0:0:0:0:
413,34,19354,2,0,P|408:81|399:160,1,90,8|0,0:0|0:0,0:0:0:0:
482,309,19691,6,0,P|421:248|337:269,1,180,0|8,1:0|0:0,0:0:0:0:
204,361,20197,1,0,0:0:0:0:
256,234,20365,1,0,1:0:0:0:
78,208,20534,1,0,1:0:0:0:
164,103,20702,2,0,P|171:143|175:206,1,90,8|0,0:0|0:0,0:0:0:0:
52,320,21039,6,0,P|22:250|95:190,1,180,0|8,1:0|0:0,0:0:0:0:
248,277,21545,2,0,P|295:271|347:269,1,90,0|0,1:0|0:0,0:0:0:0:
428,314,21882,1,0,1:0:0:0:
311,109,22050,2,0,P|302:156|295:207,1,90,8|0,0:0|0:0,0:0:0:0:
463,68,22388,6,0,P|388:108|296:68,1,180,0|8,1:0|0:0,0:0:0:0:
193,180,22893,1,0,0:0:0:0:
128,37,23062,1,4,0:3:0:0:
11,157,23230,1,8,0:0:0:0:
54,147,23314,1,8,0:0:0:0:
99,141,23398,1,0,1:0:0:0:
216,279,23568,5,8,0:0:0:0:
212,308,23652,1,8,0:0:0:0:
207,338,23736,2,0,P|155:216|272:272,1,337.5,4|0,1:2|0:0,0:0:0:0:
268,292,25084,5,4,0:0:0:0:
467,365,25421,2,0,P|471:331|476:298,1,67.5000025749208,0|0,1:0|0:0,0:0:0:0:
382,255,25758,2,0,P|393:223|397:189,1,67.5000025749208,2|0,1:2|0:0,0:0:0:0:
492,121,26095,2,0,P|496:154|501:187,1,67.5000025749208,2|0,1:2|0:0,0:0:0:0:
384,165,26432,6,0,P|311:158|249:149,1,135.000005149842,2|2,1:2|1:2,0:0:0:0:
180,94,26938,2,0,P|186:58|193:24,1,67.5000025749208,0|2,0:0|1:2,0:0:0:0:
97,141,27275,2,0,P|91:107|84:74,1,67.5000025749208,0|2,0:0|1:2,0:0:0:0:
29,194,27612,1,0,0:0:0:0:
123,258,27781,6,0,P|161:251|199:242,1,67.5000025749208,2|0,1:2|0:0,0:0:0:0:
120,165,28118,1,2,1:2:0:0:
31,291,28286,2,0,P|35:324|42:360,1,67.5000025749208,0|2,0:0|1:2,0:0:0:0:
215,252,28623,1,0,0:0:0:0:
210,285,28707,1,0,0:0:0:0:
204,318,28791,1,2,1:2:0:0:
123,258,28961,1,0,0:0:0:0:
212,155,29129,6,0,P|250:161|288:171,1,67.5000025749208,2|0,1:2|0:0,0:0:0:0:
352,279,29466,2,0,P|360:244|371:212,1,67.5000025749208,2|0,1:2|0:0,0:0:0:0:
408,221,29719,1,0,0:0:0:0:
408,221,29803,2,0,P|426:232|452:250,1,33.7500012874604,2|0,1:2|0:0,0:0:0:0:
500,176,29972,2,0,P|485:167|471:158,1,33.7500012874604
339,124,30140,2,0,L|332:90,1,33.7500012874604,2|0,1:2|0:0,0:0:0:0:
409,30,30309,2,0,L|415:63,1,33.7500012874604
436,151,30477,5,4,1:2:0:0:
250,32,30814,2,0,L|240:115,1,67.5000025749208,2|0,1:2|0:0,0:0:0:0:
160,159,31152,2,0,P|128:169|95:174,1,67.5000025749208,2|0,1:2|0:0,0:0:0:0:
41,58,31489,2,0,P|75:63|107:73,1,67.5000025749208,2|0,1:2|0:0,0:0:0:0:
59,171,31826,6,0,P|93:240|87:309,1,135.000005149842,2|2,1:2|1:2,0:0:0:0:
214,352,32331,2,0,P|211:320|209:278,1,67.5000025749208,0|2,0:0|1:2,0:0:0:0:
280,219,32668,1,0,0:0:0:0:
379,306,32837,2,0,P|381:274|384:232,1,67.5000025749208,2|0,1:2|0:0,0:0:0:0:
482,153,33174,6,0,P|493:224|499:289,1,135.000005149842,2|2,1:2|1:2,0:0:0:0:
368,214,33680,1,0,0:0:0:0:
388,130,33848,2,0,P|394:93|401:51,1,67.5000025749208,2|0,1:2|0:0,0:0:0:0:
317,11,34185,2,0,P|311:44|306:77,1,67.5000025749208,2|0,1:2|0:0,0:0:0:0:
206,175,34522,6,0,P|141:176|67:188,1,135.000005149842,2|2,1:2|1:2,0:0:0:0:
19,315,35028,1,0,0:0:0:0:
52,309,35112,1,0,0:0:0:0:
85,305,35196,1,2,1:2:0:0:
221,348,35365,1,0,0:0:0:0:
117,288,35534,1,2,1:2:0:0:
255,186,35702,1,0,0:0:0:0:
216,367,35871,5,4,1:2:0:0:
260,166,36208,2,0,L|256:94,1,67.5000025749208,2|0,1:2|0:0,0:0:0:0:
352,225,36545,2,0,P|362:195|371:149,1,67.5000025749208,2|0,1:2|0:0,0:0:0:0:
353,68,36882,1,2,1:2:0:0:
472,50,37050,1,0,0:0:0:0:
396,150,37219,6,0,P|326:144|257:135,1,135.000005149842,2|2,1:2|1:2,0:0:0:0:
185,255,37725,2,0,P|219:248|269:241,1,67.5000025749208,0|2,0:0|1:2,0:0:0:0:
127,339,38062,1,0,0:0:0:0:
160,344,38146,1,0,0:0:0:0:
193,350,38230,1,2,1:2:0:0:
89,234,38399,1,0,0:0:0:0:
213,172,38567,6,0,P|210:206|200:238,1,67.5000025749208,2|0,1:2|0:0,0:0:0:0:
163,90,38904,1,2,1:2:0:0:
299,141,39073,2,0,P|331:139|377:131,1,67.5000025749208,0|2,0:0|1:2,0:0:0:0:
318,45,39410,2,0,P|284:46|251:52,1,67.5000025749208,0|2,0:0|1:2,0:0:0:0:
213,172,39747,1,0,0:0:0:0:
146,64,39916,5,2,1:2:0:0:
75,238,40084,1,2,0:3:0:0:
40,110,40253,1,2,1:2:0:0:
213,172,40421,1,2,0:3:0:0:
30,342,40590,2,0,P|25:290|52:247,1,101.250003862381,2|0,1:2|0:0,0:0:0:0:
75,238,40927,2,0,P|117:239|154:257,1,67.5000025749208,2|0,1:2|0:0,0:0:0:0:
229,342,41264,6,0,P|304:343|370:326,1,135.000005149842,2|2,1:2|1:2,0:0:0:0:
465,278,41770,2,0,P|459:313|450:350,1,67.5000025749208,0|2,0:0|1:2,0:0:0:0:
337,238,42107,1,0,0:0:0:0:
417,191,42275,2,0,P|453:185|496:182,1,67.5000025749208,2|0,1:2|0:0,0:0:0:0:
328,83,42612,6,0,P|325:152|317:222,1,135.000005149842,2|2,1:2|1:2,0:0:0:0:
237,106,43118,2,0,P|237:71|245:35,1,67.5000025749208,0|2,0:0|1:2,0:0:0:0:
155,177,43455,1,0,0:0:0:0:
104,109,43623,2,0,P|94:76|89:16,1,67.5000025749208,2|0,1:2|0:0,0:0:0:0:
87,228,43961,6,0,L|71:294,1,67.5000025749208,2|0,1:2|0:0,0:0:0:0:
198,357,44298,2,0,L|182:291,1,67.5000025749208,2|0,1:2|0:0,0:0:0:0:
241,193,44635,1,2,1:2:0:0:
296,299,44803,1,0,0:0:0:0:
324,129,44972,1,2,1:2:0:0:
223,215,45140,1,0,0:0:0:0:
444,187,45309,5,8,1:2:0:0:
432,169,45814,2,0,P|423:138|425:93,1,67.5000025749208,0|0,0:0|1:0,0:0:0:0:
439,85,46067,1,0,0:0:0:0:
439,85,46152,2,0,L|432:35,1,33.7500012874604,8|8,0:0|0:0,0:0:0:0:
291,7,46320,2,0,L|295:40,1,33.7500012874604,0|0,1:0|0:0,0:0:0:0:
343,129,46489,2,0,L|338:162,1,33.7500012874604,8|8,0:0|0:0,0:0:0:0:
223,215,46657,6,0,L|219:181|215:147,2,67.5000025749208,0|0|8,1:0|1:0|0:0,0:0:0:0:
324,294,47163,1,0,1:0:0:0:
324,294,47331,2,0,P|361:298|409:304,1,67.5000025749208,0|0,1:0|0:0,0:0:0:0:
218,334,47668,1,8,0:0:0:0:
325,187,47837,1,0,1:0:0:0:
325,187,48174,5,0,1:0:0:0:
148,233,48343,2,0,L|72:230,1,67.5000025749208,8|0,0:0|0:0,0:0:0:0:
55,136,48680,2,0,L|122:138,1,67.5000025749208,0|0,1:0|1:0,0:0:0:0:
256,34,49017,2,0,P|246:86|239:137,1,101.250003862381,8|0,0:0|0:0,0:0:0:0:
231,153,49354,6,0,P|234:187|240:238,1,67.5000025749208,0|0,1:0|1:0,0:0:0:0:
326,350,49691,2,0,L|336:241,1,101.250003862381,8|0,0:0|0:0,1:0:0:0:
345,232,50028,2,0,P|377:243|414:254,1,67.5000025749208,0|0,1:0|0:0,0:0:0:0:
375,132,50365,1,8,0:0:0:0:
375,132,50534,6,0,P|383:98|391:58,1,67.5000025749208,0|0,1:0|0:0,0:0:0:0:
468,129,50871,1,0,1:0:0:0:
297,98,51039,2,0,P|246:93|176:86,1,101.250003862381,8|0,0:0|0:0,0:0:0:0:
179,107,51376,2,0,P|184:150|189:185,1,67.5000025749208,0|0,1:0|1:0,0:0:0:0:
39,95,51713,2,0,P|44:51|49:17,1,67.5000025749208,8|0,0:0|0:0,0:0:0:0:
79,200,52050,6,0,P|83:287|150:303,1,161.999995056153,0|8,1:0|0:0,0:0:0:0:
301,306,52556,2,0,B|216:337|225:274|144:304,1,161.999995056153,0|0,1:0|1:0,0:0:0:0:
261,229,53062,2,0,P|320:217|371:251,1,121.499996292114,8|0,0:0|0:0,0:0:0:0:
388,275,53399,6,0,P|365:197|429:148,1,161.999995056153,0|8,1:0|0:0,0:0:0:0:
450,23,53904,2,0,P|473:101|409:150,1,161.999995056153,0|0,1:0|1:0,0:0:0:0:
355,40,54410,1,8,0:0:0:0:
273,79,54579,1,0,0:0:0:0:
200,26,54747,6,0,B|191:85|191:85|203:124|203:124|195:185,1,161.999995056153,0|8,1:0|0:0,0:0:0:0:
61,219,55253,2,0,P|112:170|203:192,1,161.999995056153,0|0,1:0|1:0,0:0:0:0:
267,269,55758,1,8,0:0:0:0:
267,269,56095,6,0,L|282:353,1,80.9999975280763,0|0,1:0|0:0,0:0:0:0:
398,192,56432,1,8,0:0:0:0:
262,153,56601,1,0,1:0:0:0:
481,106,56770,1,0,0:0:0:0:
444,262,56938,1,0,1:0:0:0:
326,53,57107,1,8,0:0:0:0:
359,203,57275,1,0,0:0:0:0:
412,40,57444,5,0,1:0:0:0:
412,40,57528,1,0,0:0:0:0:
412,40,57612,2,0,L|395:93,1,45,8|8,0:0|0:0,0:0:0:0:
206,66,57781,1,0,1:0:0:0:
359,203,57949,1,0,1:0:0:0:
359,203,58034,1,0,0:0:0:0:
359,203,58118,2,0,L|342:256,1,45,8|8,0:0|0:0,0:0:0:0:
153,229,58287,1,0,1:0:0:0:
232,50,58455,6,0,P|290:40|276:106,1,148.50000453186,8|0,0:0|0:0,0:0:0:0:
253,129,58792,6,0,L|262:181,1,40.4999987640381,2|0,0:3|0:0,0:0:0:0:
174,229,58961,2,0,L|167:189,1,40.4999987640381,2|2,0:3|0:3,0:0:0:0:
296,190,59129,6,0,L|305:242,1,40.4999987640381,2|0,0:3|0:0,0:0:0:0:
171,302,59298,2,0,L|164:262,1,40.4999987640381,2|2,0:3|0:3,0:0:0:0:
269,356,59466,5,0,1:0:0:0:
285,347,59550,1,0,0:0:0:0:
303,337,59635,2,0,P|331:350|357:360,1,53.9999983520508,0|8,0:0|0:0,0:0:0:0:
356,194,59804,2,0,P|360:220|367:247,1,53.9999983520508,0|0,1:0|0:0,0:0:0:0:
480,142,59972,2,0,P|473:168|469:194,1,53.9999983520508,8|8,0:0|0:0,0:0:0:0:
274,229,60140,6,0,P|214:221|134:217,1,135,4|0,1:2|0:0,0:0:0:0:
106,227,60477,1,8,0:0:0:0:
177,108,60646,2,0,P|184:62|190:15,1,90,0|0,0:0|1:0,0:0:0:0:
52,155,60983,1,0,1:0:0:0:
31,58,61152,1,8,0:0:0:0:
185,134,61320,6,0,P|245:126|325:122,1,135,0|0,1:0|0:0,0:0:0:0:
344,133,61657,2,0,P|353:84|361:41,1,90,0|8,1:0|0:0,0:0:0:0:
490,270,61994,2,0,P|450:224|333:232,1,180,0|0,1:0|1:0,0:0:0:0:
250,341,62500,2,0,P|210:332|137:324,1,90,8|0,0:0|0:0,0:0:0:0:
20,224,62837,6,0,P|112:217|201:210,1,180,0|8,1:0|0:0,0:0:0:0:
385,160,63343,1,8,0:0:0:0:
311,269,63511,1,0,1:0:0:0:
473,305,63680,1,0,1:0:0:0:
473,305,63764,1,0,0:0:0:0:
473,305,63848,1,8,0:0:0:0:
421,62,64017,6,0,P|410:151|401:245,1,180,0|0,1:0|1:0,0:0:0:0:
324,362,64522,1,8,0:0:0:0:
164,296,64691,2,0,P|226:241|321:284,1,180,0|0,1:0|1:0,0:0:0:0:
150,170,65197,1,8,0:0:0:0:
261,108,65365,1,0,0:0:0:0:
64,61,65534,5,8,1:2:0:0:
54,82,65871,2,0,P|48:151|46:217,1,135,8|0,0:0|0:0,0:0:0:0:
52,244,66208,2,0,P|96:265|142:284,1,90,0|0,1:0|1:0,0:0:0:0:
282,345,66545,1,8,0:0:0:0:
243,212,66713,1,0,0:0:0:0:
376,186,66882,5,0,1:0:0:0:
253,331,67050,1,0,0:0:0:0:
168,146,67219,1,8,0:0:0:0:
353,276,67388,2,0,P|422:273|466:217,1,135,0|0,1:0|0:0,0:0:0:0:
471,200,67725,1,8,1:2:0:0:
361,97,67893,2,0,L|378:201,1,90,8|0,0:0|0:0,0:0:0:0:
238,251,68230,5,0,1:0:0:0:
256,127,68399,1,0,0:0:0:0:
124,301,68567,1,8,0:0:0:0:
99,176,68736,1,0,0:0:0:0:
206,355,68904,1,0,1:0:0:0:
30,263,69073,1,0,1:0:0:0:
243,212,69241,1,8,0:0:0:0:
56,86,69410,6,0,B|22:134|22:134|15:187|46:253,1,180,0|0,1:0|1:0,0:0:0:0:
151,356,69916,2,0,P|193:348|253:340,1,90,8|0,0:0|0:0,0:0:0:0:
322,149,70253,6,0,P|317:176|315:203,3,53.9999983520508,0|0|0|8,1:0|0:0|0:0|0:0,0:0:0:0:
198,203,70590,2,0,P|203:229|214:255,1,53.9999983520508,0|0,1:0|0:0,0:0:0:0:
118,312,70758,2,2,P|132:335|151:356,1,53.9999983520508,8|8,0:0|0:0,0:0:0:0:
327,304,70927,6,0,P|396:293|467:284,1,135,4|0,1:2|0:0,0:0:0:0:
496,293,71264,1,8,0:0:0:0:
400,177,71432,2,0,P|353:173|275:165,1,90,0|0,0:0|1:0,0:0:0:0:
214,255,71770,1,0,1:0:0:0:
90,174,71938,1,8,0:0:0:0:
151,356,72107,6,0,P|200:314|196:249,1,135,0|0,1:0|0:0,0:0:0:0:
179,242,72444,2,0,P|175:192|174:148,1,90,0|8,1:0|0:0,0:0:0:0:
54,50,72781,2,0,P|153:55|256:58,1,180,0|0,1:0|1:0,0:0:0:0:
382,153,73286,2,0,P|371:200|361:257,1,90,8|0,0:0|0:0,0:0:0:0:
443,98,73623,6,0,P|372:71|301:136,1,180,0|8,1:0|0:0,0:0:0:0:
388,254,74129,1,0,0:0:0:0:
240,330,74298,1,0,1:0:0:0:
300,162,74466,1,0,1:0:0:0:
416,271,74635,1,8,0:0:0:0:
240,330,74803,6,0,B|145:304|157:352|63:331,1,180,0|0,1:0|1:0,0:0:0:0:
111,197,75309,2,0,P|67:185|24:171,1,90,8|0,0:0|0:0,0:0:0:0:
141,64,75646,2,0,P|183:50|227:38,1,90,0|0,1:0|1:0,0:0:0:0:
363,241,75983,2,0,P|320:254|276:266,1,90,8|0,0:0|0:0,0:0:0:0:
431,318,76320,6,0,P|468:247|447:175,1,135,0|0,1:0|0:0,0:0:0:0:
439,167,76657,1,8,0:0:0:0:
264,280,76826,2,0,P|256:234|250:182,1,90,8|0,0:0|1:0,0:0:0:0:
116,344,77163,1,0,1:0:0:0:
76,232,77331,1,8,0:0:0:0:
205,82,77500,6,0,P|238:154|174:223,1,180,0|0,1:0|1:0,0:0:0:0:
89,129,78006,1,8,0:0:0:0:
248,3,78174,1,0,0:0:0:0:
248,3,78258,1,0,0:0:0:0:
248,3,78343,2,0,L|234:92,1,90,0|0,1:0|1:0,0:0:0:0:
177,222,78680,2,0,P|253:212|302:261,1,135,8|0,0:0|0:0,0:0:0:0:
327,315,79017,6,0,P|375:304|428:300,1,90,0|0,1:2|0:0,0:0:0:0:
365,176,79354,1,8,0:0:0:0:
491,138,79522,1,0,0:0:0:0:
353,64,79691,2,0,L|343:157,1,90,8|0,0:0|1:0,0:0:0:0:
212,269,80028,2,0,L|202:179,1,90,8|0,0:0|1:0,1:0:0:0:
69,42,80365,5,0,1:2:0:0:
54,71,80449,1,0,0:0:0:0:
56,105,80533,1,0,1:0:0:0:
74,133,80617,1,0,1:0:0:0:
104,148,80702,5,8,0:0:0:0:
148,154,80786,1,0,0:0:0:0:
192,146,80870,1,0,0:0:0:0:
236,138,80954,1,0,0:0:0:0:
280,147,81039,5,0,1:2:0:0:
326,176,81123,1,0,0:0:0:0:
346,228,81208,1,0,0:0:0:0:
330,281,81292,1,0,0:0:0:0:
286,314,81376,2,0,P|263:318|228:312,1,53.9999983520508,0|0,1:2|0:0,0:0:0:0:
124,346,81545,2,0,P|113:325|105:284,1,53.9999983520508,8|8,0:0|0:0,0:0:0:0:
33,204,81713,6,0,P|38:143|54:69,1,135,4|0,1:2|0:0,0:0:0:0:
69,55,82050,2,0,P|116:50|171:47,1,90,8|0,0:0|0:0,0:0:0:0:
254,228,82388,2,0,P|209:232|165:237,1,90,8|0,0:0|1:0,0:0:0:0:
324,126,82725,1,8,0:0:0:0:
359,261,82893,6,0,P|352:310|343:365,1,90,0|8,1:0|0:0,0:0:0:0:
165,237,83230,2,0,P|171:187|181:133,1,90,0|8,0:0|0:0,0:0:0:0:
211,43,83567,1,0,1:0:0:0:
87,161,83736,1,8,0:0:0:0:
267,143,83904,1,0,0:0:0:0:
188,345,84073,1,8,0:0:0:0:
165,237,84241,1,0,1:0:0:0:
335,332,84410,6,0,P|382:336|429:339,1,90,0|0,1:2|0:0,0:0:0:0:
254,228,84747,2,0,P|298:225|343:221,1,90,8|8,0:0|0:0,0:0:0:0:
154,325,85084,1,8,0:0:0:0:
177,147,85253,1,0,1:0:0:0:
341,249,85421,1,8,0:0:0:0:
154,325,85590,6,0,P|150:277|147:228,1,90,0|8,1:0|0:0,0:0:0:0:
277,79,85927,1,0,0:0:0:0:
254,228,86095,1,8,0:0:0:0:
100,172,86264,2,0,P|55:163|8:157,1,90,0|8,1:0|0:0,0:0:0:0:
187,60,86601,1,0,0:0:0:0:
147,235,86770,1,8,0:0:0:0:
300,163,86938,1,0,1:0:0:0:
333,345,87107,5,8,1:2:0:0:
356,339,87444,2,0,P|364:269|369:199,1,135,8|0,0:0|0:0,0:0:0:0:
446,272,87781,2,0,L|458:367,1,90,8|0,0:0|1:0,0:0:0:0:
293,252,88118,2,0,P|297:207|299:162,1,90,8|0,0:0|1:0,0:0:0:0:
264,46,88455,5,8,0:0:0:0:
195,220,88623,1,0,0:0:0:0:
389,148,88792,1,8,0:0:0:0:
178,227,88961,2,0,P|132:221|79:213,1,90,0|8,1:0|0:0,0:0:0:0:
298,162,89298,1,8,0:0:0:0:
364,274,89466,2,0,P|357:321|350:366,1,90,8|0,0:0|1:0,0:0:0:0:
265,270,89803,5,0,1:2:0:0:
389,148,89972,1,0,0:0:0:0:
459,257,90140,1,8,0:0:0:0:
298,162,90309,1,0,0:0:0:0:
435,46,90477,2,0,P|428:91|418:151,1,90,8|0,0:0|1:0,0:0:0:0:
275,53,90814,1,8,0:0:0:0:
143,185,90983,6,0,P|205:138|303:167,1,180,0|0,1:0|0:0,0:0:0:0:
231,237,91489,1,8,0:0:0:0:
187,55,91657,1,0,1:0:0:0:
54,200,91826,6,0,P|49:228|42:252,3,53.9999983520508,0|0|0|0,1:2|0:0|0:0|0:0,0:0:0:0:
119,324,92163,2,0,P|146:341|184:349,1,53.9999983520508,0|0,1:2|0:0,0:0:0:0:
283,318,92331,2,0,P|303:300|321:276,1,53.9999983520508,8|8,0:0|0:0,0:0:0:0:
355,65,92500,6,0,P|364:140|377:217,1,135,4|0,1:2|0:0,0:0:0:0:
458,259,92837,2,0,P|464:218|469:161,1,90,8|0,0:0|0:0,0:0:0:0:
369,292,93174,1,8,0:0:0:0:
292,176,93343,1,0,1:0:0:0:
445,146,93511,1,8,0:0:0:0:
271,181,93680,6,0,P|265:140|260:83,1,90,0|8,1:0|0:0,0:0:0:0:
108,234,94017,2,0,P|114:275|119:332,1,90,0|8,0:0|0:0,0:0:0:0:
199,354,94354,1,0,1:0:0:0:
34,288,94522,1,8,0:0:0:0:
165,163,94691,1,0,0:0:0:0:
335,241,94859,2,0,P|379:246|444:248,1,90,8|0,0:0|1:0,0:0:0:0:
489,55,95197,6,0,P|422:60|338:65,1,135,0|0,1:2|0:0,0:0:0:0:
332,77,95534,2,0,P|285:70|202:64,1,90,8|0,0:0|0:0,0:0:0:0:
146,187,95871,1,8,0:0:0:0:
74,93,96039,2,0,P|82:45|94:-5,1,90,0|8,1:0|0:0,0:0:0:0:
240,163,96376,6,0,P|250:206|257:251,1,90,0|8,1:0|0:0,0:0:0:0:
176,328,96713,1,0,0:0:0:0:
342,374,96882,2,0,P|352:330|359:285,1,90,8|0,0:0|1:0,0:0:0:0:
153,223,97219,2,0,P|108:231|59:240,1,90,8|0,1:2|0:0,0:0:0:0:
31,45,97556,2,0,B|82:45|122:63|122:63|145:97,1,135,8|0,0:0|0:0,1:0:0:0:
101,157,97893,6,0,P|71:220|102:288,1,135,0|0,1:2|0:0,0:0:0:0:
118,301,98230,1,8,0:0:0:0:
276,136,98399,2,0,P|271:182|266:227,1,90,8|8,0:0|0:0,0:0:0:0:
436,183,98736,1,0,1:0:0:0:
457,288,98904,1,8,0:0:0:0:
257,331,99073,6,0,P|251:286|247:241,1,90,0|8,1:0|0:0,0:0:0:0:
184,109,99410,1,0,0:0:0:0:
329,62,99579,1,8,0:0:0:0:
266,225,99747,1,0,1:0:0:0:
163,88,99916,1,8,0:0:0:0:
79,280,100084,1,0,0:0:0:0:
79,280,100168,1,0,0:0:0:0:
79,280,100253,2,0,P|159:296|230:243,1,135,8|0,0:0|0:0,1:0:0:0:
266,225,100590,6,0,B|329:213|329:213|379:233|379:233|444:221,1,180,0|8,1:2|0:0,0:0:0:0:
391,134,101095,1,0,0:0:0:0:
235,306,101264,2,0,P|181:232|216:152,1,180,8|8,0:0|0:0,1:0:0:0:
377,265,101770,6,0,P|374:314|367:366,1,90,0|8,1:0|0:0,0:0:0:0:
297,143,102107,2,0,P|299:93|307:42,1,90,0|8,0:0|0:0,0:0:0:0:
463,207,102444,1,0,1:0:0:0:
291,301,102612,6,0,P|247:302|196:309,1,90,0|8,1:2|0:0,0:0:0:0:
125,352,102865,1,8,0:0:0:0:
155,319,102949,1,8,1:2:0:0:
166,276,103033,1,8,0:0:0:0:
152,234,103117,1,8,0:0:0:0:
119,204,103202,1,8,0:0:0:0:
76,195,103286,6,0,P|179:190|256:184,1,180,4|10,1:2|0:0,0:0:0:0:
391,134,103792,2,0,P|398:88|403:40,1,90,0|2,0:0|0:0,0:0:0:0:
273,165,104129,1,0,1:0:0:0:
399,275,104298,1,10,0:0:0:0:
244,331,104466,6,0,P|199:326|141:317,1,90,0|2,1:0|0:0,0:0:0:0:
189,150,104803,2,0,P|182:105|176:60,1,90,0|10,1:0|0:0,0:0:0:0:
76,195,105140,1,0,0:0:0:0:
235,251,105309,2,0,B|283:253|321:258|321:258|363:227,1,135,2|0,1:2|0:0,1:0:0:0:
383,217,105646,2,0,P|387:263|398:312,1,90,10|0,0:0|0:0,0:0:0:0:
498,83,105983,6,0,P|444:122|375:105,1,135,2|0,1:2|0:0,0:0:0:0:
361,85,106320,1,10,0:0:0:0:
230,52,106489,2,0,L|244:148,1,90,8|2,0:0|1:2,0:0:0:0:
409,216,106826,2,0,P|402:261|395:312,1,90,0|10,1:0|0:0,0:0:0:0:
148,360,107163,6,0,P|140:316|133:266,1,90,0|2,1:0|0:0,0:0:0:0:
228,169,107500,1,0,1:0:0:0:
88,105,107668,2,0,L|73:215,1,90,10|0,0:0|0:0,0:0:0:0:
235,264,108006,1,2,0:0:0:0:
287,94,108174,1,0,1:0:0:0:
287,94,108258,1,0,0:0:0:0:
287,94,108343,2,0,P|239:76|199:80,1,90,10|0,0:0|0:0,0:0:0:0:
383,207,108680,6,0,P|373:119|442:58,1,180,2|10,1:2|0:0,0:0:0:0:
461,158,109185,1,0,0:0:0:0:
279,178,109354,1,2,1:2:0:0:
444,347,109522,1,0,1:0:0:0:
450,302,109606,1,0,0:0:0:0:
454,257,109690,1,10,0:0:0:0:
173,328,109859,5,8,1:2:0:0:
191,304,110197,2,0,P|190:280|186:256,1,45,8|8,0:0|0:0,0:0:0:0:
60,192,110365,1,8,1:2:0:0:
101,206,110449,1,8,0:0:0:0:
142,192,110533,1,8,1:2:0:0:
167,155,110618,1,8,1:2:0:0:
164,112,110702,6,0,P|166:83|173:54,1,53.9999983520508,8|8,0:3|0:3,0:0:0:0:
313,159,110871,2,0,L|306:105,1,53.9999983520508,4|4,0:3|0:3,0:0:0:0:
447,90,111039,2,0,P|441:66|433:38,1,53.9999983520508,4|4,0:3|0:3,0:0:0:0:
275,91,111208,6,0,P|237:169|278:231,1,161.999995056153,4|0,1:2|0:0,0:0:0:0:
348,254,111545,2,0,P|379:249|419:258,1,53.9999983520508,4|0,1:2|0:0,0:0:0:0:
331,343,111713,2,0,B|243:365|254:313|172:336,1,161.999995056153,4|0,1:2|0:0,0:0:0:0:
116,282,112050,6,0,P|132:240|93:200,1,101.250003862381
114,182,112388,6,0,P|27:142|89:74,1,202.500007724762,4|0,1:0|0:0,0:0:0:0:
145,90,112725,6,0,P|189:95|248:101,1,90,4|0,1:2|0:0,0:0:0:0:
396,74,113062,1,0,1:0:0:0:
345,204,113230,1,8,0:0:0:0:
225,123,113399,2,0,P|231:172|247:236,1,90,0|8,1:0|0:0,0:0:0:0:
351,296,113736,1,0,1:0:0:0:
146,362,113904,6,0,L|159:261,1,90,8|0,0:0|1:0,0:0:0:0:
148,247,114157,1,8,0:0:0:0:
148,247,114241,1,8,0:0:0:0:
298,337,114410,1,0,1:0:0:0:
331,343,114494,1,8,0:0:0:0:
364,339,114578,1,0,1:0:0:0:
394,325,114662,1,8,0:0:0:0:
419,302,114747,6,0,P|425:270|429:238,1,53.9999983520508,8|0,1:2|0:0,0:0:0:0:
399,117,114916,2,0,L|427:110|455:103,1,53.9999983520508,8|0,1:2|0:0,0:0:0:0:
292,224,115084,2,0,P|265:216|239:211,1,53.9999983520508,8|0,1:2|0:0,0:0:0:0:
75,213,115253,5,4,1:2:0:0:
256,192,115337,12,4,116770,0:0:0:0:
