osu file format v13

[General]
AudioFilename: cinderella.mp3
AudioLeadIn: 0
PreviewTime: 81782
Countdown: 0
SampleSet: Soft
StackLeniency: 0.7
Mode: 0
LetterboxInBreaks: 0
WidescreenStoryboard: 0

[Editor]
DistanceSpacing: 1
BeatDivisor: 4
GridSize: 4
TimelineZoom: 1

[Metadata]
Title:Onegai! Cinderella
TitleUnicode:お願い!シンデレラ
Artist:CINDERELLA GIRLS!!
ArtistUnicode:CINDERELLA GIRLS!!
Creator:Suzully
Version:Easy
Source:THE IDOLM@STER CINDERELLA GIRLS
Tags:Shimamura Uzuki Kohinata Miho Mimura Kanako Shibuya Rin Tada Rina Kanzaki Ranko Honda Mio Jougasaki Mika Rika Ohashi Ayaka Tsuda Minami Otsubo Yuka Fukuhara Ayaka Aoki Ruriko Uchida Maaya Hara Sayuri Yoshimura Haruka Yamamoto Nozomi marhy NBSI Uchida Tetsuya
BeatmapID:381984
BeatmapSetID:131375

[Difficulty]
HPDrainRate:2
CircleSize:3
OverallDifficulty:2
ApproachRate:3
SliderMultiplier:0.8
SliderTickRate:1

[Events]
//Background and Video events
0,0,"cinderella.jpg",0,0
Video,0,"video.avi"
//Break Periods
//Storyboard Layer 0 (Background)
//Storyboard Layer 1 (Fail)
//Storyboard Layer 2 (Pass)
//Storyboard Layer 3 (Foreground)
//Storyboard Sound Samples
//Background Colour Transformations
3,100,163,162,255

[TimingPoints]
26925,342.857142857143,4,2,1,80,1,0
48782,-100,4,2,1,60,0,0
49039,-100,4,2,1,70,0,0
60010,-100,4,2,1,75,0,0
70810,-100,4,2,1,60,0,0
76125,-100,4,2,1,70,0,0
81782,-100,4,2,1,80,0,1
103210,-100,4,2,1,60,0,1
103725,-100,4,2,1,75,0,0
113153,-100,4,2,1,70,0,0
114610,-100,4,2,1,60,0,0
120182,-100,4,2,1,75,0,0
125667,-100,4,2,1,80,0,1
138010,-100,4,2,1,80,0,0
140753,-100,4,2,1,5,0,0

[Colours]
Combo1 : 255,224,77
Combo2 : 255,74,165
Combo3 : 68,152,255

[HitObjects]
136,112,26925,6,0,P|208:88|276:136,1,160,2|0,0:0|0:0,0:0:0:0:
288,252,28125,2,0,P|248:328|136:324,1,200,2|0,0:0|0:0,0:0:0:0:
40,208,29667,6,0,P|44:148|84:108,1,120,2|0,0:0|0:0,0:0:0:0:
236,52,30867,2,0,P|336:48|392:136,1,200,2|0,0:0|0:0,0:0:0:0:
416,280,32410,6,0,P|364:324|308:328,1,120,2|2,0:0|0:0,0:0:0:0:
156,304,33610,2,0,P|80:236|76:168,1,160,2|2,0:0|0:0,0:0:0:0:
116,72,34810,6,0,L|40:40,2,80,0|2|8,0:0|0:0|0:0,0:0:0:0:
152,88,35667,2,0,P|208:104|268:88,1,120,4|8,0:0|0:0,0:0:0:0:
304,76,36353,6,0,P|364:84|400:132,1,120,4|8,0:0|0:0,0:0:0:0:
416,208,37210,1,8,0:0:0:0:
324,340,37896,6,0,P|244:360|180:304,1,160,4|8,0:0|0:0,0:0:0:0:
136,208,39096,2,0,P|136:120|232:68,1,200,2|0,0:0|0:0,0:0:0:0:
304,52,40296,1,8,0:0:0:0:
384,64,40639,6,0,P|444:96|460:196,2,160,2|8|2,0:0|0:0|0:0,0:0:0:0:
304,52,42353,1,8,0:0:0:0:
256,116,42696,2,0,P|220:140|176:136,1,80,0|8,0:0|0:0,0:0:0:0:
108,116,43382,5,4,0:0:0:0:
56,268,44067,1,8,0:0:0:0:
196,344,44753,1,2,0:0:0:0:
256,292,45096,1,8,0:0:0:0:
316,344,45439,2,0,P|368:340|400:312,1,80,4|8,0:0|0:0,0:0:0:0:
428,308,45953,6,0,B|416:248|416:248|428:188,1,120,4|8,0:0|0:0,0:0:0:0:
456,116,46810,2,0,L|384:80,1,80,0|8,0:0|0:0,0:0:0:0:
348,64,47325,2,0,P|292:44|236:64,1,120,4|8,0:0|0:0,0:0:0:0:
188,128,48182,1,8,0:0:0:0:
108,128,48525,1,8,0:0:0:0:
28,128,48867,5,4,0:0:0:0:
28,288,49553,1,8,0:0:0:0:
180,336,50239,2,0,P|256:356|336:336,1,160,0|8,0:0|0:0,0:0:0:0:
256,200,51610,5,0,0:0:0:0:
348,68,52296,2,0,L|432:88,1,80,8|0,0:0|0:0,0:0:0:0:
464,96,52810,2,0,P|496:176|468:256,1,160,2|2,0:0|0:0,0:0:0:0:
388,324,54010,1,8,0:0:0:0:
308,324,54353,5,2,0:0:0:0:
148,324,55039,1,8,0:0:0:0:
28,220,55725,1,0,0:0:0:0:
108,220,56067,2,0,L|196:220,2,80,8|0|8,0:0|0:0|0:0,0:0:0:0:
28,220,57096,6,0,P|16:132|72:80,1,160,2|8,0:0|0:0,0:0:0:0:
176,196,58467,2,0,P|180:260|140:304,2,120,2|2|8,0:0|0:0|0:0,0:0:0:0:
148,120,59839,5,4,0:0:0:0:
296,60,60525,1,8,0:0:0:0:
444,120,61210,2,0,P|480:192|448:264,1,160,2|0,0:0|0:0,0:0:0:0:
392,312,62239,1,8,0:0:0:0:
316,336,62582,6,0,L|156:336,1,160,2|8,0:0|0:0,0:0:0:0:
60,264,63782,2,0,P|36:184|84:124,1,160,2|2,0:0|0:0,0:0:0:0:
184,72,64982,1,8,0:0:0:0:
200,152,65325,6,0,P|256:216|332:200,1,160,2|8,0:0|0:0,0:0:0:0:
472,144,66696,1,0,0:0:0:0:
336,60,67382,2,0,P|288:56|244:64,1,80,0|8,0:0|0:0,0:0:0:0:
180,84,68067,6,0,P|128:136|144:216,1,160,2|8,0:0|0:0,0:0:0:0:
264,320,69439,2,0,L|336:356,1,80,4|8,0:0|0:0,0:0:0:0:
416,356,70125,2,0,L|488:321,1,80,4|8,0:0|0:0,0:0:0:0:
496,244,70810,6,0,P|428:208|448:124,1,160,4|8,0:0|0:0,0:0:0:0:
300,48,72182,6,0,P|264:96|176:64,1,160,2|8,0:0|0:0,0:0:0:0:
48,160,73553,6,0,P|116:160|144:240,1,160,2|8,0:0|0:0,0:0:0:0:
264,344,74925,5,8,0:0:0:0:
344,344,75267,5,8,0:0:0:0:
424,344,75610,5,8,0:0:0:0:
504,252,76125,6,0,P|516:188|480:140,1,120,4|8,0:0|0:0,0:0:0:0:
424,96,76982,2,0,P|384:80|336:88,1,80,0|8,0:0|0:0,0:0:0:0:
308,92,77496,2,0,P|256:120|240:184,1,120,4|8,0:0|0:0,0:0:0:0:
220,252,78353,2,0,P|204:284|164:316,1,80,0|8,0:0|0:0,0:0:0:0:
92,312,79039,6,0,B|36:304|16:244|16:244|32:180,1,160,4|8,0:0|0:0,0:0:0:0:
40,156,79896,2,0,L|60:76,1,80,8|4,0:0|0:0,0:0:0:0:
180,60,80753,2,0,L|160:137,2,80,8|0|8,0:0|0:0|0:0,0:0:0:0:
256,36,81782,6,0,P|332:40|380:108,1,160,4|8,0:0|0:0,0:0:0:0:
392,224,82982,2,0,P|340:308|244:320,1,200,2|8,0:0|0:0,0:0:0:0:
168,300,84182,1,8,0:0:0:0:
104,248,84525,6,0,P|72:204|88:140,2,120,4|0|8,0:0|0:0|0:0,0:0:0:0:
136,276,85725,2,0,P|244:284|296:208,1,200,0|8,0:0|0:0,0:0:0:0:
296,136,86925,1,8,0:0:0:0:
260,64,87267,6,0,P|192:28|120:68,1,160,4|8,0:0|0:0,0:0:0:0:
72,172,88467,2,0,L|180:236,1,120,0|8,0:0|0:0,0:0:0:0:
128,300,89325,2,0,L|200:344,1,80,0|8,0:0|0:0,0:0:0:0:
272,368,90010,6,0,P|348:364|396:300,1,160,4|0,0:0|0:0,0:0:0:0:
392,220,91039,1,8,0:0:0:0:
368,144,91382,2,0,P|380:88|432:60,2,120,4|4|8,0:0|0:0|0:0,0:0:0:0:
392,220,92753,6,0,P|336:272|256:272,1,160,4|8,0:0|0:0,0:0:0:0:
140,240,93953,2,0,P|84:192|132:80,1,200,2|8,0:0|0:0,0:0:0:0:
192,44,95153,1,8,0:0:0:0:
272,32,95496,6,0,P|336:35|376:86,2,120,2|0|8,0:0|0:0|0:0,0:0:0:0:
236,52,96696,2,0,P|196:132|264:216,1,200,2|8,0:0|0:0,0:0:0:0:
336,224,97896,1,8,0:0:0:0:
416,216,98239,6,0,L|496:104,1,120,4|4,0:0|0:0,0:0:0:0:
340,48,99439,2,0,L|218:221,1,200,4|8,0:0|0:0,0:0:0:0:
176,276,100639,1,8,0:0:0:0:
112,324,100982,6,0,P|160:356|220:344,2,120,4|4|8,0:0|0:0|0:0,0:0:0:0:
84,296,102182,2,0,P|56:248|68:184,1,120,4|8,0:0|0:0,0:0:0:0:
104,116,103039,1,8,0:0:0:0:
168,68,103382,1,8,0:0:0:0:
248,56,103725,5,4,0:0:0:0:
216,212,104410,2,0,P|236:264|216:332,1,120,8|8,0:0|0:0,0:0:0:0:
32,260,105782,2,0,L|64:180,1,80,8|8,0:0|0:0,0:0:0:0:
88,112,106467,6,0,P|156:56|220:92,1,160,2|8,0:0|0:0,0:0:0:0:
276,184,107667,2,0,P|344:212|420:120,1,200,2|8,0:0|0:0,0:0:0:0:
304,20,109210,5,4,0:0:0:0:
156,80,109896,1,8,0:0:0:0:
276,184,110582,1,4,0:0:0:0:
392,292,111267,2,0,L|456:232,1,80,8|8,0:0|0:0,0:0:0:0:
256,192,111782,12,4,113153,0:0:0:0:
120,80,114010,5,8,0:0:0:0:
84,152,114353,1,8,0:0:0:0:
48,224,114696,2,0,P|64:296|148:332,1,160,4|8,0:0|0:0,0:0:0:0:
292,300,116067,2,0,P|276:228|192:192,1,160,0|8,0:0|0:0,0:0:0:0:
44,172,117439,6,0,P|32:96|92:40,2,160,0|8|0,0:0|0:0|0:0,0:0:0:0:
152,292,119496,2,0,B|192:308|192:308|228:292|228:292|316:292,1,160,8|8,0:0|0:0,0:0:0:0:
384,292,120525,5,4,0:0:0:0:
436,100,121382,2,0,L|312:100,1,120,0|4,0:0|0:0,0:0:0:0:
272,168,122239,2,0,L|176:168,1,80,0|4,0:0|0:0,0:0:0:0:
116,200,122925,6,0,P|76:268|140:308,1,160,0|8,0:0|0:0,0:0:0:0:
208,308,123953,1,8,0:0:0:0:
288,308,124296,2,0,L|416:308,2,120,4|4|8,0:0|0:0|0:0,0:0:0:0:
208,308,125667,6,0,L|128:288,1,80,4|8,0:0|0:0,0:0:0:0:
124,208,126353,2,0,L|40:208,1,80,8|8,0:0|0:0,0:0:0:0:
28,128,127039,2,0,L|112:128,1,80,8|8,0:0|0:0,0:0:0:0:
136,52,127725,2,0,L|216:72,1,80,8|8,0:0|0:0,0:0:0:0:
292,92,128410,6,0,P|324:116|376:120,1,80,4|8,0:0|0:0,0:0:0:0:
440,136,129096,1,8,0:0:0:0:
472,208,129439,1,8,0:0:0:0:
440,280,129782,2,0,P|408:316|360:320,2,80,8|8|8,0:0|0:0|0:0,0:0:0:0:
472,208,130810,1,8,0:0:0:0:
440,136,131153,6,0,P|400:88|332:80,1,120,4|4,0:0|0:0,0:0:0:0:
184,76,132353,2,0,B|116:76|116:76|132:128|144:192|104:228|36:228,1,280,4|8,0:0|0:0,0:0:0:0:
0,300,133896,6,0,L|128:320,1,120,4|4,0:0|0:0,0:0:0:0:
236,336,134925,1,8,0:0:0:0:
316,348,135267,2,0,P|376:344|416:296,1,120,4|4,0:0|0:0,0:0:0:0:
364,192,136296,1,8,0:0:0:0:
332,120,136639,6,0,L|244:96,1,80,4|8,0:0|0:0,0:0:0:0:
216,88,137153,2,0,P|160:112|88:96,1,120,4|8,0:0|0:0,0:0:0:0:
28,80,138010,1,8,0:0:0:0:
188,308,139210,6,0,P|232:300|256:256,1,80,4|4,0:0|0:0,0:0:0:0:
272,240,139725,2,0,L|364:232,1,80,4|4,0:0|0:0,0:0:0:0:
432,224,140410,1,8,0:0:0:0:
256,192,140582,12,0,146239,0:0:0:0:
