osu file format v14

[General]
AudioFilename: color.mp3
AudioLeadIn: 0
PreviewTime: 726
Countdown: 0
SampleSet: Normal
StackLeniency: 1
Mode: 1
LetterboxInBreaks: 0
WidescreenStoryboard: 0

[Editor]
Bookmarks: 726,11392,19392,30059,40725,51392,64725,86059,94059,105809
DistanceSpacing: 1.4
BeatDivisor: 12
GridSize: 32
TimelineZoom: 2.4

[Metadata]
Title:color
TitleUnicode:color
Artist:CHiCO with HoneyWorks
ArtistUnicode:CHiCO with HoneyWorks
Creator:xfraczynho
Version:qoot8123's Muzukashii
Source:
Tags:Sekai wa Koi ni Ochiteru 世界は恋に落ちている short version The World is Falling in Love gaston_2199 Aloda qoot8123
BeatmapID:1482142
BeatmapSetID:699733

[Difficulty]
HPDrainRate:6
CircleSize:2
OverallDifficulty:5
ApproachRate:10
SliderMultiplier:1.4
SliderTickRate:1

[Events]
//Background and Video events
0,0,"wwttff.jpg",0,120
//Break Periods
//Storyboard Layer 0 (Background)
//Storyboard Layer 1 (Fail)
//Storyboard Layer 2 (Pass)
//Storyboard Layer 3 (Foreground)
//Storyboard Sound Samples

[TimingPoints]
726,333.333333333333,4,1,0,40,1,0
726,-100,4,1,0,40,0,0
11309,-100,4,1,0,80,0,0
29892,-100,4,1,0,40,0,0
37892,-100,4,1,0,45,0,0
38725,-100,4,1,0,50,0,0
39225,-100,4,1,0,55,0,0
39892,-100,4,1,0,65,0,0
40309,-100,4,1,0,75,0,0
40642,-100,4,1,0,80,0,0
50642,-100,4,1,0,60,0,0
51309,-100,4,1,0,50,0,0
64642,-100,4,1,0,80,0,0
64725,-100,4,1,0,80,0,1
86059,-100,4,1,0,80,0,0
92642,-100,4,1,0,60,0,0
93975,-100,4,1,0,40,0,0

[HitObjects]
256,192,726,5,0,0:0:0:0:
256,192,2059,1,8,0:0:0:0:
256,192,3392,1,0,0:0:0:0:
256,192,4725,1,8,0:0:0:0:
256,192,5392,1,8,0:0:0:0:
256,192,6059,1,0,0:0:0:0:
256,192,7392,1,0,0:0:0:0:
256,192,8059,1,0,0:0:0:0:
256,192,8725,1,8,0:0:0:0:
256,192,10059,1,0,0:0:0:0:
256,192,10559,1,8,0:0:0:0:
256,192,11059,1,8,0:0:0:0:
256,192,11392,1,4,0:0:0:0:
256,192,11892,1,12,0:0:0:0:
256,192,12392,1,12,0:0:0:0:
256,192,12725,1,0,0:0:0:0:
256,192,12892,1,8,0:0:0:0:
256,192,13059,1,0,0:0:0:0:
256,192,13225,1,0,0:0:0:0:
256,192,13392,1,8,0:0:0:0:
256,192,13559,1,0,0:0:0:0:
256,192,13725,1,8,0:0:0:0:
256,192,13809,1,8,0:0:0:0:
256,192,13892,1,8,0:0:0:0:
256,192,14059,1,0,0:0:0:0:
256,192,14392,1,0,0:0:0:0:
256,192,14725,1,8,0:0:0:0:
256,192,14892,1,0,0:0:0:0:
256,192,15059,1,8,0:0:0:0:
256,192,15392,1,0,0:0:0:0:
256,192,15725,1,8,0:0:0:0:
256,192,16059,1,8,0:0:0:0:
256,192,16225,1,0,0:0:0:0:
256,192,16392,1,8,0:0:0:0:
256,192,16559,1,0,0:0:0:0:
256,192,16725,1,0,0:0:0:0:
256,192,17392,1,0,0:0:0:0:
256,192,17725,1,8,0:0:0:0:
256,192,17892,1,8,0:0:0:0:
256,192,18059,1,0,0:0:0:0:
256,192,18392,1,0,0:0:0:0:
256,192,18725,1,8,0:0:0:0:
256,192,18892,1,0,0:0:0:0:
256,192,19059,1,8,0:0:0:0:
256,192,19392,1,4,0:0:0:0:
256,192,19725,1,8,0:0:0:0:
256,192,20059,1,0,0:0:0:0:
256,192,20225,1,0,0:0:0:0:
256,192,20392,1,8,0:0:0:0:
256,192,20559,1,0,0:0:0:0:
256,192,20892,1,0,0:0:0:0:
256,192,21059,1,8,0:0:0:0:
256,192,21392,1,0,0:0:0:0:
256,192,21559,1,0,0:0:0:0:
256,192,21725,1,8,0:0:0:0:
256,192,21892,1,0,0:0:0:0:
256,192,22059,1,0,0:0:0:0:
256,192,22392,1,8,0:0:0:0:
256,192,22725,1,0,0:0:0:0:
256,192,22892,1,0,0:0:0:0:
256,192,23059,1,8,0:0:0:0:
256,192,23392,1,0,0:0:0:0:
256,192,23725,1,8,0:0:0:0:
256,192,24059,1,8,0:0:0:0:
256,192,24225,1,0,0:0:0:0:
256,192,24392,1,8,0:0:0:0:
256,192,24725,1,0,0:0:0:0:
256,192,25059,1,8,0:0:0:0:
256,192,25392,1,0,0:0:0:0:
256,192,25475,1,0,0:0:0:0:
256,192,25559,1,0,0:0:0:0:
256,192,25725,1,8,0:0:0:0:
256,192,25892,1,0,0:0:0:0:
256,192,26059,1,0,0:0:0:0:
256,192,26392,1,8,0:0:0:0:
256,192,26725,1,0,0:0:0:0:
256,192,26892,1,0,0:0:0:0:
256,192,27059,1,8,0:0:0:0:
256,192,27225,1,8,0:0:0:0:
256,192,27309,1,8,0:0:0:0:
256,192,27392,1,8,0:0:0:0:
256,192,27725,1,8,0:0:0:0:
256,192,27892,1,0,0:0:0:0:
256,192,28059,1,8,0:0:0:0:
256,192,28225,1,0,0:0:0:0:
256,192,28392,1,8,0:0:0:0:
256,192,28559,1,8,0:0:0:0:
256,192,28892,1,8,0:0:0:0:
256,192,29059,1,0,0:0:0:0:
256,192,29225,1,0,0:0:0:0:
256,192,29309,1,0,0:0:0:0:
256,192,29392,1,0,0:0:0:0:
256,192,29559,1,0,0:0:0:0:
256,192,29725,1,8,0:0:0:0:
256,192,30059,5,4,0:0:0:0:
256,192,31392,1,0,0:0:0:0:
256,192,32059,1,8,0:0:0:0:
256,192,32725,1,0,0:0:0:0:
256,192,34059,1,8,0:0:0:0:
256,192,34725,1,8,0:0:0:0:
256,192,35392,1,0,0:0:0:0:
256,192,36725,1,0,0:0:0:0:
256,192,37392,1,8,0:0:0:0:
256,192,38059,1,0,0:0:0:0:
256,192,38392,1,8,0:0:0:0:
256,192,38892,1,0,0:0:0:0:
256,192,39059,1,8,0:0:0:0:
256,192,39392,1,0,0:0:0:0:
256,192,39559,1,0,0:0:0:0:
256,192,39725,1,8,0:0:0:0:
256,192,40059,1,8,0:0:0:0:
256,192,40225,1,0,0:0:0:0:
256,192,40392,1,8,0:0:0:0:
256,192,40475,1,8,0:0:0:0:
256,192,40559,1,8,0:0:0:0:
256,192,40725,1,4,0:0:0:0:
256,192,41059,1,8,0:0:0:0:
256,192,41392,1,0,0:0:0:0:
256,192,41475,1,0,0:0:0:0:
256,192,41559,1,0,0:0:0:0:
256,192,41725,1,8,0:0:0:0:
256,192,41892,1,8,0:0:0:0:
256,192,42059,1,0,0:0:0:0:
256,192,42392,1,8,0:0:0:0:
256,192,42725,1,8,0:0:0:0:
256,192,42892,1,0,0:0:0:0:
256,192,43059,1,8,0:0:0:0:
256,192,43392,1,0,0:0:0:0:
256,192,43725,1,8,0:0:0:0:
256,192,43892,1,0,0:0:0:0:
256,192,43975,1,0,0:0:0:0:
256,192,44059,1,0,0:0:0:0:
256,192,44225,1,0,0:0:0:0:
256,192,44392,1,8,0:0:0:0:
256,192,44559,1,0,0:0:0:0:
256,192,44725,1,0,0:0:0:0:
256,192,45059,1,8,0:0:0:0:
256,192,45392,1,8,0:0:0:0:
256,192,45559,1,0,0:0:0:0:
267,194,45725,1,8,0:0:0:0:
256,192,46059,1,0,0:0:0:0:
256,192,46392,1,8,0:0:0:0:
256,192,46725,1,0,0:0:0:0:
256,192,46892,1,0,0:0:0:0:
256,192,47059,1,8,0:0:0:0:
256,192,47392,1,0,0:0:0:0:
256,192,47725,1,8,0:0:0:0:
256,192,47892,1,0,0:0:0:0:
256,192,47975,1,0,0:0:0:0:
256,192,48059,1,0,0:0:0:0:
256,192,48225,1,0,0:0:0:0:
256,192,48392,1,8,0:0:0:0:
256,192,48725,1,0,0:0:0:0:
256,192,49059,1,8,0:0:0:0:
256,192,49225,1,0,0:0:0:0:
256,192,49309,1,0,0:0:0:0:
256,192,49392,1,0,0:0:0:0:
256,192,49559,1,0,0:0:0:0:
256,192,49725,1,8,0:0:0:0:
256,192,49892,1,8,0:0:0:0:
256,192,50059,1,0,0:0:0:0:
256,192,50392,1,8,0:0:0:0:
256,192,50725,1,0,0:0:0:0:
256,192,50892,1,0,0:0:0:0:
256,192,51059,1,0,0:0:0:0:
256,192,51392,1,4,0:0:0:0:
256,192,52725,1,8,0:0:0:0:
256,192,53392,1,8,0:0:0:0:
256,192,53725,1,8,0:0:0:0:
256,192,54059,1,4,0:0:0:0:
256,192,54392,1,8,0:0:0:0:
256,192,54503,1,8,0:0:0:0:
256,192,54614,1,8,0:0:0:0:
256,192,54725,1,8,0:0:0:0:
256,192,55059,1,8,0:0:0:0:
256,192,55392,1,0,0:0:0:0:
256,192,56059,1,8,0:0:0:0:
256,192,56392,1,8,0:0:0:0:
256,192,56725,1,4,0:0:0:0:
256,192,57059,1,8,0:0:0:0:
256,192,57170,1,8,0:0:0:0:
256,192,57281,1,8,0:0:0:0:
256,192,57392,1,8,0:0:0:0:
256,192,57725,1,8,0:0:0:0:
256,192,58059,1,0,0:0:0:0:
256,192,59392,1,4,0:0:0:0:
256,192,59725,1,8,0:0:0:0:
256,192,59837,1,8,0:0:0:0:
256,192,59948,1,8,0:0:0:0:
256,192,60059,1,8,0:0:0:0:
256,192,60392,1,8,0:0:0:0:
256,192,60725,1,0,0:0:0:0:
256,192,61392,1,8,0:0:0:0:
256,192,61725,1,0,0:0:0:0:
256,192,62059,1,8,0:0:0:0:
256,192,62392,1,8,0:0:0:0:
256,192,62503,1,8,0:0:0:0:
256,192,62614,1,8,0:0:0:0:
256,192,62725,1,8,0:0:0:0:
256,192,63059,1,0,0:0:0:0:
256,192,63392,1,4,0:0:0:0:
256,192,64725,5,4,0:0:0:0:
256,192,65059,1,8,0:0:0:0:
256,192,65225,1,0,0:0:0:0:
256,192,65392,1,0,0:0:0:0:
256,192,65475,1,0,0:0:0:0:
256,192,65559,1,0,0:0:0:0:
256,192,65725,1,8,0:0:0:0:
256,192,65892,1,0,0:0:0:0:
256,192,66225,1,0,0:0:0:0:
256,192,66392,1,8,0:0:0:0:
256,192,66725,1,0,0:0:0:0:
256,192,66892,1,0,0:0:0:0:
256,192,67059,1,8,0:0:0:0:
256,192,67225,1,0,0:0:0:0:
256,192,67392,1,0,0:0:0:0:
256,192,67725,1,8,0:0:0:0:
256,192,68059,1,0,0:0:0:0:
256,192,68225,1,0,0:0:0:0:
256,192,68392,1,8,0:0:0:0:
256,192,68725,1,0,0:0:0:0:
256,192,69059,1,8,0:0:0:0:
256,192,69392,1,8,0:0:0:0:
256,192,69559,1,0,0:0:0:0:
256,192,69725,1,8,0:0:0:0:
256,192,69809,1,8,0:0:0:0:
256,192,69892,1,8,0:0:0:0:
256,192,70059,1,0,0:0:0:0:
256,192,70392,1,8,0:0:0:0:
256,192,70725,1,0,0:0:0:0:
256,192,70892,1,0,0:0:0:0:
256,192,71059,1,8,0:0:0:0:
256,192,71392,1,0,0:0:0:0:
256,192,71725,1,8,0:0:0:0:
256,192,72059,1,8,0:0:0:0:
256,192,72225,1,0,0:0:0:0:
256,192,72392,1,8,0:0:0:0:
256,192,72725,1,0,0:0:0:0:
256,192,72892,1,0,0:0:0:0:
256,192,73059,1,8,0:0:0:0:
256,192,73225,1,0,0:0:0:0:
256,192,73309,1,0,0:0:0:0:
256,192,73392,1,0,0:0:0:0:
256,192,73559,1,0,0:0:0:0:
256,192,73725,1,8,0:0:0:0:
256,192,74059,1,8,0:0:0:0:
256,192,74225,1,0,0:0:0:0:
256,192,74392,1,8,0:0:0:0:
256,192,74559,1,8,0:0:0:0:
256,192,74725,1,0,0:0:0:0:
256,192,74809,1,0,0:0:0:0:
256,192,74892,1,0,0:0:0:0:
256,192,75059,1,8,0:0:0:0:
256,192,75142,1,8,0:0:0:0:
256,192,75225,1,8,0:0:0:0:
256,192,75392,1,4,0:0:0:0:
256,192,75725,1,8,0:0:0:0:
256,192,76059,1,8,0:0:0:0:
288,192,76225,1,0,0:0:0:0:
256,192,76392,1,8,0:0:0:0:
256,192,76559,1,8,0:0:0:0:
256,192,76642,1,8,0:0:0:0:
256,192,76725,1,8,0:0:0:0:
256,192,76892,1,0,0:0:0:0:
256,192,77059,1,8,0:0:0:0:
256,192,77392,1,0,0:0:0:0:
256,192,77559,1,0,0:0:0:0:
256,192,77725,1,8,0:0:0:0:
256,192,77892,1,0,0:0:0:0:
256,192,78059,1,0,0:0:0:0:
256,192,78392,1,8,0:0:0:0:
256,192,78725,1,0,0:0:0:0:
256,192,78892,1,0,0:0:0:0:
256,192,79059,1,8,0:0:0:0:
256,192,79392,1,0,0:0:0:0:
256,192,79559,1,0,0:0:0:0:
256,192,79725,1,8,0:0:0:0:
256,192,79892,1,0,0:0:0:0:
256,192,79975,1,0,0:0:0:0:
256,192,80059,1,0,0:0:0:0:
256,192,80225,1,0,0:0:0:0:
256,192,80392,1,8,0:0:0:0:
256,192,80725,1,4,0:0:0:0:
256,192,81059,1,8,0:0:0:0:
256,192,81392,1,0,0:0:0:0:
256,192,81559,1,0,0:0:0:0:
256,192,81725,1,8,0:0:0:0:
256,192,81892,1,0,0:0:0:0:
256,192,82225,1,0,0:0:0:0:
256,192,82392,1,8,0:0:0:0:
256,192,82559,1,0,0:0:0:0:
256,192,82642,1,0,0:0:0:0:
256,192,82725,1,0,0:0:0:0:
256,192,82892,1,0,0:0:0:0:
256,192,83059,1,8,0:0:0:0:
256,192,83392,1,0,0:0:0:0:
256,192,83559,1,0,0:0:0:0:
256,192,83725,1,8,0:0:0:0:
256,192,84059,1,8,0:0:0:0:
256,192,84225,1,0,0:0:0:0:
256,192,84392,1,8,0:0:0:0:
256,192,84725,1,0,0:0:0:0:
256,192,84892,1,0,0:0:0:0:
256,192,85059,1,8,0:0:0:0:
256,192,85225,1,8,0:0:0:0:
256,192,85309,1,8,0:0:0:0:
256,192,85392,1,8,0:0:0:0:
256,192,85559,1,0,0:0:0:0:
256,192,85725,1,8,0:0:0:0:
256,192,86059,1,4,0:0:0:0:
256,192,86559,1,12,0:0:0:0:
256,192,87059,1,12,0:0:0:0:
256,192,87392,1,0,0:0:0:0:
256,192,87559,1,8,0:0:0:0:
256,192,87725,1,0,0:0:0:0:
256,192,87892,1,0,0:0:0:0:
256,192,88059,1,8,0:0:0:0:
256,192,88225,1,0,0:0:0:0:
256,192,88392,1,8,0:0:0:0:
256,192,88475,1,8,0:0:0:0:
256,192,88559,1,8,0:0:0:0:
256,192,88725,1,0,0:0:0:0:
256,192,89059,1,8,0:0:0:0:
256,192,89392,1,0,0:0:0:0:
256,192,89559,1,0,0:0:0:0:
256,192,89725,1,8,0:0:0:0:
256,192,89892,1,0,0:0:0:0:
256,192,90059,1,0,0:0:0:0:
256,192,90392,1,8,0:0:0:0:
256,192,90725,1,8,0:0:0:0:
256,192,90892,1,0,0:0:0:0:
256,192,91059,1,8,0:0:0:0:
256,192,91225,1,0,0:0:0:0:
256,192,91392,1,0,0:0:0:0:
256,192,91725,1,0,0:0:0:0:
256,192,92059,1,8,0:0:0:0:
256,192,92225,1,0,0:0:0:0:
256,192,92392,1,8,0:0:0:0:
256,192,92725,1,0,0:0:0:0:
256,192,93392,1,8,0:0:0:0:
256,192,94059,1,0,0:0:0:0:
