osu file format v14

[General]
AudioFilename: color.mp3
AudioLeadIn: 0
PreviewTime: 726
Countdown: 0
SampleSet: Normal
StackLeniency: 1
Mode: 1
LetterboxInBreaks: 0
WidescreenStoryboard: 0

[Editor]
Bookmarks: 726,11392,19392,30059,40725,51392,64725,86059,94059,105809
DistanceSpacing: 1.4
BeatDivisor: 12
GridSize: 32
TimelineZoom: 2.4

[Metadata]
Title:color
TitleUnicode:color
Artist:CHiCO with HoneyWorks
ArtistUnicode:CHiCO with HoneyWorks
Creator:xfraczynho
Version:Color Oni
Source:
Tags:Sekai wa Koi ni Ochiteru 世界は恋に落ちている short version The World is Falling in Love gaston_2199 Aloda qoot8123
BeatmapID:1481600
BeatmapSetID:699733

[Difficulty]
HPDrainRate:5
CircleSize:2
OverallDifficulty:6
ApproachRate:10
SliderMultiplier:1.4
SliderTickRate:1

[Events]
//Background and Video events
0,0,"wwttff.jpg",0,120
//Break Periods
//Storyboard Layer 0 (Background)
//Storyboard Layer 1 (Fail)
//Storyboard Layer 2 (Pass)
//Storyboard Layer 3 (Foreground)
//Storyboard Sound Samples

[TimingPoints]
726,333.333333333333,4,1,0,50,1,0
726,-133.333333333333,4,1,0,50,0,0
11392,-100,4,1,0,75,0,0
14059,-100,4,1,0,80,0,0
19392,-100,4,1,0,70,0,0
29892,-105.263157894737,4,1,0,70,0,0
30059,-111.111111111111,4,1,0,60,0,0
40225,-108.695652173913,4,1,0,60,0,0
40392,-106.382978723404,4,1,0,60,0,0
40475,-104.166666666667,4,1,0,60,0,0
40559,-102.040816326531,4,1,0,60,0,0
40725,-100,4,1,0,80,0,0
50559,-101.010101010101,4,1,0,80,0,0
50642,-102.040816326531,4,1,0,80,0,0
50725,-103.092783505155,4,1,0,80,0,0
50892,-104.166666666667,4,1,0,80,0,0
51059,-105.263157894737,4,1,0,80,0,0
51225,-111.111111111111,4,1,0,80,0,0
51392,-117.647058823529,4,1,0,60,0,0
64725,-100,4,1,0,90,0,1
86059,-100,4,1,0,75,0,0
88725,-100,4,1,0,80,0,0
92725,-100,4,1,0,60,0,0
94059,-100,4,1,0,50,0,0

[HitObjects]
256,192,726,5,8,0:0:0:0:
256,192,2059,1,0,0:0:0:0:
256,192,3392,1,0,0:0:0:0:
256,192,4725,1,8,0:0:0:0:
256,192,5392,1,8,0:0:0:0:
256,192,6003,1,0,0:0:0:0:
256,192,6059,1,8,0:0:0:0:
256,192,7337,1,8,0:0:0:0:
256,192,7392,1,8,0:0:0:0:
256,192,8059,1,0,0:0:0:0:
256,192,8670,1,8,0:0:0:0:
256,192,8725,1,0,0:0:0:0:
256,192,9225,1,0,0:0:0:0:
256,192,9309,1,0,0:0:0:0:
256,192,9392,1,8,0:0:0:0:
256,192,9559,1,0,0:0:0:0:
256,192,9725,1,8,0:0:0:0:
256,192,9892,1,8,0:0:0:0:
256,192,10059,1,0,0:0:0:0:
256,192,10392,1,0,0:0:0:0:
256,192,10559,1,8,0:0:0:0:
256,192,10892,1,8,0:0:0:0:
256,192,11059,1,0,0:0:0:0:
256,192,11392,1,12,0:0:0:0:
256,192,11559,1,0,0:0:0:0:
256,192,11725,1,0,0:0:0:0:
256,192,11892,1,12,0:0:0:0:
256,192,12059,1,0,0:0:0:0:
256,192,12225,1,0,0:0:0:0:
256,192,12392,1,12,0:0:0:0:
256,192,12559,1,0,0:0:0:0:
256,192,12725,1,0,0:0:0:0:
256,192,12892,1,12,0:0:0:0:
256,192,13059,1,0,0:0:0:0:
256,192,13225,1,12,0:0:0:0:
256,192,13392,1,0,0:0:0:0:
256,192,13475,1,0,0:0:0:0:
256,192,13559,1,0,0:0:0:0:
256,192,13642,1,0,0:0:0:0:
256,192,13725,1,0,0:0:0:0:
256,192,13809,1,0,0:0:0:0:
256,192,13892,1,0,0:0:0:0:
256,192,13975,1,0,0:0:0:0:
256,192,14059,1,8,0:0:0:0:
256,192,14225,1,0,0:0:0:0:
256,192,14392,1,8,0:0:0:0:
256,192,14475,1,8,0:0:0:0:
256,192,14559,1,0,0:0:0:0:
256,192,14725,1,8,0:0:0:0:
256,192,14892,1,0,0:0:0:0:
256,192,15059,1,8,0:0:0:0:
256,192,15142,1,8,0:0:0:0:
256,192,15225,1,0,0:0:0:0:
256,192,15392,1,8,0:0:0:0:
256,192,15559,1,0,0:0:0:0:
256,192,15725,1,8,0:0:0:0:
256,192,15809,1,8,0:0:0:0:
256,192,15892,1,0,0:0:0:0:
256,192,16059,1,8,0:0:0:0:
256,192,16225,1,0,0:0:0:0:
256,192,16392,1,8,0:0:0:0:
256,192,16475,1,8,0:0:0:0:
256,192,16559,1,0,0:0:0:0:
256,192,16642,1,0,0:0:0:0:
256,192,16725,1,8,0:0:0:0:
256,192,16892,1,0,0:0:0:0:
256,192,17059,1,0,0:0:0:0:
256,192,17225,1,0,0:0:0:0:
256,192,17392,1,8,0:0:0:0:
256,192,17559,1,0,0:0:0:0:
256,192,17725,1,0,0:0:0:0:
256,192,17892,1,0,0:0:0:0:
256,192,18059,1,8,0:0:0:0:
256,192,18225,1,0,0:0:0:0:
256,192,18392,1,8,0:0:0:0:
256,192,18559,1,0,0:0:0:0:
256,192,18725,1,8,0:0:0:0:
256,192,18809,1,8,0:0:0:0:
256,192,18892,1,8,0:0:0:0:
256,192,18975,1,8,0:0:0:0:
256,192,19059,1,0,0:0:0:0:
256,192,19392,1,12,0:0:0:0:
256,192,19559,1,0,0:0:0:0:
256,192,19642,1,8,0:0:0:0:
256,192,19725,1,0,0:0:0:0:
256,192,19892,1,0,0:0:0:0:
256,192,20059,1,8,0:0:0:0:
256,192,20142,1,8,0:0:0:0:
256,192,20225,1,0,0:0:0:0:
256,192,20309,1,0,0:0:0:0:
256,192,20392,1,8,0:0:0:0:
256,192,20559,1,8,0:0:0:0:
256,192,20725,1,8,0:0:0:0:
256,192,20809,1,0,0:0:0:0:
256,192,20892,1,8,0:0:0:0:
256,192,20975,1,8,0:0:0:0:
256,192,21059,1,0,0:0:0:0:
256,192,21225,1,8,0:0:0:0:
256,192,21392,1,0,0:0:0:0:
256,192,21559,1,8,0:0:0:0:
256,192,21725,1,0,0:0:0:0:
256,192,21809,1,8,0:0:0:0:
256,192,21892,1,0,0:0:0:0:
256,192,21975,1,0,0:0:0:0:
256,192,22059,1,8,0:0:0:0:
256,192,22392,1,0,0:0:0:0:
256,192,22475,1,0,0:0:0:0:
256,192,22559,1,0,0:0:0:0:
256,192,22642,1,0,0:0:0:0:
256,192,22725,1,8,0:0:0:0:
256,192,22892,1,0,0:0:0:0:
256,192,23059,1,8,0:0:0:0:
256,192,23225,1,0,0:0:0:0:
256,192,23309,1,0,0:0:0:0:
256,192,23392,1,8,0:0:0:0:
256,192,23559,1,0,0:0:0:0:
256,192,23725,1,8,0:0:0:0:
256,192,23809,1,0,0:0:0:0:
256,192,23892,1,8,0:0:0:0:
256,192,24059,1,8,0:0:0:0:
256,192,24225,1,0,0:0:0:0:
256,192,24392,1,8,0:0:0:0:
256,192,24475,1,8,0:0:0:0:
256,192,24559,1,0,0:0:0:0:
256,192,24725,1,0,0:0:0:0:
256,192,24809,1,8,0:0:0:0:
256,192,24892,1,0,0:0:0:0:
256,192,24975,1,8,0:0:0:0:
256,192,25059,1,0,0:0:0:0:
256,192,25142,1,0,0:0:0:0:
256,192,25225,1,8,0:0:0:0:
256,192,25392,1,8,0:0:0:0:
256,192,25475,1,8,0:0:0:0:
256,192,25559,1,0,0:0:0:0:
256,192,25725,1,8,0:0:0:0:
256,192,25809,1,8,0:0:0:0:
256,192,25892,1,0,0:0:0:0:
256,192,26059,1,0,0:0:0:0:
256,192,26142,1,8,0:0:0:0:
256,192,26225,1,0,0:0:0:0:
256,192,26309,1,0,0:0:0:0:
256,192,26392,1,8,0:0:0:0:
256,192,26475,1,0,0:0:0:0:
256,192,26559,1,8,0:0:0:0:
256,192,26725,1,8,0:0:0:0:
256,192,26809,1,8,0:0:0:0:
256,192,26892,1,0,0:0:0:0:
256,192,27059,1,8,0:0:0:0:
256,192,27142,1,8,0:0:0:0:
256,192,27225,1,0,0:0:0:0:
256,192,27392,1,4,0:0:0:0:
256,192,27725,1,8,0:0:0:0:
256,192,27892,1,0,0:0:0:0:
256,192,28059,1,8,0:0:0:0:
256,192,28225,1,0,0:0:0:0:
256,192,28392,1,8,0:0:0:0:
256,192,28559,1,8,0:0:0:0:
256,192,28725,1,0,0:0:0:0:
256,192,28892,1,8,0:0:0:0:
256,192,29059,1,8,0:0:0:0:
256,192,29142,1,8,0:0:0:0:
256,192,29225,1,8,0:0:0:0:
256,192,29309,1,8,0:0:0:0:
256,192,29392,1,0,0:0:0:0:
256,192,29475,1,0,0:0:0:0:
256,192,29559,1,0,0:0:0:0:
256,192,29642,1,0,0:0:0:0:
256,192,29725,1,8,0:0:0:0:
256,192,29892,1,8,0:0:0:0:
256,192,30059,1,4,0:0:0:0:
256,192,31392,1,8,0:0:0:0:
256,192,32059,1,8,0:0:0:0:
256,192,32725,1,0,0:0:0:0:
256,192,33392,1,8,0:0:0:0:
256,192,33892,1,0,0:0:0:0:
256,192,34725,1,0,0:0:0:0:
256,192,35392,1,8,0:0:0:0:
256,192,36059,1,8,0:0:0:0:
256,192,36725,1,0,0:0:0:0:
256,192,37059,1,0,0:0:0:0:
256,192,37392,1,8,0:0:0:0:
256,192,38059,1,8,0:0:0:0:
256,192,38392,1,0,0:0:0:0:
256,192,38559,1,0,0:0:0:0:
256,192,38725,1,8,0:0:0:0:
256,192,39059,1,0,0:0:0:0:
256,192,39225,1,0,0:0:0:0:
256,192,39309,1,0,0:0:0:0:
256,192,39392,1,8,0:0:0:0:
256,192,39559,1,0,0:0:0:0:
256,192,39725,1,8,0:0:0:0:
256,192,39892,1,8,0:0:0:0:
256,192,39975,1,0,0:0:0:0:
256,192,40059,1,8,0:0:0:0:
256,192,40225,1,8,0:0:0:0:
256,192,40392,1,8,0:0:0:0:
256,192,40475,1,8,0:0:0:0:
256,192,40559,1,0,0:0:0:0:
256,192,40725,1,4,0:0:0:0:
256,192,41059,1,8,0:0:0:0:
256,192,41225,1,0,0:0:0:0:
256,192,41392,1,8,0:0:0:0:
256,192,41475,1,8,0:0:0:0:
256,192,41559,1,0,0:0:0:0:
256,192,41725,1,8,0:0:0:0:
256,192,41892,1,0,0:0:0:0:
256,192,41975,1,0,0:0:0:0:
256,192,42059,1,8,0:0:0:0:
256,192,42225,1,0,0:0:0:0:
256,192,42392,1,8,0:0:0:0:
256,192,42559,1,0,0:0:0:0:
256,192,42725,1,8,0:0:0:0:
256,192,42809,1,8,0:0:0:0:
256,192,42892,1,0,0:0:0:0:
256,192,42975,1,0,0:0:0:0:
256,192,43059,1,8,0:0:0:0:
256,192,43225,1,0,0:0:0:0:
256,192,43392,1,8,0:0:0:0:
256,192,43475,1,8,0:0:0:0:
256,192,43559,1,0,0:0:0:0:
256,192,43725,1,8,0:0:0:0:
256,192,43892,1,0,0:0:0:0:
256,192,43975,1,0,0:0:0:0:
256,192,44059,1,8,0:0:0:0:
256,192,44225,1,0,0:0:0:0:
256,192,44392,1,8,0:0:0:0:
256,192,44475,1,0,0:0:0:0:
256,192,44559,1,8,0:0:0:0:
256,192,44642,1,8,0:0:0:0:
256,192,44725,1,0,0:0:0:0:
256,192,44892,1,0,0:0:0:0:
256,192,45059,1,8,0:0:0:0:
256,192,45225,1,8,0:0:0:0:
256,192,45309,1,8,0:0:0:0:
256,192,45392,1,0,0:0:0:0:
256,192,45559,1,0,0:0:0:0:
256,192,45642,1,0,0:0:0:0:
256,192,45725,1,8,0:0:0:0:
256,192,45892,1,0,0:0:0:0:
256,192,46059,1,8,0:0:0:0:
256,192,46142,1,8,0:0:0:0:
256,192,46225,1,0,0:0:0:0:
256,192,46309,1,0,0:0:0:0:
256,192,46392,1,8,0:0:0:0:
256,192,46559,1,0,0:0:0:0:
256,192,46725,1,8,0:0:0:0:
256,192,46809,1,0,0:0:0:0:
256,192,46892,1,8,0:0:0:0:
256,192,47059,1,0,0:0:0:0:
256,192,47225,1,8,0:0:0:0:
256,192,47392,1,8,0:0:0:0:
256,192,47475,1,8,0:0:0:0:
256,192,47559,1,0,0:0:0:0:
256,192,47725,1,8,0:0:0:0:
256,192,47892,1,0,0:0:0:0:
256,192,47975,1,0,0:0:0:0:
256,192,48059,1,8,0:0:0:0:
256,192,48225,1,0,0:0:0:0:
256,192,48392,1,8,0:0:0:0:
256,192,48475,1,0,0:0:0:0:
256,192,48559,1,0,0:0:0:0:
256,192,48642,1,0,0:0:0:0:
256,192,48725,1,8,0:0:0:0:
256,192,48892,1,0,0:0:0:0:
256,192,49059,1,8,0:0:0:0:
256,192,49225,1,0,0:0:0:0:
256,192,49309,1,8,0:0:0:0:
256,192,49392,1,0,0:0:0:0:
256,192,49559,1,0,0:0:0:0:
256,192,49642,1,0,0:0:0:0:
256,192,49725,1,8,0:0:0:0:
256,192,49892,1,0,0:0:0:0:
256,192,50059,1,8,0:0:0:0:
256,192,50142,1,0,0:0:0:0:
256,192,50225,1,8,0:0:0:0:
256,192,50309,1,8,0:0:0:0:
256,192,50392,1,0,0:0:0:0:
256,192,50559,1,0,0:0:0:0:
256,192,50642,1,0,0:0:0:0:
256,192,50725,1,8,0:0:0:0:
256,192,50892,1,0,0:0:0:0:
256,192,51059,1,8,0:0:0:0:
256,192,51225,1,8,0:0:0:0:
256,192,51392,1,4,0:0:0:0:
256,192,52059,1,8,0:0:0:0:
256,192,52170,1,0,0:0:0:0:
256,192,52281,1,0,0:0:0:0:
256,192,52392,1,0,0:0:0:0:
256,192,52503,1,8,0:0:0:0:
256,192,52614,1,8,0:0:0:0:
256,192,52725,1,0,0:0:0:0:
256,192,53392,1,8,0:0:0:0:
256,192,54059,1,4,0:0:0:0:
256,192,54392,1,0,0:0:0:0:
256,192,54503,1,0,0:0:0:0:
256,192,54614,1,0,0:0:0:0:
256,192,54725,1,8,0:0:0:0:
256,192,55059,1,8,0:0:0:0:
256,192,55170,1,8,0:0:0:0:
256,192,55281,1,8,0:0:0:0:
256,192,55392,1,0,0:0:0:0:
256,192,55725,1,0,0:0:0:0:
256,192,56059,1,0,0:0:0:0:
256,192,56170,1,8,0:0:0:0:
256,192,56281,1,8,0:0:0:0:
256,192,56392,1,0,0:0:0:0:
256,192,56503,1,0,0:0:0:0:
256,192,56614,1,8,0:0:0:0:
256,192,56725,1,0,0:0:0:0:
256,192,57059,1,0,0:0:0:0:
256,192,57170,1,8,0:0:0:0:
256,192,57281,1,8,0:0:0:0:
256,192,57392,1,0,0:0:0:0:
256,192,57725,1,8,0:0:0:0:
256,192,57837,1,0,0:0:0:0:
256,192,57948,1,0,0:0:0:0:
256,192,58059,1,8,0:0:0:0:
256,192,58392,1,0,0:0:0:0:
256,192,58503,1,0,0:0:0:0:
256,192,58614,1,0,0:0:0:0:
256,192,58725,1,8,0:0:0:0:
256,192,58837,1,8,0:0:0:0:
256,192,58948,1,8,0:0:0:0:
256,192,59059,1,0,0:0:0:0:
256,192,59170,1,8,0:0:0:0:
256,192,59281,1,8,0:0:0:0:
256,192,59392,1,0,0:0:0:0:
256,192,59725,1,8,0:0:0:0:
256,192,59837,1,8,0:0:0:0:
256,192,59948,1,0,0:0:0:0:
256,192,60059,1,0,0:0:0:0:
256,192,60392,1,0,0:0:0:0:
256,192,60503,1,0,0:0:0:0:
256,192,60614,1,8,0:0:0:0:
256,192,60725,1,8,0:0:0:0:
256,192,61059,1,0,0:0:0:0:
256,192,61170,1,8,0:0:0:0:
256,192,61281,1,0,0:0:0:0:
256,192,61392,1,0,0:0:0:0:
256,192,61503,1,0,0:0:0:0:
256,192,61614,1,8,0:0:0:0:
256,192,61725,1,0,0:0:0:0:
256,192,61837,1,0,0:0:0:0:
256,192,61948,1,8,0:0:0:0:
256,192,62059,1,8,0:0:0:0:
256,192,62392,1,8,0:0:0:0:
256,192,62503,1,0,0:0:0:0:
256,192,62614,1,0,0:0:0:0:
256,192,62725,1,8,0:0:0:0:
256,192,62837,1,8,0:0:0:0:
256,190,62948,1,0,0:0:0:0:
256,190,63059,1,8,0:0:0:0:
256,190,63170,1,8,0:0:0:0:
256,190,63281,1,8,0:0:0:0:
256,190,63392,1,4,0:0:0:0:
256,192,64725,1,4,0:0:0:0:
256,192,65059,1,0,0:0:0:0:
256,192,65142,1,8,0:0:0:0:
256,192,65225,1,0,0:0:0:0:
256,192,65309,1,0,0:0:0:0:
256,192,65392,1,8,0:0:0:0:
256,192,65559,1,0,0:0:0:0:
256,192,65725,1,8,0:0:0:0:
256,192,65892,1,8,0:0:0:0:
256,192,65975,1,0,0:0:0:0:
256,192,66059,1,8,0:0:0:0:
256,192,66142,1,8,0:0:0:0:
256,192,66225,1,0,0:0:0:0:
256,192,66392,1,8,0:0:0:0:
256,192,66559,1,0,0:0:0:0:
256,192,66642,1,0,0:0:0:0:
256,192,66725,1,8,0:0:0:0:
256,192,66892,1,0,0:0:0:0:
256,192,67059,1,8,0:0:0:0:
256,192,67142,1,8,0:0:0:0:
256,192,67225,1,0,0:0:0:0:
256,192,67309,1,0,0:0:0:0:
256,192,67392,1,8,0:0:0:0:
256,192,67559,1,0,0:0:0:0:
256,192,67725,1,8,0:0:0:0:
256,192,67809,1,0,0:0:0:0:
256,192,67892,1,0,0:0:0:0:
256,192,67975,1,0,0:0:0:0:
256,192,68059,1,8,0:0:0:0:
256,192,68225,1,0,0:0:0:0:
256,192,68392,1,8,0:0:0:0:
256,192,68559,1,0,0:0:0:0:
256,192,68642,1,0,0:0:0:0:
256,192,68725,1,8,0:0:0:0:
256,192,68892,1,0,0:0:0:0:
256,192,69059,1,8,0:0:0:0:
256,192,69142,1,0,0:0:0:0:
256,192,69225,1,8,0:0:0:0:
256,192,69392,1,8,0:0:0:0:
256,192,69475,1,0,0:0:0:0:
256,192,69559,1,8,0:0:0:0:
256,192,69642,1,8,0:0:0:0:
256,192,69725,1,0,0:0:0:0:
256,192,69892,1,8,0:0:0:0:
256,192,70059,1,4,0:0:0:0:
256,192,70392,1,8,0:0:0:0:
256,192,70475,1,8,0:0:0:0:
256,192,70559,1,8,0:0:0:0:
256,192,70725,1,0,0:0:0:0:
256,192,70809,1,0,0:0:0:0:
256,192,70892,1,0,0:0:0:0:
256,192,70975,1,0,0:0:0:0:
256,192,71059,1,8,0:0:0:0:
256,192,71225,1,0,0:0:0:0:
256,192,71392,1,0,0:0:0:0:
256,192,71475,1,8,0:0:0:0:
256,192,71559,1,0,0:0:0:0:
256,192,71725,1,0,0:0:0:0:
256,192,71809,1,8,0:0:0:0:
256,192,71892,1,8,0:0:0:0:
256,192,71975,1,8,0:0:0:0:
256,192,72059,1,0,0:0:0:0:
256,192,72225,1,8,0:0:0:0:
256,192,72309,1,0,0:0:0:0:
256,192,72392,1,8,0:0:0:0:
256,192,72475,1,8,0:0:0:0:
256,192,72559,1,0,0:0:0:0:
256,192,72642,1,0,0:0:0:0:
256,192,72725,1,8,0:0:0:0:
256,192,72892,1,0,0:0:0:0:
256,192,73059,1,8,0:0:0:0:
256,192,73225,1,8,0:0:0:0:
256,192,73309,1,0,0:0:0:0:
256,192,73392,1,0,0:0:0:0:
256,192,73559,1,0,0:0:0:0:
256,192,73725,1,0,0:0:0:0:
256,192,73809,1,0,0:0:0:0:
256,192,73892,1,8,0:0:0:0:
256,192,73975,1,0,0:0:0:0:
256,192,74059,1,8,0:0:0:0:
256,192,74225,1,8,0:0:0:0:
256,192,74559,1,8,0:0:0:0:
256,192,74725,1,0,0:0:0:0:
256,192,74892,1,8,0:0:0:0:
256,192,74975,1,8,0:0:0:0:
256,192,75059,1,0,0:0:0:0:
256,192,75142,1,8,0:0:0:0:
256,192,75225,1,0,0:0:0:0:
256,192,75309,1,0,0:0:0:0:
256,192,75392,1,8,0:0:0:0:
256,192,75725,1,8,0:0:0:0:
256,192,75892,1,0,0:0:0:0:
256,192,75975,1,0,0:0:0:0:
256,192,76059,1,8,0:0:0:0:
256,192,76225,1,0,0:0:0:0:
256,192,76392,1,8,0:0:0:0:
256,192,76559,1,8,0:0:0:0:
256,192,76642,1,0,0:0:0:0:
256,192,76725,1,0,0:0:0:0:
256,192,76809,1,8,0:0:0:0:
256,192,76892,1,0,0:0:0:0:
256,192,77059,1,8,0:0:0:0:
256,192,77225,1,0,0:0:0:0:
256,192,77392,1,8,0:0:0:0:
256,192,77475,1,0,0:0:0:0:
256,192,77559,1,8,0:0:0:0:
256,192,77725,1,8,0:0:0:0:
256,192,77809,1,8,0:0:0:0:
256,192,77892,1,0,0:0:0:0:
256,192,77975,1,0,0:0:0:0:
256,192,78059,1,8,0:0:0:0:
256,192,78225,1,0,0:0:0:0:
256,192,78392,1,8,0:0:0:0:
256,192,78475,1,0,0:0:0:0:
256,192,78559,1,0,0:0:0:0:
256,192,78642,1,0,0:0:0:0:
256,192,78725,1,8,0:0:0:0:
256,192,78892,1,0,0:0:0:0:
256,192,79059,1,8,0:0:0:0:
256,192,79225,1,0,0:0:0:0:
256,192,79309,1,0,0:0:0:0:
256,192,79392,1,8,0:0:0:0:
256,192,79559,1,0,0:0:0:0:
256,192,79725,1,8,0:0:0:0:
256,192,79892,1,8,0:0:0:0:
256,192,79975,1,0,0:0:0:0:
256,192,80059,1,8,0:0:0:0:
256,192,80142,1,8,0:0:0:0:
256,192,80225,1,0,0:0:0:0:
256,192,80309,1,0,0:0:0:0:
256,192,80392,1,8,0:0:0:0:
256,192,80559,1,8,0:0:0:0:
256,192,80725,1,4,0:0:0:0:
256,192,81059,1,8,0:0:0:0:
256,192,81225,1,0,0:0:0:0:
256,192,81392,1,8,0:0:0:0:
256,192,81475,1,0,0:0:0:0:
256,192,81559,1,0,0:0:0:0:
256,192,81642,1,0,0:0:0:0:
256,192,81725,1,8,0:0:0:0:
256,192,81892,1,0,0:0:0:0:
256,192,82059,1,0,0:0:0:0:
256,192,82142,1,0,0:0:0:0:
256,192,82225,1,8,0:0:0:0:
256,192,82392,1,8,0:0:0:0:
256,192,82475,1,8,0:0:0:0:
256,192,82559,1,8,0:0:0:0:
256,192,82642,1,8,0:0:0:0:
256,192,82725,1,0,0:0:0:0:
256,192,82892,1,0,0:0:0:0:
256,192,82975,1,8,0:0:0:0:
256,192,83059,1,0,0:0:0:0:
256,192,83142,1,0,0:0:0:0:
256,192,83225,1,8,0:0:0:0:
256,192,83309,1,0,0:0:0:0:
256,192,83392,1,8,0:0:0:0:
256,192,83725,1,8,0:0:0:0:
256,192,83892,1,0,0:0:0:0:
256,192,84059,1,0,0:0:0:0:
256,192,84142,1,0,0:0:0:0:
256,192,84225,1,8,0:0:0:0:
256,192,84392,1,8,0:0:0:0:
256,192,84475,1,8,0:0:0:0:
256,192,84559,1,0,0:0:0:0:
256,192,84642,1,0,0:0:0:0:
256,192,84725,1,8,0:0:0:0:
256,192,84892,1,0,0:0:0:0:
256,192,85059,1,0,0:0:0:0:
256,192,85225,1,8,0:0:0:0:
256,192,85559,1,8,0:0:0:0:
256,192,85642,1,8,0:0:0:0:
256,192,85725,1,8,0:0:0:0:
256,192,86059,1,12,0:0:0:0:
256,192,86225,1,0,0:0:0:0:
256,192,86392,1,0,0:0:0:0:
256,192,86559,1,12,0:0:0:0:
256,192,86725,1,0,0:0:0:0:
256,192,86892,1,0,0:0:0:0:
256,192,87059,1,12,0:0:0:0:
256,192,87225,1,0,0:0:0:0:
256,192,87392,1,0,0:0:0:0:
256,192,87559,1,12,0:0:0:0:
256,192,87725,1,0,0:0:0:0:
256,192,87892,1,12,0:0:0:0:
256,192,88059,1,0,0:0:0:0:
256,192,88142,1,0,0:0:0:0:
256,192,88225,1,0,0:0:0:0:
256,192,88309,1,0,0:0:0:0:
256,192,88392,1,0,0:0:0:0:
256,192,88475,1,0,0:0:0:0:
256,192,88559,1,0,0:0:0:0:
256,192,88642,1,0,0:0:0:0:
256,192,88725,1,8,0:0:0:0:
256,192,88892,1,0,0:0:0:0:
256,192,89059,1,8,0:0:0:0:
256,192,89142,1,8,0:0:0:0:
256,192,89225,1,0,0:0:0:0:
256,192,89392,1,8,0:0:0:0:
256,192,89559,1,0,0:0:0:0:
256,192,89725,1,8,0:0:0:0:
256,192,89809,1,8,0:0:0:0:
256,192,89892,1,0,0:0:0:0:
256,192,90059,1,8,0:0:0:0:
256,192,90225,1,0,0:0:0:0:
256,192,90392,1,8,0:0:0:0:
256,192,90475,1,0,0:0:0:0:
256,192,90559,1,8,0:0:0:0:
256,192,90725,1,8,0:0:0:0:
256,192,90892,1,0,0:0:0:0:
256,192,91059,1,8,0:0:0:0:
256,192,91142,1,8,0:0:0:0:
256,192,91225,1,0,0:0:0:0:
256,192,91392,1,8,0:0:0:0:
256,192,91475,1,8,0:0:0:0:
256,192,91559,1,8,0:0:0:0:
256,192,91642,1,8,0:0:0:0:
256,192,91725,1,0,0:0:0:0:
256,192,91809,1,0,0:0:0:0:
256,192,91892,1,0,0:0:0:0:
256,192,91975,1,0,0:0:0:0:
256,192,92059,1,8,0:0:0:0:
256,192,92142,1,0,0:0:0:0:
256,192,92225,1,8,0:0:0:0:
256,192,92309,1,8,0:0:0:0:
256,192,92392,1,0,0:0:0:0:
256,192,92475,1,8,0:0:0:0:
256,192,92559,1,0,0:0:0:0:
256,192,92642,1,0,0:0:0:0:
256,192,92725,1,8,0:0:0:0:
256,192,93392,1,8,0:0:0:0:
256,192,94059,1,0,0:0:0:0:
