osu file format v14

[General]
AudioFilename: color.mp3
AudioLeadIn: 0
PreviewTime: 726
Countdown: 0
SampleSet: Normal
StackLeniency: 1
Mode: 1
LetterboxInBreaks: 0
WidescreenStoryboard: 0

[Editor]
Bookmarks: 726,11392,19392,30059,40725,51392,64725,86059,94059,105809
DistanceSpacing: 1.4
BeatDivisor: 12
GridSize: 32
TimelineZoom: 0.9000002

[Metadata]
Title:color
TitleUnicode:color
Artist:CHiCO with HoneyWorks
ArtistUnicode:CHiCO with HoneyWorks
Creator:xfraczynho
Version:2199's Kantan
Source:
Tags:Sekai wa Koi ni Ochiteru 世界は恋に落ちている short version The World is Falling in Love gaston_2199 Aloda qoot8123
BeatmapID:1482141
BeatmapSetID:699733

[Difficulty]
HPDrainRate:7
CircleSize:2
OverallDifficulty:3
ApproachRate:10
SliderMultiplier:1.4
SliderTickRate:1

[Events]
//Background and Video events
0,0,"wwttff.jpg",0,120
//Break Periods
//Storyboard Layer 0 (Background)
//Storyboard Layer 1 (Fail)
//Storyboard Layer 2 (Pass)
//Storyboard Layer 3 (Foreground)
//Storyboard Sound Samples

[TimingPoints]
726,333.333333333333,4,1,0,50,1,0
726,-100,4,1,0,50,0,0
11392,-100,4,1,0,75,0,0
14059,-100,4,1,0,80,0,0
19392,-100,4,1,0,70,0,0
30059,-100,4,1,0,60,0,0
40725,-100,4,1,0,80,0,0
51392,-100,4,1,0,60,0,0
64725,-100,4,1,0,90,0,1
86059,-100,4,1,0,75,0,0
88725,-100,4,1,0,80,0,0
92725,-100,4,1,0,60,0,0
94059,-100,4,1,0,50,0,0

[HitObjects]
256,192,726,5,0,0:0:0:0:
256,192,3392,1,0,0:0:0:0:
256,192,4725,1,0,0:0:0:0:
256,192,5392,1,8,0:0:0:0:
256,192,6059,1,8,0:0:0:0:
256,192,7392,1,8,0:0:0:0:
256,192,8725,1,0,0:0:0:0:
256,192,11392,1,4,0:0:0:0:
256,192,12392,1,8,0:0:0:0:
256,192,13392,1,8,0:0:0:0:
256,192,14059,1,0,0:0:0:0:
256,192,14725,1,8,0:0:0:0:
256,192,15392,1,0,0:0:0:0:
256,192,15725,1,0,0:0:0:0:
256,192,16059,1,0,0:0:0:0:
256,192,16725,1,8,0:0:0:0:
256,192,17392,1,0,0:0:0:0:
256,192,18059,1,8,0:0:0:0:
256,192,19392,1,4,0:0:0:0:
256,192,20059,1,8,0:0:0:0:
256,192,20392,1,8,0:0:0:0:
256,192,20725,1,0,0:0:0:0:
256,192,21392,1,8,0:0:0:0:
256,192,22059,1,0,0:0:0:0:
256,192,22725,1,8,0:0:0:0:
256,192,23059,1,0,0:0:0:0:
256,192,23392,1,8,0:0:0:0:
256,192,24059,1,8,0:0:0:0:
256,192,24725,1,4,0:0:0:0:
256,192,26059,1,8,0:0:0:0:
256,192,26725,1,8,0:0:0:0:
256,192,27059,1,8,0:0:0:0:
256,192,27392,1,0,0:0:0:0:
256,192,28059,1,0,0:0:0:0:
256,192,28725,1,8,0:0:0:0:
256,192,29392,1,8,0:0:0:0:
256,192,30059,1,4,0:0:0:0:
256,192,32725,1,8,0:0:0:0:
256,192,35392,1,0,0:0:0:0:
256,192,38059,1,0,0:0:0:0:
256,192,38725,1,8,0:0:0:0:
256,192,39392,1,0,0:0:0:0:
256,192,40725,1,12,0:0:0:0:
256,192,41392,1,8,0:0:0:0:
256,192,41725,1,0,0:0:0:0:
256,192,42059,1,8,0:0:0:0:
256,192,42725,1,8,0:0:0:0:
256,192,43392,1,0,0:0:0:0:
256,192,44059,1,8,0:0:0:0:
256,192,44392,1,8,0:0:0:0:
256,192,44725,1,0,0:0:0:0:
256,192,46059,1,8,0:0:0:0:
256,192,46725,1,0,0:0:0:0:
256,192,47059,1,8,0:0:0:0:
256,192,47392,1,0,0:0:0:0:
256,192,48059,1,0,0:0:0:0:
256,192,48725,1,8,0:0:0:0:
256,192,49392,1,0,0:0:0:0:
256,192,49725,1,8,0:0:0:0:
256,192,50059,1,8,0:0:0:0:
256,192,51392,1,4,0:0:0:0:
256,192,54059,1,0,0:0:0:0:
256,192,55392,1,8,0:0:0:0:
256,192,56725,1,0,0:0:0:0:
256,192,57392,1,8,0:0:0:0:
256,192,58059,1,0,0:0:0:0:
256,192,59392,1,0,0:0:0:0:
256,192,60725,1,8,0:0:0:0:
256,192,62059,1,8,0:0:0:0:
256,192,62725,1,0,0:0:0:0:
256,192,63392,1,12,0:0:0:0:
256,192,64725,1,4,0:0:0:0:
256,192,65392,1,8,0:0:0:0:
256,192,65725,1,8,0:0:0:0:
256,192,66059,1,0,0:0:0:0:
256,192,66725,1,0,0:0:0:0:
256,192,67392,1,8,0:0:0:0:
256,192,68059,1,8,0:0:0:0:
256,192,68392,1,0,0:0:0:0:
256,192,68725,1,8,0:0:0:0:
256,192,69392,1,8,0:0:0:0:
256,192,70059,1,0,0:0:0:0:
256,192,71392,1,8,0:0:0:0:
256,192,72059,1,8,0:0:0:0:
256,192,72392,1,8,0:0:0:0:
256,192,72725,1,0,0:0:0:0:
256,192,74059,1,0,0:0:0:0:
256,192,74725,1,8,0:0:0:0:
256,192,75392,1,4,0:0:0:0:
256,192,76059,1,8,0:0:0:0:
256,192,76392,1,8,0:0:0:0:
256,192,76725,1,0,0:0:0:0:
256,192,77392,1,0,0:0:0:0:
256,192,77725,1,0,0:0:0:0:
256,192,78059,1,8,0:0:0:0:
256,192,78725,1,8,0:0:0:0:
256,192,79392,1,0,0:0:0:0:
256,192,80059,1,8,0:0:0:0:
256,192,80725,1,4,0:0:0:0:
256,192,82059,1,8,0:0:0:0:
256,192,82725,1,0,0:0:0:0:
256,192,83059,1,8,0:0:0:0:
256,192,83392,1,0,0:0:0:0:
256,192,84725,1,8,0:0:0:0:
256,192,85392,1,8,0:0:0:0:
256,192,86059,1,4,0:0:0:0:
256,192,87059,1,8,0:0:0:0:
256,192,88059,1,8,0:0:0:0:
256,192,88725,1,0,0:0:0:0:
256,192,89392,1,8,0:0:0:0:
256,192,90059,1,0,0:0:0:0:
256,192,90392,1,0,0:0:0:0:
256,192,90725,1,8,0:0:0:0:
256,192,91392,1,0,0:0:0:0:
256,192,92059,1,8,0:0:0:0:
256,192,92392,1,0,0:0:0:0:
256,192,92725,1,8,0:0:0:0:
256,192,94059,1,0,0:0:0:0:
