osu file format v14

[General]
AudioFilename: honeycolor.mp3
AudioLeadIn: 0
PreviewTime: 64559
Countdown: 0
SampleSet: Soft
StackLeniency: 0.7
Mode: 0
LetterboxInBreaks: 0
WidescreenStoryboard: 0

[Editor]
Bookmarks: 30069,40735,51402,94069
DistanceSpacing: 1
BeatDivisor: 4
GridSize: 8
TimelineZoom: 3.2

[Metadata]
Title:color
TitleUnicode:color
Artist:CHiCO with HoneyWorks
ArtistUnicode:CHiCO with HoneyWorks
Creator:monstrata
Version:Normal
Source:
Tags:世界は恋に落ちている sekai wa koi ni ochiteiru アオハライド ao haru ride blue spring ride appleeaterx sharkie Rizen [Rizen] Nerodae k_i_a_i
BeatmapID:822507
BeatmapSetID:373114

[Difficulty]
HPDrainRate:4
CircleSize:3.5
OverallDifficulty:5
ApproachRate:5
SliderMultiplier:0.999999999999999
SliderTickRate:1

[Events]
//Background and Video events
0,0,"38631998_p0.jpg",0,0
//Break Periods
2,51592,52859
//Storyboard Layer 0 (Background)
//Storyboard Layer 1 (Fail)
//Storyboard Layer 2 (Pass)
//Storyboard Layer 3 (Foreground)
//Storyboard Sound Samples

[TimingPoints]
726,333.333333333333,4,2,1,50,1,0
11392,-100,4,3,3,85,0,0
13559,-100,4,3,2,85,0,0
16725,-100,4,3,3,85,0,0
17059,-100,4,3,3,45,0,0
18059,-100,4,3,3,40,0,0
18225,-100,4,3,3,45,0,0
18392,-100,4,3,3,50,0,0
18559,-100,4,3,3,60,0,0
18725,-100,4,3,3,70,0,0
18892,-100,4,3,3,80,0,0
19059,-100,4,3,2,100,0,0
23559,-100,4,3,3,100,0,0
23725,-100,4,3,2,100,0,0
24392,-100,4,3,3,100,0,0
24892,-100,4,3,2,100,0,0
28559,-100,4,3,3,100,0,0
28892,-100,4,3,2,100,0,0
30059,-100,4,3,4,85,0,0
30392,-100,4,2,1,50,0,0
38059,-100,4,2,4,50,0,0
40559,-100,4,3,4,50,0,0
40725,-100,4,3,4,85,0,0
45392,-100,4,3,2,85,0,0
45559,-100,4,3,4,85,0,0
45892,-100,4,2,2,85,0,0
46059,-100,4,3,4,85,0,0
50559,-100,4,3,2,85,0,0
51392,-100,4,3,2,85,0,0
54059,-100,4,3,3,85,0,0
54392,-100,4,2,2,85,0,0
56725,-100,4,3,3,85,0,0
57059,-100,4,2,2,85,0,0
59392,-100,4,3,3,85,0,0
59725,-100,4,2,2,85,0,0
62392,-100,4,3,3,85,0,0
62503,-100,4,2,2,85,0,0
62837,-100,4,3,2,85,0,0
64392,-100,4,3,2,5,0,0
64725,-100,4,3,2,100,0,1
70892,-100,4,3,3,100,0,1
71059,-100,4,3,2,100,0,1
78892,-100,4,3,3,100,0,1
79059,-100,4,3,2,100,0,1
80225,-100,4,3,3,100,0,1
80392,-100,4,3,2,100,0,1
85059,-100,4,3,3,100,0,1
85225,-100,4,3,2,100,0,1
86059,-100,4,3,3,100,0,1
88225,-100,4,3,2,100,0,1
88725,-100,4,3,3,100,0,1
88892,-100,4,3,2,100,0,1
91059,-100,4,3,3,100,0,1
91225,-100,4,3,2,100,0,1
91392,-100,4,3,3,100,0,1
91559,-100,4,3,2,100,0,1
93059,-100,4,2,1,100,0,1
94059,-100,4,2,1,100,0,0

[Colours]
Combo1 : 159,255,255
Combo2 : 255,255,100
Combo3 : 255,166,77
Combo4 : 207,159,255

[HitObjects]
152,120,726,5,4,0:0:0:0:
168,128,2059,5,2,0:0:0:0:
184,136,3392,5,8,0:0:0:0:
200,144,4725,6,0,B|256:147|287:111|287:111|384:177,1,200,2|0,0:0|0:0,0:0:0:0:
215,50,6059,6,0,P|126:82|109:176,1,200,4|0,0:0|0:0,0:0:0:0:
37,363,7392,6,0,B|78:327|78:327|244:328,1,200,2|0,0:0|0:0,0:0:0:0:
422,346,8725,6,0,P|453:286|416:152,1,200,8|0,0:0|0:0,0:0:0:0:
352,92,9725,1,0,0:0:0:0:
275,156,10059,6,0,B|237:185|237:185|127:185,2,150,2|2|2,0:0|0:0|0:0,0:0:0:0:
258,58,11392,6,0,P|287:17|331:-5,1,99.9999999999999,4|8,1:0|0:0,0:0:0:0:
378,12,11892,2,0,L|491:56,1,99.9999999999999,8|8,1:0|0:0,0:0:0:0:
489,95,12392,2,0,B|439:190|526:188|484:286,1,200,4|8,1:0|0:0,0:0:0:0:
401,343,13392,2,0,L|331:360,1,50,8|0,1:0|2:0,0:0:0:0:
315,321,13725,2,0,L|266:309,1,50,4|4,0:0|0:0,0:0:0:0:
217,326,14059,6,0,P|122:330|70:250,1,200,12|6,0:1|0:0,0:0:0:0:
167,243,15059,1,6,0:0:0:0:
219,157,15392,2,0,B|276:142|276:142|356:149|356:149|415:134,1,200,6|6,0:0|0:0,0:0:0:0:
498,79,16392,1,6,0:0:0:0:
404,39,16725,6,0,B|345:54|345:54|265:47|265:47|207:61,1,200,2|6,1:0|0:0,0:0:0:0:
112,92,17725,1,6,0:0:0:0:
160,179,18059,2,0,L|153:243,1,50,6|6,0:0|0:0,0:0:0:0:
111,254,18392,2,0,L|118:318,1,50,6|6,0:0|0:0,0:0:0:0:
141,347,18725,2,0,B|188:334|188:334|237:347,1,99.9999999999999,6|12,0:0|0:2,0:0:0:0:
330,310,19392,6,0,B|379:323|379:323|426:310,1,99.9999999999999,12|6,0:1|0:0,0:0:0:0:
378,223,20059,2,0,L|378:118,1,99.9999999999999,10|6,0:0|0:0,0:0:0:0:
378,71,20559,2,0,P|332:90|283:80,1,99.9999999999999,8|0,0:0|0:0,0:0:0:0:
236,64,21059,1,6,0:0:0:0:
145,106,21392,2,0,L|130:174,1,50,10|8,0:0|0:0,0:0:0:0:
154,200,21725,1,6,0:0:0:0:
104,286,22059,6,0,P|151:300|199:289,1,99.9999999999999,10|6,0:1|0:0,0:0:0:0:
261,211,22725,2,0,L|384:220,1,99.9999999999999,10|6,0:0|0:0,0:0:0:0:
417,135,23392,2,0,P|450:175|459:234,1,99.9999999999999,10|6,0:0|0:0,0:0:0:0:
403,303,24059,2,0,L|353:306,1,50,10|8,0:0|0:0,0:0:0:0:
313,337,24392,1,2,1:0:0:0:
223,381,24725,6,0,L|123:373,1,99.9999999999999,8|6,1:0|0:0,0:0:0:0:
67,290,25392,2,0,L|166:282,1,99.9999999999999,6|6,0:0|0:0,0:0:0:0:
223,199,26059,2,0,L|123:191,1,99.9999999999999,6|6,0:0|0:0,0:0:0:0:
67,108,26725,2,0,L|166:100,1,99.9999999999999,6|6,0:0|0:0,0:0:0:0:
265,114,27392,6,0,P|311:131|366:121,1,99.9999999999999,12|6,0:1|0:0,0:0:0:0:
404,99,27892,2,0,L|389:205,1,99.9999999999999,0|8,0:0|0:0,0:0:0:0:
348,225,28392,2,0,L|355:278,1,50,0|2,2:0|1:0,0:0:0:0:
334,320,28725,6,0,B|192:216|192:368|48:288,1,300,10|4,0:0|0:2,0:0:0:0:
0,204,30059,6,0,L|46:115,1,99.9999999999999,12|0,2:1|0:0,0:0:0:0:
84,23,30725,2,0,P|122:51|145:112,1,99.9999999999999,2|0,0:0|0:0,0:0:0:0:
147,147,31225,1,0,0:0:0:0:
147,147,31392,2,0,L|247:157,1,99.9999999999999,0|0,0:0|0:0,0:0:0:0:
293,245,32059,2,0,L|393:235,1,99.9999999999999,2|0,0:0|0:0,0:0:0:0:
490,222,32725,6,0,P|477:288|452:317,1,99.9999999999999,8|0,0:0|0:0,0:0:0:0:
358,328,33392,2,0,L|258:338,1,99.9999999999999,2|0,0:0|0:0,0:0:0:0:
208,342,33892,1,0,0:0:0:0:
208,342,34059,2,0,P|211:292|191:247,1,99.9999999999999,0|0,0:0|0:0,0:0:0:0:
189,147,34725,2,0,P|230:174|279:179,1,99.9999999999999,2|0,0:0|0:0,0:0:0:0:
375,151,35392,6,0,L|353:257,1,99.9999999999999,4|0,0:0|0:0,0:0:0:0:
333,345,36059,2,0,P|393:340|438:304,1,99.9999999999999,2|0,0:0|0:0,0:0:0:0:
439,270,36559,1,0,0:0:0:0:
439,270,36725,2,0,L|461:164,1,99.9999999999999,0|0,0:0|0:0,0:0:0:0:
480,75,37392,2,0,P|420:80|375:116,1,99.9999999999999,2|0,0:0|0:0,0:0:0:0:
340,190,38059,6,0,L|275:179,1,50,8|0,0:0|0:0,0:0:0:0:
246,157,38392,2,0,L|196:165,1,50,4|2,0:0|0:0,0:0:0:0:
149,182,38725,2,0,L|99:173,2,50,0|10|4,0:0|0:0|0:0,0:0:0:0:
216,256,39392,6,0,L|314:272,1,99.9999999999999,8|4,0:0|0:0,0:0:0:0:
356,245,39892,1,2,0:0:0:0:
397,217,40059,2,0,L|446:225,1,50,8|10,0:0|0:0,0:0:0:0:
487,197,40392,1,4,0:0:0:0:
509,99,40725,6,0,P|449:103|411:132,1,99.9999999999999,12|6,2:1|0:0,0:0:0:0:
320,151,41392,2,0,L|263:119,2,50,10|8|6,0:0|0:0|0:0,0:0:0:0:
397,217,42059,2,0,L|409:340,1,99.9999999999999,10|6,0:0|0:0,0:0:0:0:
322,369,42725,2,0,L|254:375,1,50,10|8,0:0|0:0,0:0:0:0:
226,352,43059,1,6,0:0:0:0:
232,252,43392,6,0,P|183:261|144:292,1,99.9999999999999,10|6,0:0|0:0,0:0:0:0:
65,353,44059,2,0,L|55:231,1,99.9999999999999,10|6,0:0|0:0,0:0:0:0:
29,211,44559,1,0,0:0:0:0:
29,211,44725,2,0,L|39:89,1,99.9999999999999,10|6,0:0|0:0,0:0:0:0:
47,11,45392,2,0,P|95:28|126:66,1,99.9999999999999,10|6,0:0|0:0,0:0:0:0:
170,154,46059,6,0,L|292:164,1,99.9999999999999,10|6,0:0|0:0,0:0:0:0:
323,78,46725,2,0,L|372:73,1,50,10|8,0:0|0:0,0:0:0:0:
418,95,47059,1,6,0:0:0:0:
507,50,47392,2,0,P|517:82|498:155,1,99.9999999999999,10|6,0:0|0:0,0:0:0:0:
476,188,47892,1,0,0:0:0:0:
476,188,48059,2,0,B|456:234|456:234|470:298,1,99.9999999999999,10|6,0:0|0:0,0:0:0:0:
367,272,48725,6,0,B|356:223|356:223|376:177,1,99.9999999999999,10|6,0:0|0:0,0:0:0:0:
420,87,49392,2,0,P|370:77|312:100,1,99.9999999999999,10|6,0:0|0:0,0:0:0:0:
272,177,50059,2,0,L|201:170,1,50,10|8,0:0|0:0,0:0:0:0:
188,135,50392,2,0,L|138:139,1,50,4|0,1:0|0:0,0:0:0:0:
91,162,50725,1,2,0:2:0:0:
50,253,51059,1,4,0:2:0:0:
108,334,51392,5,12,0:1:0:0:
110,207,54059,6,0,P|168:262|199:268,1,99.9999999999999,4|0,1:0|0:0,0:0:0:0:
202,167,54725,2,0,L|317:134,1,99.9999999999999,0|0,0:0|0:0,0:0:0:0:
314,40,55392,2,0,P|359:60|389:99,2,99.9999999999999,0|0|0,0:0|0:0|0:0,0:0:0:0:
218,73,56392,1,0,0:0:0:0:
122,107,56725,6,0,L|109:214,1,99.9999999999999,4|0,1:0|0:0,0:0:0:0:
48,285,57392,2,0,P|93:304|143:299,1,99.9999999999999,0|0,0:0|0:0,0:0:0:0:
209,224,58059,1,0,0:0:0:0:
275,146,58392,2,0,B|329:137|358:186|358:186|420:167|451:214,1,200
502,295,59392,6,0,L|380:306,1,99.9999999999999,4|0,1:0|0:0,0:0:0:0:
324,366,60059,2,0,L|224:357,1,99.9999999999999,0|0,0:0|0:0,0:0:0:0:
180,267,60725,2,0,P|135:311|124:356,2,99.9999999999999,0|0|0,0:0|0:0|0:0,0:0:0:0:
280,267,61725,1,0,0:0:0:0:
330,180,62059,6,0,P|311:120|274:90,1,99.9999999999999,0|4,0:0|1:0,0:0:0:0:
230,180,62725,2,0,L|113:180,1,99.9999999999999,0|8,0:0|0:2,0:0:0:0:
60,107,63392,1,12,0:1:0:0:
455,49,64725,5,12,0:1:0:0:
415,140,65059,1,6,0:0:0:0:
473,220,65392,2,0,P|418:239|368:227,1,99.9999999999999,10|6,0:0|0:0,0:0:0:0:
337,202,65892,2,0,L|344:307,1,99.9999999999999,10|8,0:1|0:0,0:0:0:0:
311,340,66392,1,6,0:0:0:0:
218,377,66725,2,0,P|174:366|131:320,1,99.9999999999999,10|6,0:0|0:0,0:0:0:0:
119,229,67392,6,0,B|162:203|162:203|182:157,1,99.9999999999999,10|6,0:1|0:0,0:0:0:0:
215,63,68059,2,0,L|287:49,1,50,10|8,0:0|0:0,0:0:0:0:
312,43,68392,1,6,0:0:0:0:
377,117,68725,2,0,L|447:196,1,99.9999999999999,10|6,0:0|0:0,0:0:0:0:
383,272,69392,2,0,L|406:334,1,50,10|8,0:0|0:0,0:0:0:0:
380,365,69725,1,6,0:0:0:0:
280,380,70059,5,12,0:1:0:0:
198,319,70392,1,6,0:0:0:0:
183,217,70725,2,0,L|137:158,2,50,10|0|6,0:0|0:0|0:0,0:0:0:0:
279,256,71392,1,10,0:0:0:0:
374,215,71725,1,6,0:0:0:0:
412,118,72059,2,0,L|467:75,2,50,10|8|6,0:0|0:0|0:0,0:0:0:0:
308,133,72725,6,0,L|243:106,1,50,12|8,0:1|0:2,0:0:0:0:
228,75,73059,2,0,P|186:103|137:107,1,99.9999999999999,2|4,0:2|0:2,0:0:0:0:
40,84,73725,1,2,0:2:0:0:
67,179,74059,2,0,L|98:292,1,99.9999999999999,8|6,0:2|0:0,0:0:0:0:
79,323,74559,2,0,B|176:283|176:354|283:316,1,200,0|4,2:0|0:0,0:0:0:0:
318,295,75392,6,0,L|436:318,1,99.9999999999999,12|6,0:1|0:0,0:0:0:0:
475,233,76059,2,0,L|357:210,1,99.9999999999999,10|6,0:0|0:0,0:0:0:0:
354,169,76559,2,0,L|236:192,1,99.9999999999999,0|0,2:0|0:0,0:0:0:0:
210,166,77059,1,6,0:0:0:0:
129,106,77392,2,0,P|169:75|218:67,1,99.9999999999999,10|6,0:0|0:0,0:0:0:0:
317,81,78059,6,0,L|427:42,1,99.9999999999999,10|6,0:0|0:0,0:0:0:0:
478,121,78725,2,0,L|368:160,1,99.9999999999999,10|6,0:0|0:0,0:0:0:0:
359,251,79392,1,10,0:0:0:0:
334,347,79725,2,0,L|268:339,1,50,6|0,0:0|2:0,0:0:0:0:
248,306,80059,2,0,B|198:312|198:312|144:281,1,99.9999999999999,10|6,0:0|0:0,0:0:0:0:
219,211,80725,6,0,L|241:99,1,99.9999999999999,12|6,0:1|0:0,0:0:0:0:
217,67,81225,2,0,B|272:80|272:80|312:48|374:63,1,150,8|0,3:0|3:0,0:0:0:0:
404,84,81892,2,0,L|381:195,1,99.9999999999999,0|0,2:0|0:0,0:0:0:0:
405,227,82392,1,6,0:0:0:0:
480,290,82725,2,0,P|440:318|382:322,1,99.9999999999999,10|6,0:0|0:0,0:0:0:0:
309,264,83392,6,0,L|209:288,1,99.9999999999999,10|6,0:0|0:0,0:0:0:0:
113,265,84059,2,0,L|43:248,2,50,10|8|6,0:0|0:0|0:0,0:0:0:0:
181,189,84725,2,0,L|260:105,1,99.9999999999999,10|2,0:0|1:0,0:0:0:0:
245,66,85225,2,0,B|320:94|320:43|397:74,1,150,0|4,0:0|0:0,0:0:0:0:
480,118,86059,6,0,L|460:236,1,99.9999999999999,4|8,1:0|0:0,0:0:0:0:
416,233,86559,2,0,L|436:351,1,99.9999999999999,8|8,1:0|0:0,0:0:0:0:
404,372,87059,2,0,B|309:322|311:409|213:367,1,200,4|8,1:0|0:0,0:0:0:0:
119,328,88059,2,0,L|133:258,1,50,8|0,1:0|2:0,0:0:0:0:
169,249,88392,2,0,L|155:179,1,50,4|4,0:0|0:0,0:0:0:0:
148,150,88725,6,0,P|171:110|220:83,1,99.9999999999999,4|6,1:0|0:0,0:0:0:0:
296,143,89392,2,0,L|347:144,1,50,6|8,0:0|0:0,0:0:0:0:
385,174,89725,1,6,0:0:0:0:
479,140,90059,2,0,P|482:197|450:251,1,99.9999999999999,6|6,0:0|0:0,0:0:0:0:
370,270,90725,2,0,L|319:271,1,50,6|8,0:0|0:0,0:0:0:0:
281,301,91058,1,2,1:0:0:0:
216,377,91392,6,0,B|161:330|178:248|221:221|221:221|199:195|184:165|199:128|218:105|260:96|300:126|304:146|304:181,1,400,8|12,1:0|0:2,0:0:0:0:
106,203,93392,1,0,0:0:0:0:
176,15,94059,5,8,0:0:0:0:
