osu file format v14

[General]
AudioFilename: color.mp3
AudioLeadIn: 2000
PreviewTime: 64638
Countdown: 0
SampleSet: Soft
StackLeniency: 0.7
Mode: 0
LetterboxInBreaks: 0
WidescreenStoryboard: 0

[Editor]
DistanceSpacing: 1.4
BeatDivisor: 4
GridSize: 32
TimelineZoom: 1

[Metadata]
Title:color
TitleUnicode:color
Artist:CHiCO with HoneyWorks
ArtistUnicode:CHiCO with HoneyWorks
Creator:KantoKun
Version:Insane
Source:
Tags:世界は恋に落ちている Sekai wa Koi ni Ochiteiru アオハライド AO--HARU--RIDE blue spring ride Karia PAN P_A_N
BeatmapID:582327
BeatmapSetID:253707

[Difficulty]
HPDrainRate:7
CircleSize:4
OverallDifficulty:8
ApproachRate:8.5
SliderMultiplier:1.6
SliderTickRate:2

[Events]
//Background and Video events
0,0,"BG.png",0,0
//Break Periods
2,30267,37392
2,174267,178725
//Storyboard Layer 0 (Background)
//Storyboard Layer 1 (Fail)
//Storyboard Layer 2 (Pass)
//Storyboard Layer 3 (Foreground)
//Storyboard Sound Samples

[TimingPoints]
734,333.333333333333,4,2,3,20,1,0
734,-200,4,2,3,20,0,0
10067,-133.333333333333,4,2,3,30,0,0
10567,-133.333333333333,4,2,3,40,0,0
11067,-133.333333333333,4,2,3,50,0,0
11400,-100,4,2,1,70,0,1
13567,-100,4,2,1,50,0,1
14067,-100,4,2,1,70,0,1
16900,-100,4,2,1,30,0,1
17400,-100,4,2,1,30,0,1
17733,-100,4,2,1,50,0,1
18067,-100,4,2,1,60,0,1
18400,-100,4,2,1,70,0,1
19400,-100,4,2,1,60,0,0
28900,-100,4,2,1,50,0,0
30067,-100,4,2,1,60,0,0
38067,-142.857142857143,4,2,2,40,0,0
40733,-100,4,2,1,60,0,0
50733,-100,4,2,1,50,0,0
51067,-100,4,2,1,45,0,0
51400,-133.333333333333,4,2,1,40,0,0
52067,-133.333333333333,4,2,3,30,0,0
52733,-133.333333333333,4,2,1,40,0,0
63400,-200,4,2,1,30,0,0
63483,-200,4,2,1,10,0,0
64733,-100,4,2,1,70,0,1
72733,-100,4,2,1,50,0,1
74900,-100,4,2,1,50,0,0
75400,-100,4,2,1,70,0,1
85400,-100,4,2,1,50,0,0
86067,-100,4,2,1,70,0,1
88233,-100,4,2,1,50,0,1
88733,-100,4,2,1,70,0,1
91400,-100,4,2,1,50,0,1
92733,-100,4,2,1,40,0,0
93400,-200,4,2,1,10,0,0
94067,-100,4,2,1,60,0,0
98900,-100,4,2,1,40,0,0
99400,-100,4,2,1,60,0,0
101567,-100,4,2,1,40,0,0
102067,-100,4,2,1,60,0,0
104733,-166.666666666667,4,2,1,30,0,0
105067,-166.666666666667,4,2,3,30,0,0
115400,-100,4,2,1,60,0,0
126067,-200,4,2,1,50,0,0
126150,-200,4,2,3,10,0,0
127400,-166.666666666667,4,2,3,40,0,0
132900,-166.666666666667,4,2,3,5,0,0
132983,-166.666666666667,4,2,3,40,0,0
133233,-166.666666666667,4,2,3,5,0,0
133317,-166.666666666667,4,2,3,40,0,0
133567,-166.666666666667,4,2,3,5,0,0
133650,-166.666666666667,4,2,3,40,0,0
133900,-166.666666666667,4,2,3,5,0,0
133983,-166.666666666667,4,2,3,40,0,0
138733,-133.333333333333,4,2,1,60,0,0
139400,-100,4,2,1,70,0,1
146650,-100,4,2,1,10,0,1
146733,-100,4,2,1,50,0,1
149567,-100,4,2,1,50,0,0
150067,-100,4,2,1,70,0,1
158733,-100,4,2,1,50,0,1
160067,-100,4,2,1,50,0,0
160733,-100,4,2,1,70,0,1
162900,-100,4,2,1,50,0,1
163400,-100,4,2,1,70,0,1
166067,-100,4,2,1,50,0,1
168067,-166.666666666667,4,2,1,70,0,0
168733,-133.333333333333,4,2,1,40,0,0
172733,-133.333333333333,4,2,3,50,0,0
173400,-100,4,2,1,40,0,0
179400,-100,4,2,1,60,0,0
190067,-200,4,2,1,60,0,0
194067,-100,4,2,1,30,0,0
194400,-100,4,2,1,40,0,0
194733,-100,4,2,1,50,0,0
195067,-100,4,2,1,60,0,0
195400,-100,4,2,1,70,0,1
199567,-100,4,2,1,40,0,1
199733,-100,4,2,1,70,0,1
199817,-100,4,2,1,40,0,1
200067,-100,4,2,1,70,0,1
200150,-100,4,2,1,40,0,1
200400,-100,4,2,1,70,0,1
200650,-100,4,2,1,10,0,1
200733,-133.333333333333,4,2,1,10,0,0
201067,-100,4,2,1,70,0,1
208733,-100,4,2,1,30,0,1
209067,-100,4,2,1,40,0,1
209400,-100,4,2,1,50,0,1
209733,-100,4,2,1,60,0,1
210067,-100,4,2,1,70,0,1
210733,-100,4,2,1,50,0,0
211400,-100,4,2,1,70,0,1
213650,-100,4,2,1,50,0,1
214067,-100,4,2,1,70,0,1
216900,-100,4,2,1,50,0,1
218067,-100,4,2,1,40,0,0
219400,368.098159509202,4,2,3,20,1,0
219400,-133.333333333333,4,2,3,20,0,0
220872,365.853658536585,4,2,3,20,1,0
220872,-133.333333333333,4,2,3,20,0,0
222335,357.142857142857,4,2,3,20,1,0
222335,-133.333333333333,4,2,3,20,0,0
223763,370.37037037037,4,2,3,20,1,0
223763,-133.333333333333,4,2,3,20,0,0
224133,363.636363636364,4,2,3,20,1,0
224133,-133.333333333333,4,2,3,20,0,0
224496,368.098159509202,4,2,3,20,1,0
224496,-133.333333333333,4,2,3,20,0,0
225232,375,4,2,3,20,1,0
225232,-133.333333333333,4,2,3,20,0,0
226732,400,4,2,3,20,1,0
226732,-133.333333333333,4,2,3,20,0,0
227532,419.58041958042,4,2,3,20,1,0
227532,-133.333333333333,4,2,3,20,0,0
227951,487.80487804878,4,2,3,20,1,0
227951,-133.333333333333,4,2,3,20,0,0
228926,576.923076923077,4,2,3,20,1,0
228926,-133.333333333333,4,2,3,20,0,0
229502,606.060606060606,4,2,3,20,1,0
229502,-133.333333333333,4,2,3,20,0,0
230108,1000,4,2,3,20,1,0
231358,-100,4,2,3,5,0,0

[Colours]
Combo1 : 255,230,255
Combo2 : 255,0,128
Combo3 : 255,128,0
Combo4 : 252,223,63
Combo5 : 1,216,254

[HitObjects]
366,287,734,5,6,0:0:0:0:
370,260,2067,5,2,0:0:0:0:
374,233,3400,5,2,0:0:0:0:
378,206,4733,5,2,0:0:0:0:
399,102,5400,1,2,0:0:0:0:
301,136,6067,5,6,0:0:0:0:
274,132,7400,5,2,0:0:0:0:
184,70,8067,1,2,0:0:0:0:
167,177,8733,5,2,0:0:0:0:
297,309,9234,1,0,0:0:0:0:
317,327,9317,1,0,0:0:0:0:
338,345,9400,2,0,P|344:314|348:297,1,40,2|2,0:0|0:0,0:0:0:0:
413,238,9733,2,0,P|408:218|405:198,1,40,2|2,0:0|0:0,0:0:0:0:
390,108,10067,6,0,P|333:103|260:98,1,120.000004577637,6|0,0:0|0:0,0:0:0:0:
199,162,10567,2,0,P|151:184|74:163,1,120.000004577637,2|0,0:0|0:0,0:0:0:0:
16,113,11067,1,2,0:0:0:0:
146,286,11400,6,0,P|151:332|154:368,1,80,12|2,0:0|0:0,0:0:0:0:
57,243,11733,1,2,0:0:0:0:
253,242,11900,6,0,P|248:288|245:324,1,80,8|2,0:0|0:0,0:0:0:0:
342,199,12233,1,2,0:0:0:0:
132,105,12400,6,0,P|137:151|140:187,1,80,8|2,0:0|0:0,0:0:0:0:
44,62,12733,1,2,0:0:0:0:
264,62,12900,6,0,P|259:108|256:144,1,80,8|2,0:0|0:0,0:0:0:0:
353,19,13233,1,2,0:0:0:0:
433,68,13400,1,8,0:0:0:0:
451,70,13483,1,0,0:0:0:0:
468,72,13567,1,8,0:0:0:0:
486,74,13650,1,8,0:0:0:0:
503,76,13733,2,0,L|497:31,1,40,8|8,0:0|0:0,0:0:0:0:
455,157,13900,2,0,L|461:202,1,40,8|8,0:0|0:0,0:0:0:0:
474,278,14067,6,0,P|432:274|387:270,1,80,6|0,0:0|0:0,0:0:0:0:
212,316,14400,2,0,P|251:312|291:308,1,80,8|0,0:0|0:0,0:0:0:0:
231,128,14733,2,0,P|226:173|240:217,1,80,8|2,0:0|0:0,0:0:0:0:
391,349,15067,2,0,P|399:310|394:270,1,80,8|2,0:0|0:0,0:0:0:0:
331,166,15400,6,0,P|406:188|472:138,2,160,8|8|8,0:0|0:0|0:0,0:0:0:0:
246,103,16233,1,2,0:0:0:0:
143,143,16400,2,0,P|96:140|57:137,1,80,8|0,0:0|0:0,0:0:0:0:
92,246,16733,5,6,0:0:0:0:
114,39,16900,1,0,0:0:0:0:
226,221,17067,1,8,0:0:0:0:
29,136,17233,5,8,0:0:0:0:
236,77,17400,1,8,0:0:0:0:
188,323,17567,5,8,0:0:0:0:
143,143,17733,1,8,0:0:0:0:
336,194,17900,1,8,0:0:0:0:
268,329,18067,6,0,P|215:324|174:322,1,80,8|2,0:0|0:0,0:0:0:0:
336,194,18400,2,0,P|375:191|415:187,1,80,8|2,0:0|0:0,0:0:0:0:
226,221,18733,2,0,P|228:181|233:142,1,80,8|0,0:0|0:0,0:0:0:0:
360,15,19066,2,0,P|364:54|366:94,1,80,4|0,3:0|0:0,0:0:0:0:
459,288,19400,6,0,P|411:277|329:319,1,120,4|0,1:0|0:0,0:0:0:0:
268,329,19733,2,0,P|225:339|183:331,1,80,8|0,0:0|0:0,0:0:0:0:
183,155,20067,2,0,P|213:187|227:227,1,80,8|2,0:0|0:0,0:0:0:0:
82,319,20400,2,0,P|94:276|122:244,1,80,8|2,0:0|0:0,0:0:0:0:
183,155,20733,6,0,P|180:107|179:72,1,80,8|2,0:0|0:0,0:0:0:0:
277,111,21067,1,8,0:0:0:0:
86,124,21233,1,0,0:0:0:0:
258,14,21400,2,0,P|298:13|338:34,1,80,8|2,0:0|0:0,0:0:0:0:
471,154,21733,2,0,P|436:172|396:171,1,80,8|2,0:0|0:0,0:0:0:0:
277,111,22067,6,0,P|278:150|280:190,1,80,12|2,0:0|0:0,0:0:0:0:
383,354,22400,2,0,P|385:314|386:274,1,80,8|0,0:0|0:0,0:0:0:0:
396,171,22733,1,8,0:0:0:0:
406,67,22900,1,2,0:0:0:0:
281,191,23067,2,0,P|233:186|190:181,1,80,8|2,0:0|0:0,0:0:0:0:
36,123,23400,6,0,P|83:118|126:113,1,80,8|2,0:0|0:0,0:0:0:0:
94,301,23733,2,0,P|83:260|88:210,1,80,8|0,0:0|0:0,0:0:0:0:
155,15,24067,1,8,0:0:0:0:
255,94,24233,2,0,P|250:133|246:173,1,80,2|8,0:0|0:0,0:0:0:0:
224,326,24567,1,2,0:0:0:0:
336,264,24733,5,8,0:0:0:0:
363,266,24817,1,0,0:0:0:0:
389,268,24900,1,2,0:0:0:0:
415,270,24983,1,0,0:0:0:0:
441,273,25067,2,0,L|485:277,1,40,8|0,0:0|0:0,0:0:0:0:
448,161,25233,1,0,0:0:0:0:
421,163,25317,1,0,0:0:0:0:
395,165,25400,1,8,0:0:0:0:
369,167,25483,1,0,0:0:0:0:
342,169,25567,2,0,L|293:173,1,40,2|0,0:0|0:0,0:0:0:0:
246,248,25733,1,8,0:0:0:0:
246,248,25817,1,0,0:0:0:0:
246,248,25900,1,2,0:0:0:0:
109,305,26067,5,8,0:0:0:0:
88,280,26150,1,0,0:0:0:0:
80,249,26233,1,2,0:0:0:0:
84,217,26317,1,0,0:0:0:0:
101,190,26400,2,0,P|113:169|119:141,1,40,8|0,0:0|0:0,0:0:0:0:
111,63,26567,1,0,0:0:0:0:
141,73,26650,1,0,0:0:0:0:
172,74,26733,1,8,0:0:0:0:
203,66,26817,1,0,0:0:0:0:
231,51,26900,2,0,L|278:59,1,40,2|0,0:0|0:0,0:0:0:0:
350,77,27067,1,8,0:0:0:0:
350,77,27150,1,0,0:0:0:0:
350,77,27233,2,0,L|402:65,1,40,8|8,0:0|0:0,0:0:0:0:
473,50,27400,6,0,P|469:125|464:212,1,160,6|8,0:0|0:0,0:0:0:0:
512,302,27900,1,2,0:0:0:0:
378,362,28067,2,0,P|374:314|355:276,1,80,8|0,0:0|0:0,0:0:0:0:
269,223,28400,2,0,P|226:220|178:215,1,80,8|8,0:0|0:0,0:0:0:0:
221,321,28733,5,2,0:0:0:0:
366,181,28900,2,0,L|374:149,2,26.6666666666667,4|0|0,3:0|3:0|3:0,0:0:0:0:
379,134,29067,2,0,L|374:88,1,40,4|0,3:0|0:0,0:0:0:0:
289,170,29233,2,0,L|294:127,1,40,4|0,3:0|0:0,0:0:0:0:
197,177,29400,2,0,L|214:130,1,40,8|0,0:0|0:0,0:0:0:0:
102,162,29567,2,0,L|130:127,2,40,8|4|4,0:3|0:3|0:3,0:0:0:0:
27,344,29900,1,2,0:0:0:0:
221,321,30067,5,6,0:0:0:0:
221,321,38067,6,0,P|253:317|284:315,1,55.9999982910157,2|0,0:0|0:0,0:0:0:0:
364,354,38400,1,10,0:0:0:0:
438,242,38567,2,0,P|440:277|444:300,1,55.9999982910157,0|2,0:0|0:0,0:0:0:0:
458,325,38817,1,8,0:0:0:0:
458,325,38900,1,2,0:0:0:0:
458,148,39067,1,10,0:0:0:0:
365,177,39233,1,2,0:0:0:0:
365,177,39317,1,8,0:0:0:0:
365,177,39400,6,0,P|333:173|302:171,1,55.9999982910157,2|2,0:0|0:0,0:0:0:0:
206,267,39733,2,0,P|233:264|261:261,1,55.9999982910157,10|0,0:0|0:0,0:0:0:0:
264,283,39983,1,0,0:0:0:0:
266,305,40067,1,2,0:0:0:0:
267,327,40150,1,8,0:0:0:0:
269,349,40233,1,2,0:0:0:0:
389,308,40400,2,0,P|392:269|393:249,1,55.9999982910157,10|2,0:0|0:0,0:0:0:0:
365,177,40650,5,2,0:0:0:0:
365,177,40733,2,0,P|352:138|355:96,1,80,6|0,0:0|0:0,0:0:0:0:
455,133,41067,1,8,0:0:0:0:
263,166,41233,1,0,0:0:0:0:
440,29,41400,1,2,0:0:0:0:
446,234,41567,1,2,0:0:0:0:
245,69,41733,2,0,P|288:72|337:93,1,80,8|0,0:0|0:0,0:0:0:0:
420,258,42067,6,0,P|382:271|342:273,1,80,2|0,0:0|0:0,0:0:0:0:
144,183,42400,2,0,P|149:226|153:264,1,80,8|0,0:0|0:0,0:0:0:0:
156,293,42650,1,0,1:0:0:0:
156,293,42733,1,2,0:0:0:0:
235,356,42900,1,2,0:0:0:0:
45,335,43067,2,0,L|49:295|53:255,1,80,8|0,0:0|0:0,0:0:0:0:
71,120,43400,6,0,P|114:90|195:103,1,120,2|0,0:0|0:0,0:0:0:0:
257,110,43733,2,0,P|297:122|340:115,1,80,8|0,0:0|0:0,0:0:0:0:
361,106,43983,1,0,1:0:0:0:
382,93,44067,1,2,0:0:0:0:
452,15,44233,1,2,0:0:0:0:
396,195,44400,2,0,P|400:240|402:279,1,80,8|0,0:0|0:0,0:0:0:0:
457,361,44733,6,0,P|418:358|368:371,1,80,2|0,0:0|0:0,0:0:0:0:
266,354,45067,2,0,P|204:368|147:318,1,120,8|0,0:0|1:0,0:0:0:0:
113,275,45400,2,0,P|125:223|123:185,1,80,2|2,0:0|0:0,0:0:0:0:
210,13,45733,2,8,P|207:53|237:134,1,120
297,177,46067,6,0,P|336:174|381:171,1,80,2|0,0:0|0:0,0:0:0:0:
406,168,46317,1,0,0:0:0:0:
406,168,46400,1,8,0:0:0:0:
350,282,46567,1,0,0:0:0:0:
350,282,46650,1,0,1:0:0:0:
350,282,46733,1,2,0:0:0:0:
339,57,46900,1,2,0:0:0:0:
508,161,47067,2,0,P|501:212|496:253,1,80,8|0,0:0|0:0,0:0:0:0:
477,356,47400,6,0,P|431:329|356:349,1,120,2|0,0:0|0:0,0:0:0:0:
291,357,47733,2,0,P|247:368|204:359,1,80,8|0,0:0|0:0,0:0:0:0:
120,299,48067,1,2,0:0:0:0:
120,178,48233,1,2,0:0:0:0:
237,129,48400,2,0,P|239:169|242:212,1,80,8|0,0:0|0:0,0:0:0:0:
245,236,48650,1,0,0:0:0:0:
247,263,48733,6,0,P|291:251|339:263,1,80,2|0,0:0|0:0,0:0:0:0:
510,347,49067,2,0,P|470:352|432:340,1,80,8|0,0:0|0:0,0:0:0:0:
325,257,49400,1,2,0:0:0:0:
490,178,49567,1,2,0:0:0:0:
433,341,49733,2,0,P|429:299|424:251,1,80,8|0,0:0|0:0,0:0:0:0:
347,68,50067,6,0,P|342:107|339:147,1,80,2|2,0:0|0:0,0:0:0:0:
243,190,50400,1,12,0:0:0:0:
156,121,50567,1,0,0:0:0:0:
256,83,50733,1,4,3:0:0:0:
326,257,50900,1,2,0:0:0:0:
145,229,51067,1,2,0:0:0:0:
339,148,51233,1,2,0:0:0:0:
228,297,51400,5,4,0:0:0:0:
228,297,52067,2,0,L|173:293,2,40.000001525879,6|2|2,0:0|0:0|0:0,0:0:0:0:
310,364,52400,2,0,L|365:360,2,40.000001525879,2|2|2,0:0|0:0|0:0,0:0:0:0:
326,257,52733,6,0,L|324:211,1,40.000001525879,8|0,0:0|0:0,0:0:0:0:
408,191,52956,2,0,L|410:237,1,40.000001525879,0|8,0:0|0:0,0:0:0:0:
235,237,53178,6,0,L|199:218,1,40.000001525879
219,134,53401,2,0,L|254:152,1,40.000001525879,8|0,0:0|0:0,0:0:0:0:
346,123,53622,6,0,L|379:101,1,40.000001525879,0|2,0:0|0:0,0:0:0:0:
316,43,53845,2,0,L|282:64,1,40.000001525879,2|2,0:0|0:0,0:0:0:0:
199,119,54067,6,0,P|142:108|80:98,1,120.000004577637,6|8,0:0|0:0,0:0:0:0:
1,83,54511,2,0,L|11:34,2,40.000001525879,8|8|8,0:0|0:0|0:0,0:0:0:0:
74,283,55067,2,0,L|85:329,2,40.000001525879,8|8|8,0:0|0:0|0:0,0:0:0:0:
56,202,55400,5,8,0:0:0:0:
233,276,55733,2,0,L|282:265,2,40.000001525879,8|8|8,0:0|0:0|0:0,0:0:0:0:
340,217,56067,2,0,L|389:228,2,40.000001525879,8|8|8,0:0|0:0|0:0,0:0:0:0:
456,256,56400,2,0,L|505:245,2,40.000001525879,8|8|8,0:0|0:0|0:0,0:0:0:0:
443,171,56733,6,0,P|420:125|429:53,1,120.000004577637,12|8,0:0|0:0,0:0:0:0:
396,63,57178,1,8,0:0:0:0:
367,67,57289,1,8,0:0:0:0:
337,72,57400,1,8,0:0:0:0:
128,119,57733,1,8,0:0:0:0:
159,124,57844,1,8,0:0:0:0:
188,128,57955,1,8,0:0:0:0:
218,133,58067,6,0,P|221:182|223:226,1,80.0000030517579,8|0,0:0|0:0,0:0:0:0:
242,239,58399,1,8,0:0:0:0:
270,254,58510,1,8,0:0:0:0:
301,258,58621,1,8,0:0:0:0:
332,252,58733,2,0,P|350:241|366:221,2,40.000001525879,8|8|8,0:0|0:0|0:0,0:0:0:0:
444,171,59067,2,0,P|426:160|410:140,2,40.000001525879,8|8|8,0:0|0:0|0:0,0:0:0:0:
451,267,59400,5,6,0:0:0:0:
298,356,59734,1,8,0:0:0:0:
270,352,59845,1,8,0:0:0:0:
242,349,59957,1,8,0:0:0:0:
214,347,60067,1,8,0:0:0:0:
53,238,60400,1,8,0:0:0:0:
83,234,60511,1,8,0:0:0:0:
111,231,60623,1,8,0:0:0:0:
139,229,60733,5,8,0:0:0:0:
323,131,61067,1,8,0:0:0:0:
294,127,61178,1,8,0:0:0:0:
266,124,61290,1,8,0:0:0:0:
238,122,61400,2,0,L|229:74,2,40.000001525879,8|8|8,0:0|0:0|0:0,0:0:0:0:
140,229,61733,2,0,L|149:183,2,40.000001525879,8|8|8,0:0|0:0|0:0,0:0:0:0:
216,301,62067,6,0,P|273:280|337:290,1,120.000004577637,12|8,0:0|0:0,0:0:0:0:
409,334,62511,2,8,P|430:331|456:329,1,40.000001525879
479,235,62733,2,0,P|439:232|412:229,2,40.000001525879,8|8|4,0:0|0:0|0:3,0:0:0:0:
380,146,63067,2,0,P|401:143|427:141,2,40.000001525879,4|2|2,0:3|0:0|0:0,0:0:0:0:
295,201,63400,6,2,B|238:228|180:195|180:195|124:157|63:181,1,240,4|0,0:0|0:0,0:0:0:0:
66,179,64733,6,0,P|69:138|59:93,1,80,4|0,1:0|0:0,0:0:0:0:
201,10,65067,2,0,P|193:49|196:88,1,80,8|0,0:0|0:0,0:0:0:0:
295,201,65400,2,0,P|334:205|380:211,1,80,8|2,0:0|0:0,0:0:0:0:
453,148,65733,1,8,0:0:0:0:
387,308,65900,1,2,0:0:0:0:
282,101,66067,6,0,P|321:105|367:111,1,80,8|0,0:0|0:0,0:0:0:0:
467,299,66400,2,0,P|427:304|387:308,1,80,8|0,0:0|0:0,0:0:0:0:
258,326,66733,1,8,0:0:0:0:
295,201,66900,1,2,0:0:0:0:
367,288,67067,1,8,0:0:0:0:
182,233,67233,1,2,0:0:0:0:
383,112,67400,6,0,L|386:158|389:204,1,80,8|2,0:0|0:0,0:0:0:0:
177,313,67733,2,0,L|179:279|182:233,1,80,8|0,0:0|0:0,0:0:0:0:
194,134,68067,1,8,0:0:0:0:
282,265,68233,1,2,0:0:0:0:
77,342,68400,2,0,P|44:342|-1:327,1,80,8|2,0:0|0:0,0:0:0:0:
25,157,68733,6,0,P|68:157|105:171,1,80,8|0,0:0|0:0,0:0:0:0:
222,141,69067,2,0,P|222:184|208:221,1,80,8|0,0:0|0:0,0:0:0:0:
227,335,69400,2,0,P|184:335|147:321,1,80,8|2,0:0|0:0,0:0:0:0:
30,351,69734,2,0,P|30:308|44:271,1,80,8|2,0:0|0:0,0:0:0:0:
103,170,70067,6,0,P|99:119|96:78,1,80,12|0,0:0|0:0,0:0:0:0:
207,245,70400,2,0,P|204:284|200:324,1,80,8|0,0:0|0:0,0:0:0:0:
318,176,70733,2,0,P|356:164|400:168,1,80,8|2,0:0|0:0,0:0:0:0:
478,236,71067,1,8,0:0:0:0:
416,328,71233,1,2,0:0:0:0:
416,328,71317,1,0,0:0:0:0:
416,328,71400,6,0,P|378:340|334:336,1,80,8|2,0:0|0:0,0:0:0:0:
217,252,71733,2,0,P|214:292|211:338,1,80,8|0,0:0|0:0,0:0:0:0:
106,285,72067,1,8,0:0:0:0:
203,126,72233,1,2,0:0:0:0:
318,176,72400,2,0,P|357:173|397:170,1,80,8|2,0:0|0:0,0:0:0:0:
217,252,72733,6,0,L|177:249|137:246,1,80,6|2,0:0|0:0,0:0:0:0:
215,21,73067,2,0,P|221:67|216:106,1,80,8|4,0:0|0:3,0:0:0:0:
203,126,73317,1,4,0:3:0:0:
203,126,73400,1,4,0:3:0:0:
111,66,73567,1,2,0:0:0:0:
316,118,73733,2,0,P|306:164|285:198,1,80,8|8,0:0|0:3,0:0:0:0:
125,269,74067,6,0,P|68:261|4:253,1,120,4|0,0:3|0:0,0:0:0:0:
8,283,74400,2,0,P|13:333|16:365,1,80,8|8,0:0|0:0,0:0:0:0:
76,162,74733,2,0,P|85:100|89:72,1,80,8|2,0:0|0:0,0:0:0:0:
112,97,74983,1,2,0:0:0:0:
141,103,75067,1,8,0:0:0:0:
171,102,75150,1,8,0:0:0:0:
198,94,75233,1,8,0:0:0:0:
224,80,75317,1,8,0:0:0:0:
245,61,75400,6,0,P|281:43|334:43,1,80,4|0,1:0|0:0,0:0:0:0:
405,154,75733,2,0,P|401:193|397:237,1,80,8|0,0:0|0:0,0:0:0:0:
454,317,76067,1,8,0:0:0:0:
304,357,76233,2,0,L|300:317|296:277,1,80,2|8,0:0|0:0,0:0:0:0:
185,210,76567,1,2,0:0:0:0:
178,237,76650,1,0,0:0:0:0:
171,266,76733,6,0,P|127:272|79:277,1,80,8|2,0:0|0:0,0:0:0:0:
25,122,77067,2,0,P|64:127|104:131,1,80,8|0,0:0|0:0,0:0:0:0:
195,77,77400,1,8,0:0:0:0:
268,158,77567,1,2,0:0:0:0:
362,112,77733,2,0,P|377:69|374:24,1,80,8|2,0:0|0:0,0:0:0:0:
403,46,77983,1,0,0:0:0:0:
429,57,78067,6,0,P|470:54|513:51,1,80,8|2,0:0|0:0,0:0:0:0:
468,257,78400,2,0,P|453:214|456:169,1,80,8|0,0:0|0:0,0:0:0:0:
462,151,78650,1,0,0:0:0:0:
462,151,78733,1,8,0:0:0:0:
347,246,78900,1,2,0:0:0:0:
347,246,79067,2,0,P|299:240|261:236,1,80,8|2,0:0|0:0,0:0:0:0:
45,257,79400,6,0,P|93:264|155:219,1,120,8|0,0:0|0:0,0:0:0:0:
191,153,79733,2,0,P|177:109|184:62,1,80,8|2,0:0|0:0,0:0:0:0:
212,72,79983,1,2,0:0:0:0:
212,72,80067,2,0,P|251:69|291:65,1,80,8|2,0:0|0:0,0:0:0:0:
472,125,80400,2,0,P|432:121|392:118,1,80,8|2,0:0|0:0,0:0:0:0:
283,208,80733,6,0,P|280:250|275:329,1,120,12|0,0:0|0:0,0:0:0:0:
272,358,81067,2,0,P|250:319|215:294,1,80,8|0,0:0|0:0,0:0:0:0:
143,276,81317,1,0,1:0:0:0:
143,276,81400,1,2,0:0:0:0:
43,329,81567,1,2,0:0:0:0:
136,171,81733,2,0,P|134:116|130:73,1,80,8|0,0:0|0:0,0:0:0:0:
130,64,81983,1,0,1:0:0:0:
128,39,82067,5,2,0:0:0:0:
1,158,82233,1,2,0:0:0:0:
143,276,82400,2,0,P|185:263|231:263,1,80,8|0,0:0|0:0,0:0:0:0:
299,291,82650,1,0,1:0:0:0:
299,291,82733,2,0,P|341:304|387:304,1,80,2|2,0:0|0:0,0:0:0:0:
468,234,83067,2,0,P|463:175|457:109,1,120,8|0,0:0|1:0,0:0:0:0:
446,33,83400,6,0,B|440:74|432:117,1,80,2|2,0:0|0:0,0:0:0:0:
326,163,83733,1,8,0:0:0:0:
227,86,83900,1,0,0:0:0:0:
227,86,83983,1,0,1:0:0:0:
227,86,84067,2,0,P|186:63|136:62,1,80,2|2,0:0|0:0,0:0:0:0:
95,214,84400,2,0,P|135:189|161:147,1,80,8|0,0:0|0:0,0:0:0:0:
50,38,84733,6,0,P|50:85|74:128,1,80,2|2,0:0|0:0,0:0:0:0:
89,294,85067,2,0,P|94:243|96:208,1,80,8|0,0:0|0:0,0:0:0:0:
175,144,85400,1,8,3:0:0:0:
266,202,85567,1,8,0:0:0:0:
290,205,85650,1,8,0:0:0:0:
314,208,85733,2,0,L|318:164,1,40,8|2,0:0|0:0,0:0:0:0:
348,285,85900,2,0,L|352:329,1,40,4|4,0:3|0:3,0:0:0:0:
400,214,86067,6,0,P|443:201|488:206,1,80,12|2,0:0|0:0,0:0:0:0:
451,293,86400,1,2,0:0:0:0:
349,133,86567,6,0,P|336:90|341:45,1,80,8|2,0:0|0:0,0:0:0:0:
430,89,86900,1,2,0:0:0:0:
261,181,87067,6,0,P|218:194|173:189,1,80,8|2,0:0|0:0,0:0:0:0:
210,102,87400,1,2,0:0:0:0:
312,262,87567,6,0,P|325:305|320:350,1,80,8|0,0:0|0:0,0:0:0:0:
231,306,87900,1,2,0:0:0:0:
210,102,88067,1,8,0:0:0:0:
401,199,88233,5,8,0:0:0:0:
372,194,88317,1,8,0:0:0:0:
345,189,88400,2,0,L|301:181,1,40,8|0,0:0|0:0,0:0:0:0:
231,220,88567,2,0,L|187:228,1,40,8|0,0:0|0:0,0:0:0:0:
108,237,88733,6,0,P|103:191|100:150,1,80,6|0,0:0|0:0,0:0:0:0:
218,22,89067,2,0,P|214:61|210:101,1,80,8|0,0:0|0:0,0:0:0:0:
80,253,89400,6,0,P|75:207|72:166,1,80,8|2,0:0|0:0,0:0:0:0:
247,37,89734,2,0,P|243:76|239:116,1,80,8|2,0:0|0:0,0:0:0:0:
213,240,90067,6,0,P|259:245|300:248,1,80,12|2,0:0|0:0,0:0:0:0:
428,130,90401,2,0,P|388:133|348:137,1,80,8|0,0:0|0:0,0:0:0:0:
197,268,90734,6,0,P|243:273|284:276,1,80,8|2,0:0|0:0,0:0:0:0:
413,101,91068,2,0,P|373:104|333:108,1,80,8|2,0:0|0:0,0:0:0:0:
388,356,91400,5,8,0:3:0:0:
409,337,91483,1,0,0:0:0:0:
423,312,91567,1,8,0:0:0:0:
431,285,91650,1,8,0:0:0:0:
432,257,91733,1,8,0:0:0:0:
426,229,91817,1,0,0:0:0:0:
413,204,91900,1,8,0:3:0:0:
392,185,91983,1,8,0:3:0:0:
367,171,92067,6,0,P|362:147|358:126,1,40,4|0,0:3|0:0,0:0:0:0:
277,183,92233,2,0,P|272:199|269:222,1,40,8|8,0:0|0:0,0:0:0:0:
200,135,92400,2,0,P|193:114|191:90,1,40,2|2,0:0|0:0,0:0:0:0:
131,191,92566,2,0,P|126:209|123:230,1,40,2|2,0:0|0:0,0:0:0:0:
42,188,92733,5,10,0:0:0:0:
103,311,93400,2,0,P|98:257|89:159,1,140
85,90,94067,6,0,B|156:108|174:53|241:70,1,160,4|8,1:0|0:0,0:0:0:0:
327,128,94567,1,0,0:0:0:0:
424,87,94733,2,0,P|433:47|430:9,1,80,8|2,0:0|0:0,0:0:0:0:
232,98,95067,2,0,P|228:137|237:176,1,80,8|2,0:0|0:0,0:0:0:0:
318,239,95400,6,0,P|358:237|406:233,1,80,8|2,0:0|0:0,0:0:0:0:
477,166,95733,1,8,0:0:0:0:
460,343,95900,2,0,P|420:340|372:337,1,80,2|8,0:0|0:0,0:0:0:0:
255,330,96233,1,2,0:0:0:0:
332,215,96400,2,0,P|342:173|336:126,1,80,8|2,0:0|0:0,0:0:0:0:
160,177,96733,6,0,P|200:175|248:171,1,80,12|2,0:0|0:0,0:0:0:0:
194,75,97067,1,8,0:0:0:0:
91,257,97233,6,0,P|51:253|11:251,1,80,0|8,0:0|0:0,0:0:0:0:
45,353,97567,1,2,0:0:0:0:
154,347,97733,2,0,P|192:311|188:230,1,120,8|0,0:0|0:0,0:0:0:0:
160,177,98067,6,0,P|151:136|161:92,1,80,8|2,0:0|0:0,0:0:0:0:
315,192,98400,2,0,P|279:169|255:131,1,80,8|0,0:0|0:0,0:0:0:0:
439,93,98733,2,0,P|398:102|354:92,1,80,4|8,3:0|0:0,0:0:0:0:
336,85,98983,1,8,0:0:0:0:
314,72,99067,2,0,P|309:48|305:25,1,40,4|4,0:3|0:3,0:0:0:0:
225,67,99233,2,0,P|221:86|216:106,1,40,2|2,0:0|0:0,0:0:0:0:
137,76,99400,6,0,P|94:70|42:64,1,80,6|2,0:0|0:0,0:0:0:0:
88,166,99733,1,8,0:0:0:0:
115,311,99900,1,4,0:3:0:0:
124,285,99984,1,4,0:3:0:0:
133,262,100067,2,0,P|174:249|213:254,1,80,4|2,0:3|0:0,0:0:0:0:
304,310,100400,2,0,P|345:323|384:318,1,80,8|4,0:0|0:3,0:0:0:0:
454,281,100650,5,4,0:3:0:0:
454,281,100733,1,4,0:3:0:0:
363,145,100900,2,0,P|358:198|355:239,1,80,2|8,0:0|0:0,0:0:0:0:
379,36,101233,1,0,0:0:0:0:
242,80,101400,2,0,P|247:133|250:174,1,80,2|0,0:0|0:0,0:0:0:0:
244,191,101650,1,8,0:0:0:0:
228,217,101733,1,8,0:0:0:0:
202,237,101817,1,8,0:0:0:0:
171,247,101900,1,8,0:0:0:0:
139,250,101983,1,8,0:0:0:0:
107,243,102067,6,0,P|58:231|21:235,1,80,6|2,0:0|0:0,0:0:0:0:
57,331,102400,1,8,0:0:0:0:
152,153,102567,1,0,0:0:0:0:
29,52,102733,2,0,P|34:97|38:138,1,80,2|2,0:0|0:0,0:0:0:0:
57,331,103067,1,8,0:0:0:0:
202,237,103233,6,0,P|251:225|288:229,1,80,8|2,0:0|0:0,0:0:0:0:
455,332,103567,1,8,0:3:0:0:
455,332,103650,1,8,0:3:0:0:
455,332,103733,1,4,0:3:0:0:
461,123,103900,1,2,0:0:0:0:
372,178,104067,2,0,P|378:221|384:265,1,80,8|2,0:0|0:0,0:0:0:0:
203,341,104400,2,0,L|208:301|213:261,1,80,8|0,0:0|0:0,0:0:0:0:
230,143,104733,5,6,0:0:0:0:
334,324,105067,2,0,P|383:319|441:317,1,95.9999970703126,0|2,0:0|0:0,0:0:0:0:
504,257,105567,1,0,0:0:0:0:
421,229,105733,1,0,0:0:0:0:
490,170,105900,1,0,0:0:0:0:
406,141,106067,6,0,P|403:113|401:91,1,47.9999985351563,2|0,0:0|0:0,0:0:0:0:
317,56,106400,2,0,P|314:79|312:103,1,47.9999985351563,0|0,0:0|0:0,0:0:0:0:
233,154,106733,2,0,P|190:141|128:144,1,95.9999970703126,2|0,0:0|0:0,0:0:0:0:
121,296,107400,6,0,P|164:309|226:306,1,95.9999970703126,2|0,0:0|0:0,0:0:0:0:
275,235,107900,1,0,0:0:0:0:
233,154,108067,2,0,L|235:130|237:106,1,47.9999985351563,2|0,0:0|0:0,0:0:0:0:
329,60,108400,2,0,P|331:83|333:107,1,47.9999985351563
474,92,108733,6,0,P|450:90|427:88,1,47.9999985351563,2|0,0:0|0:0,0:0:0:0:
386,185,109066,2,0,P|409:182|433:180,1,47.9999985351563,2|0,0:0|0:0,0:0:0:0:
490,285,109400,2,0,P|457:281|425:278,1,47.9999985351563,2|0,0:0|0:0,0:0:0:0:
416,277,109650,1,0,0:0:0:0:
391,275,109733,1,2,0:0:0:0:
319,337,109900,1,0,0:0:0:0:
231,297,110067,6,0,P|214:266|216:201,1,95.9999970703126,2|0,0:0|0:0,0:0:0:0:
265,131,110567,1,2,0:0:0:0:
194,190,110733,2,0,L|146:194|86:199,1,95.9999970703126,2|0,0:0|0:0,0:0:0:0:
79,38,111400,6,0,L|127:34|187:29,1,95.9999970703126,2|0,0:0|0:0,0:0:0:0:
256,72,111900,1,2,0:0:0:0:
340,31,112067,2,0,L|388:35|448:40,1,95.9999970703126,2|0,0:0|0:0,0:0:0:0:
372,233,112733,6,0,P|364:197|380:134,1,95.9999970703126,2|0,0:0|0:0,0:0:0:0:
481,193,113400,2,0,P|489:229|473:292,1,95.9999970703126,2|0,0:0|0:0,0:0:0:0:
371,347,114067,6,0,P|301:351|219:357,1,143.999995605469,2|0,0:0|0:0,0:0:0:0:
159,329,114650,1,0,0:0:0:0:
159,329,114733,1,2,0:0:0:0:
159,329,115400,6,0,P|117:326|74:324,1,80,6|0,0:0|0:0,0:0:0:0:
135,224,115733,2,0,P|146:186|139:137,1,80,8|0,0:0|0:0,0:0:0:0:
109,72,115983,1,0,1:0:0:0:
109,72,116067,1,2,0:0:0:0:
34,177,116233,1,2,0:0:0:0:
159,329,116400,2,0,P|201:325|239:323,1,80,8|0,0:0|0:0,0:0:0:0:
449,337,116733,6,0,P|403:338|343:284,1,120,2|0,0:0|0:0,0:0:0:0:
309,223,117067,2,0,P|317:183|314:138,1,80,8|0,0:0|0:0,0:0:0:0:
237,76,117400,1,2,0:0:0:0:
219,178,117567,1,2,0:0:0:0:
412,150,117733,2,0,P|404:105|381:70,1,80,8|0,0:0|0:0,0:0:0:0:
313,41,117983,1,0,1:0:0:0:
313,41,118067,6,0,P|256:44|186:47,1,120,2|0,0:0|0:0,0:0:0:0:
121,80,118400,2,0,P|83:77|38:74,1,80,8|0,0:0|0:0,0:0:0:0:
12,71,118650,1,0,1:0:0:0:
12,71,118733,1,2,0:0:0:0:
77,181,118900,1,2,0:0:0:0:
7,339,119067,2,0,P|3:299|1:259,1,80,8|0,0:0|0:0,0:0:0:0:
155,249,119400,6,0,P|158:288|160:328,1,80,2|0,0:0|0:0,0:0:0:0:
258,275,119733,2,0,B|296:260|296:260|336:254|373:275,1,120,8|0,0:0|1:0,0:0:0:0:
445,316,120067,2,0,P|456:270|451:238,1,80,2|2,0:0|0:0,0:0:0:0:
316,354,120400,1,8,0:0:0:0:
452,238,120567,1,0,0:0:0:0:
292,97,120733,6,0,P|294:144|297:178,1,80,6|0,0:0|0:0,0:0:0:0:
452,238,121067,2,0,P|455:198|456:158,1,80,8|0,0:0|0:0,0:0:0:0:
404,52,121400,1,2,0:0:0:0:
292,97,121567,1,2,0:0:0:0:
292,97,121733,2,0,P|252:100|208:88,1,80,8|0,0:0|0:0,0:0:0:0:
57,187,122067,6,0,P|95:177|135:180,1,80,2|0,0:0|0:0,0:0:0:0:
271,290,122400,2,0,P|231:293|187:281,1,80,8|0,0:0|0:0,0:0:0:0:
359,228,122733,1,2,0:0:0:0:
455,267,122900,1,2,0:0:0:0:
455,267,123067,2,0,P|460:313|464:352,1,80,8|0,0:0|0:0,0:0:0:0:
364,194,123400,5,2,0:0:0:0:
364,194,123567,1,2,0:0:0:0:
364,194,123733,2,0,L|368:154|372:114,1,80,8|0,0:0|0:0,0:0:0:0:
389,14,124067,1,2,0:0:0:0:
294,51,124233,2,0,P|249:56|210:46,1,80,0|8,0:0|0:0,0:0:0:0:
104,192,124567,1,0,0:0:0:0:
62,105,124733,6,0,P|101:96|140:102,1,80,12|0,0:0|0:0,0:0:0:0:
202,178,125067,2,0,P|203:216|207:245,2,53.3333333333333,8|2|2,0:0|0:0|0:0,0:0:0:0:
292,212,125400,2,0,P|291:250|287:279,2,53.3333333333333,8|2|8,0:0|0:0|0:3,0:0:0:0:
126,280,125733,2,0,P|127:318|131:347,2,53.3333333333333,4|4|4,0:3|0:3|0:3,0:0:0:0:
104,192,126067,6,0,P|202:83|298:182,1,320,4|2,0:0|0:0,0:0:0:0:
282,283,127733,5,0,0:0:0:0:
382,246,128067,1,2,0:0:0:0:
364,354,128400,1,0,0:0:0:0:
467,317,128733,5,6,0:0:0:0:
485,208,129067,2,0,P|478:168|478:108,2,95.9999970703126,0|2|0,0:0|0:0|0:0,0:0:0:0:
467,317,130067,6,0,P|418:316|367:327,1,95.9999970703126,2|0,0:0|0:0,0:0:0:0:
259,354,130733,2,0,P|210:355|159:344,1,95.9999970703126,2|0,0:0|0:0,0:0:0:0:
95,242,131400,5,6,0:0:0:0:
224,229,131733,1,0,0:0:0:0:
149,122,132067,2,0,P|139:75|140:27,1,95.9999970703126,2|0,0:0|0:0,0:0:0:0:
323,164,132733,6,0,P|317:259|311:358,2,191.999994140625,2|2|6,0:0|0:0|0:0,0:0:0:0:
333,41,134400,5,0,0:0:0:0:
430,109,134733,1,2,0:0:0:0:
225,94,135067,1,2,0:0:0:0:
225,94,135233,1,2,0:0:0:0:
225,94,135400,5,6,0:0:0:0:
323,164,135733,1,0,0:0:0:0:
430,109,136067,1,2,0:0:0:0:
333,41,136400,1,0,0:0:0:0:
211,217,136733,6,0,P|210:262|213:317,1,95.9999970703126,2|0,0:0|0:0,0:0:0:0:
277,362,137178,2,0,L|322:356,1,31.9999990234375,2|2,0:0|0:0,0:0:0:0:
195,336,137400,2,0,L|157:331,2,31.9999990234375,2|2|2,0:0|0:0|0:0,0:0:0:0:
83,360,137733,2,0,L|76:322,2,31.9999990234375,2|2|2,0:0|0:0|0:0,0:0:0:0:
60,246,138067,5,4,0:0:0:0:
60,246,138733,1,8,0:0:0:0:
175,303,138900,1,2,0:0:0:0:
287,231,139067,2,0,P|339:236|391:242,1,90.0000034332277,4|0,3:0|0:0,0:0:0:0:
406,243,139400,6,0,P|366:247|318:252,1,80,4|0,1:0|0:0,0:0:0:0:
380,345,139733,1,8,0:0:0:0:
354,151,139900,1,0,0:0:0:0:
504,210,140067,2,0,P|500:250|495:298,1,80,8|2,0:0|0:0,0:0:0:0:
335,132,140400,2,0,P|322:87|331:49,1,80,8|2,0:0|0:0,0:0:0:0:
422,88,140733,5,8,0:0:0:0:
304,249,140900,1,2,0:0:0:0:
221,164,141067,2,0,P|174:160|136:158,1,80,8|0,0:0|0:0,0:0:0:0:
65,308,141400,2,0,P|105:317|149:311,1,80,8|2,0:0|0:0,0:0:0:0:
304,249,141733,2,0,P|342:240|382:244,1,80,8|2,0:0|0:0,0:0:0:0:
499,326,142067,6,0,P|474:276|485:198,1,120,8|0,0:0|0:0,0:0:0:0:
416,167,142400,2,0,P|420:124|424:80,1,80,8|0,0:0|0:0,0:0:0:0:
429,8,142650,1,0,0:0:0:0:
429,8,142733,1,8,0:0:0:0:
323,45,142900,1,2,0:0:0:0:
219,86,143067,2,0,P|176:82|132:78,1,80,8|2,0:0|0:0,0:0:0:0:
63,155,143400,5,8,0:0:0:0:
63,155,143567,1,2,0:0:0:0:
125,245,143733,2,0,P|168:249|212:253,1,80,8|0,0:0|0:0,0:0:0:0:
297,302,144067,2,0,P|309:253|303:217,1,80,8|2,0:0|0:0,0:0:0:0:
240,141,144400,2,0,P|228:92|234:56,1,80,8|2,0:0|0:0,0:0:0:0:
414,88,144733,6,0,P|371:92|327:96,1,80,12|2,0:0|0:0,0:0:0:0:
157,169,145067,2,0,P|147:140|147:50,1,120,8|0,0:0|0:0,0:0:0:0:
154,26,145400,2,0,P|133:67|95:91,1,80,8|2,0:0|0:0,0:0:0:0:
59,4,145733,1,8,0:0:0:0:
241,103,145900,1,2,0:0:0:0:
64,200,146067,6,0,P|66:151|72:114,1,80,8|2,0:0|0:0,0:0:0:0:
282,283,146400,2,0,B|227:291|215:252|164:262,1,120,8|0,0:0|0:0,0:0:0:0:
138,271,146733,2,0,P|133:307|130:333,1,40,4|0,3:0|3:0,0:0:0:0:
268,193,146900,2,0,P|265:173|263:154,1,40,0|0,3:0|3:0,0:0:0:0:
356,222,147067,1,8,0:0:0:0:
380,208,147150,1,2,0:0:0:0:
407,202,147233,1,2,0:0:0:0:
436,203,147317,1,2,0:0:0:0:
462,210,147400,6,0,P|474:168|477:128,1,80,6|2,0:0|0:0,0:0:0:0:
416,299,147733,1,8,0:0:0:0:
319,320,147900,1,8,0:3:0:0:
319,320,147983,1,4,0:3:0:0:
319,320,148067,2,0,P|262:312|224:308,1,80,4|2,0:3|0:0,0:0:0:0:
131,298,148400,1,8,0:0:0:0:
221,154,148567,1,4,0:3:0:0:
208,178,148651,1,4,0:3:0:0:
195,202,148734,6,0,P|187:157|173:122,1,80,6|2,0:0|0:0,0:0:0:0:
86,193,149067,1,8,0:0:0:0:
131,298,149233,1,2,0:0:0:0:
146,319,149317,1,8,0:0:0:0:
162,339,149400,2,0,L|206:335|250:331,1,80,2|2,0:0|0:0,0:0:0:0:
264,308,149650,1,8,0:0:0:0:
291,292,149733,1,8,0:0:0:0:
322,283,149817,1,8,0:0:0:0:
353,284,149900,1,8,0:0:0:0:
384,291,149983,1,8,0:0:0:0:
411,308,150067,6,0,P|423:257|423:222,1,80,4|0,1:0|0:0,0:0:0:0:
277,134,150400,2,0,P|315:169|345:187,1,80,8|0,0:0|0:0,0:0:0:0:
496,106,150733,2,0,P|445:121|415:138,1,80,8|2,0:0|0:0,0:0:0:0:
316,64,151067,2,0,P|287:107|275:140,1,80,8|2,0:0|0:0,0:0:0:0:
155,149,151400,6,0,P|161:201|173:233,1,80,8|2,0:0|0:0,0:0:0:0:
240,319,151733,2,0,L|284:317|328:315,1,80,8|0,0:0|0:0,0:0:0:0:
261,171,152067,1,2,0:0:0:0:
170,226,152233,1,2,0:0:0:0:
79,284,152400,2,0,L|35:282|-9:280,1,80,8|8,0:0|0:0,0:0:0:0:
10,257,152650,1,0,0:0:0:0:
23,234,152733,6,0,P|29:183|19:138,1,80,6|2,0:0|0:0,0:0:0:0:
103,73,153067,2,0,P|153:95|226:73,1,120,8|0,0:0|0:0,0:0:0:0:
290,44,153400,2,0,P|334:30|373:34,1,80,2|2,0:0|0:0,0:0:0:0:
485,98,153733,2,0,P|479:139|475:179,1,80,8|0,0:0|0:0,0:0:0:0:
362,246,154067,6,0,L|357:206|352:166,1,80,2|2,0:0|0:0,0:0:0:0:
261,57,154400,2,0,P|254:108|243:181,1,120,8|0,0:0|0:0,0:0:0:0:
242,206,154733,2,0,P|211:179|170:165,1,80,2|2,0:0|0:0,0:0:0:0:
89,301,155067,2,0,P|127:287|160:259,1,80,8|0,0:0|0:0,0:0:0:0:
84,124,155400,6,0,P|76:164|84:206,1,80,6|0,0:0|0:0,0:0:0:0:
191,357,155733,2,0,P|235:352|279:348,1,80,8|0,0:0|0:0,0:0:0:0:
428,227,156067,2,0,P|388:223|348:218,1,80,2|2,0:0|0:0,0:0:0:0:
210,203,156400,2,0,P|234:166|230:88,1,120,8|0,0:0|0:0,0:0:0:0:
220,65,156733,6,0,P|239:100|276:126,1,80,2|2,0:0|0:0,0:0:0:0:
321,34,157067,1,8,0:0:0:0:
126,18,157233,1,8,0:0:0:0:
124,122,157400,2,0,P|119:162|114:208,1,80,2|2,0:0|0:0,0:0:0:0:
225,314,157733,2,0,L|220:274|215:234,1,80,8|0,0:0|0:0,0:0:0:0:
304,164,158067,6,0,P|347:163|390:143,1,80,2|2,0:0|0:0,0:0:0:0:
442,55,158400,1,8,0:0:0:0:
289,53,158567,2,0,P|296:107|301:145,1,80,8|2,0:0|0:0,0:0:0:0:
304,164,158817,1,0,0:0:0:0:
308,193,158900,1,8,0:0:0:0:
314,224,158983,1,8,0:0:0:0:
319,254,159067,1,2,0:0:0:0:
324,284,159150,1,8,0:0:0:0:
329,314,159233,1,8,0:0:0:0:
334,344,159317,1,8,0:0:0:0:
339,374,159400,6,0,P|378:357|405:311,1,80,2|2,0:0|0:0,0:0:0:0:
201,123,159733,1,8,0:0:0:0:
135,204,159900,1,8,0:3:0:0:
135,204,159983,1,8,0:3:0:0:
135,204,160067,2,0,P|142:258|147:296,1,80,4|2,0:3|0:0,0:0:0:0:
34,169,160400,1,4,0:3:0:0:
45,140,160483,1,2,0:0:0:0:
68,117,160567,1,2,0:0:0:0:
97,104,160650,1,2,0:0:0:0:
128,100,160733,6,0,P|161:101|205:126,1,80,12|2,0:0|0:0,0:0:0:0:
241,215,161067,1,2,0:0:0:0:
238,38,161233,6,0,P|266:55|291:99,1,80,8|2,0:0|0:0,0:0:0:0:
278,194,161567,1,2,0:0:0:0:
366,34,161733,6,0,P|381:63|381:113,1,80,8|2,0:0|0:0,0:0:0:0:
322,189,162067,1,2,0:0:0:0:
474,98,162233,6,0,P|473:131|448:175,1,80,8|2,0:0|0:0,0:0:0:0:
359,210,162567,1,2,0:0:0:0:
437,277,162733,6,0,P|444:322|449:359,1,80,8|8,0:0|0:0,0:0:0:0:
424,353,162983,1,8,0:0:0:0:
400,349,163067,1,8,0:0:0:0:
378,345,163150,1,8,0:0:0:0:
356,341,163233,1,8,0:0:0:0:
334,337,163317,1,8,0:0:0:0:
312,333,163400,6,0,P|265:337|226:340,1,80,6|0,0:0|0:0,0:0:0:0:
123,371,163733,2,0,P|119:324|116:285,1,80,8|0,0:0|0:0,0:0:0:0:
79,179,164067,2,0,P|126:175|165:172,1,80,8|2,0:0|0:0,0:0:0:0:
268,141,164400,2,0,P|272:188|275:227,1,80,8|2,0:0|0:0,0:0:0:0:
414,286,164733,6,0,L|417:246|420:206,1,80,12|2,0:0|0:0,0:0:0:0:
241,155,165067,2,0,P|245:202|248:241,1,80,8|0,0:0|0:0,0:0:0:0:
443,303,165400,6,0,L|446:263|449:223,1,80,8|2,0:0|0:0,0:0:0:0:
500,118,165733,2,0,P|460:122|414:103,1,80,8|0,0:0|0:0,0:0:0:0:
287,47,166067,5,8,0:0:0:0:
256,37,166150,1,0,0:0:0:0:
224,37,166233,1,8,0:0:0:0:
193,45,166317,1,8,0:0:0:0:
167,65,166400,1,8,0:3:0:0:
141,83,166483,1,0,0:0:0:0:
110,93,166567,1,8,0:0:0:0:
78,93,166650,1,8,0:0:0:0:
48,81,166733,5,2,0:0:0:0:
56,122,166817,1,2,0:0:0:0:
64,161,166900,1,4,0:3:0:0:
70,201,166983,1,4,0:3:0:0:
77,241,167067,2,0,P|72:300|71:323,1,80,8|0,0:0|0:0,0:0:0:0:
226,221,167400,5,10,0:2:0:0:
323,334,167622,5,10,0:2:0:0:
370,189,167845,5,10,0:2:0:0:
467,297,168067,6,0,P|473:232|484:126,1,167.999994873047,4|0,1:0|0:0,0:0:0:0:
496,50,168733,5,6,0:0:0:0:
377,95,168900,1,0,0:0:0:0:
377,95,168983,1,0,3:0:0:0:
377,95,169067,2,0,P|336:90|299:86,1,60.0000022888184,2|0,0:0|0:0,0:0:0:0:
290,84,169317,1,0,3:0:0:0:
264,81,169400,1,2,0:0:0:0:
170,127,169567,1,0,0:0:0:0:
100,69,169733,2,0,P|93:42|93:7,1,60.0000022888184,2|0,0:0|3:0,0:0:0:0:
67,22,169983,1,0,3:0:0:0:
44,32,170067,5,2,0:0:0:0:
182,32,170233,1,0,0:0:0:0:
95,165,170400,2,0,P|52:166|16:178,1,60.0000022888184,2|0,0:0|3:0,0:0:0:0:
76,255,170733,1,0,0:0:0:0:
68,282,170817,1,0,3:0:0:0:
60,306,170900,2,0,P|56:348|58:371,1,60.0000022888184,0|2,3:0|0:0,0:0:0:0:
179,154,171233,1,0,0:0:0:0:
171,127,171317,1,0,3:0:0:0:
163,103,171400,6,0,P|159:61|161:38,1,60.0000022888184,2|0,0:0|0:0,0:0:0:0:
255,78,171733,1,2,0:0:0:0:
344,116,171900,2,0,P|379:111|408:108,1,60.0000022888184,0|2,3:0|0:0,0:0:0:0:
432,104,172150,2,0,P|426:140|421:168,1,60.0000022888184,0|0,3:0|3:0,0:0:0:0:
417,193,172400,2,0,P|452:188|481:185,1,60.0000022888184,2|0,0:0|3:0,0:0:0:0:
471,212,172650,1,0,3:0:0:0:
466,239,172733,6,0,L|472:284,2,40.000001525879,2|2|2,0:0|0:0|0:0,0:0:0:0:
378,322,173067,2,0,L|384:283,2,40.000001525879,2|2|2,0:0|0:0|0:0,0:0:0:0:
287,233,173400,6,0,L|293:274,3,40,8|2|4|4,0:3|0:0|0:3|0:3,0:0:0:0:
193,311,173733,2,0,L|198:271,3,40,2|2|2|2,0:0|0:0|0:0|0:0,0:0:0:0:
108,260,174067,5,6,0:0:0:0:
120,302,179400,6,0,P|164:297|212:291,1,80,4|0,1:0|0:0,0:0:0:0:
344,201,179733,2,0,P|300:196|252:191,1,80,8|0,0:0|0:0,0:0:0:0:
95,132,180067,2,0,P|139:127|186:122,1,80,8|2,0:0|0:0,0:0:0:0:
249,44,180400,1,8,0:0:0:0:
344,201,180567,1,2,0:0:0:0:
436,130,180733,6,0,P|449:90|446:48,1,80,8|2,0:0|0:0,0:0:0:0:
436,28,180983,1,0,0:0:0:0:
436,28,181067,1,8,0:0:0:0:
246,175,181233,1,0,0:0:0:0:
246,175,181317,1,0,0:0:0:0:
246,175,181400,2,0,P|244:214|257:252,1,80,8|2,0:0|0:0,0:0:0:0:
344,304,181733,1,8,0:0:0:0:
344,201,181900,1,2,0:0:0:0:
171,344,182067,6,0,P|210:348|250:352,1,80,8|2,0:0|0:0,0:0:0:0:
512,240,182400,2,0,P|472:238|434:251,1,80,8|0,0:0|0:0,0:0:0:0:
344,304,182733,1,8,0:0:0:0:
257,252,182900,1,2,0:0:0:0:
257,252,183067,2,0,P|244:214|246:175,1,80,8|2,0:0|0:0,0:0:0:0:
318,98,183400,5,8,0:0:0:0:
424,193,183567,1,2,0:0:0:0:
424,193,183650,1,0,0:0:0:0:
424,193,183733,2,0,L|384:197|344:201,1,80,8|0,0:0|0:0,0:0:0:0:
163,297,184067,1,8,0:0:0:0:
80,239,184233,1,2,0:0:0:0:
186,104,184400,1,8,0:0:0:0:
172,200,184567,1,2,0:0:0:0:
80,239,184733,6,0,P|36:235|-3:231,1,80,12|0,0:0|0:0,0:0:0:0:
263,162,185067,2,0,P|307:158|346:154,1,80,8|0,0:0|0:0,0:0:0:0:
96,141,185400,6,0,P|52:137|13:133,1,80,8|2,0:0|0:0,0:0:0:0:
252,255,185733,2,0,P|296:251|335:247,1,80,8|2,0:0|0:0,0:0:0:0:
357,244,185983,1,0,0:0:0:0:
381,241,186067,5,8,0:0:0:0:
459,317,186233,1,2,0:0:0:0:
431,147,186400,2,0,P|425:107|430:54,1,80,8|0,0:0|0:0,0:0:0:0:
332,247,186733,2,0,P|334:286|328:326,1,80,8|2,0:0|0:0,0:0:0:0:
209,167,187067,2,0,P|203:127|208:74,1,80,8|2,0:0|0:0,0:0:0:0:
308,124,187400,5,12,0:0:0:0:
200,281,187567,1,2,0:0:0:0:
32,220,187733,2,0,P|72:218|120:216,1,80,8|0,0:0|0:0,0:0:0:0:
298,233,188067,1,8,0:0:0:0:
115,113,188233,1,2,0:0:0:0:
301,44,188400,2,0,P|306:90|308:128,1,80,8|8,0:0|0:0,0:0:0:0:
400,281,188733,6,0,P|402:241|406:201,1,80,0|8,1:0|0:3,0:0:0:0:
420,124,188983,1,8,3:0:0:0:
420,124,189067,1,8,3:0:0:0:
500,252,189233,1,8,3:0:0:0:
328,357,189400,1,8,3:0:0:0:
327,206,189567,5,8,0:0:0:0:
421,299,189733,1,8,0:0:0:0:
236,273,189900,1,8,0:0:0:0:
318,98,190067,1,4,1:0:0:0:
318,98,191400,5,0,1:0:0:0:
370,179,191622,5,0,1:2:0:0:
304,252,191845,5,0,1:0:0:0:
357,335,192067,6,0,P|302:332|217:327,1,120,4|0,1:0|0:0,0:0:0:0:
167,283,192733,6,0,P|112:286|27:291,1,120,6|2,0:0|0:0,0:0:0:0:
51,206,193400,2,0,P|53:175|56:153,1,40,8|0,0:0|0:0,0:0:0:0:
91,90,193733,2,0,P|88:70|87:50,1,40,8|0,0:0|0:0,0:0:0:0:
170,135,194067,5,8,0:0:0:0:
254,142,194233,1,8,0:0:0:0:
334,111,194400,1,8,0:0:0:0:
383,41,194567,1,8,0:0:0:0:
311,93,194733,5,8,0:0:0:0:
296,183,194900,1,8,0:0:0:0:
334,262,195067,1,8,0:0:0:0:
411,302,195233,1,0,1:0:0:0:
411,302,195317,1,0,0:0:0:0:
411,302,195400,6,0,P|454:306|491:309,1,80,6|2,0:0|0:0,0:0:0:0:
246,261,195733,2,0,P|200:264|142:326,1,120,8|0,0:0|0:0,0:0:0:0:
134,340,196067,2,0,P|144:294|136:254,1,80,2|2,0:0|0:0,0:0:0:0:
47,298,196400,1,8,0:0:0:0:
239,354,196567,1,2,0:0:0:0:
170,161,196733,6,0,P|130:162|90:166,1,80,6|2,0:0|0:0,0:0:0:0:
263,202,197067,1,8,0:0:0:0:
353,151,197233,1,8,0:3:0:0:
364,127,197317,1,8,0:3:0:0:
376,105,197400,2,8,P|383:59|373:15,1,80,8|8,0:3|0:3,0:0:0:0:
170,161,197733,2,0,P|164:200|171:239,1,80,12|0,0:0|0:0,0:0:0:0:
251,299,198067,5,2,0:0:0:0:
263,202,198233,1,2,0:0:0:0:
81,279,198400,1,8,0:0:0:0:
161,337,198567,1,0,1:0:0:0:
161,337,198650,1,0,0:0:0:0:
161,337,198733,1,2,0:0:0:0:
172,239,198900,1,8,0:0:0:0:
73,378,199067,1,2,0:0:0:0:
251,299,199233,1,2,0:0:0:0:
95,183,199400,6,0,P|45:180|7:178,1,80,4|2,1:2|0:0,0:0:0:0:
29,157,199650,1,2,0:0:0:0:
44,138,199733,2,0,L|40:89,1,40,4|2,0:3|0:0,0:0:0:0:
135,40,199900,2,0,L|131:79,1,40,2|2,0:0|0:0,0:0:0:0:
194,150,200067,2,0,L|242:155,1,40,8|2,0:3|0:0,0:0:0:0:
262,59,200233,2,0,L|214:64,1,40,2|2,0:0|0:0,0:0:0:0:
329,130,200400,2,2,P|390:143|449:98,1,120,8|0,0:0|0:0,0:0:0:0:
462,96,200733,6,0,P|459:134|455:198,1,90.0000034332276
383,235,201067,6,0,B|390:278|395:331|396:331,1,80,12|0,0:0|0:0,0:0:0:0:
262,285,201400,2,0,P|214:280|172:275,1,80,2|2,0:0|0:0,0:0:0:0:
329,130,201733,2,0,P|377:125|419:120,1,80,8|0,0:0|0:0,0:0:0:0:
383,235,202067,5,6,0:0:0:0:
231,168,202233,1,2,0:0:0:0:
362,35,202400,1,8,0:0:0:0:
483,174,202567,1,0,0:0:0:0:
389,315,202733,2,0,P|386:271|383:230,1,80,2|2,0:0|0:0,0:0:0:0:
237,88,203067,2,0,P|234:127|231:167,1,80,8|0,0:0|0:0,0:0:0:0:
186,302,203400,6,0,P|146:277|31:301,2,160,6|8|2,0:0|0:0|0:0,0:0:0:0:
283,356,204233,1,2,0:0:0:0:
389,315,204400,2,0,P|403:274|402:233,1,80,8|0,0:0|0:0,0:0:0:0:
339,154,204733,5,2,0:0:0:0:
300,254,204900,1,2,0:0:0:0:
441,139,205067,1,8,0:0:0:0:
246,117,205233,1,8,0:0:0:0:
240,142,205317,1,0,0:0:0:0:
235,168,205400,1,2,0:0:0:0:
403,237,205567,1,2,0:0:0:0:
317,46,205733,2,0,P|268:19|192:34,1,120,12|0,0:0|0:0,0:0:0:0:
139,69,206067,6,0,P|95:98|-6:59,2,160,6|8|2,0:0|0:0|0:0,0:0:0:0:
235,105,206900,1,2,0:0:0:0:
317,46,207067,2,0,P|360:33|400:37,1,80,8|0,0:0|0:0,0:0:0:0:
256,198,207400,6,0,P|213:194|171:190,1,80,2|2,0:0|0:0,0:0:0:0:
372,149,207733,2,0,P|375:188|379:228,1,80,8|0,0:0|0:0,0:0:0:0:
391,349,208067,1,2,0:0:0:0:
418,345,208150,1,8,0:0:0:0:
445,342,208233,1,8,0:0:0:0:
473,339,208317,1,8,0:0:0:0:
500,336,208400,1,8,0:0:0:0:
380,228,208567,1,2,0:0:0:0:
287,298,208733,6,0,P|246:294|194:289,1,80,12|8,0:0|0:0,0:0:0:0:
119,337,209067,1,8,0:0:0:0:
256,198,209233,1,8,0:0:0:0:
61,145,209400,1,8,0:0:0:0:
143,228,209567,1,8,0:0:0:0:
173,116,209733,1,8,0:0:0:0:
33,257,209900,1,8,0:0:0:0:
230,308,210067,6,0,P|271:304|323:299,1,80,6|2,0:0|0:0,0:0:0:0:
411,336,210400,1,8,0:0:0:0:
391,228,210567,1,2,0:0:0:0:
372,207,210650,1,0,1:0:0:0:
359,181,210733,1,8,0:3:0:0:
356,152,210817,1,8,3:3:0:0:
361,124,210900,1,8,0:3:0:0:
375,99,210983,1,8,0:3:0:0:
394,79,211067,2,0,L|400:33,1,40,4|4,0:3|0:3,0:0:0:0:
267,158,211233,2,0,L|272:197,1,40,2|2,0:0|0:0,0:0:0:0:
186,101,211400,6,0,P|151:87|95:90,1,80,12|2,0:0|0:0,0:0:0:0:
131,175,211733,1,2,0:0:0:0:
242,311,211900,6,0,P|272:286|292:252,1,80,8|2,0:0|0:0,0:0:0:0:
205,227,212233,1,2,0:0:0:0:
24,256,212400,6,0,P|29:293|59:340,1,80,8|2,0:0|0:0,0:0:0:0:
118,266,212733,1,2,0:0:0:0:
186,101,212900,6,0,P|151:87|95:90,1,80,8|2,0:0|0:0,0:0:0:0:
0,169,213233,1,2,0:0:0:0:
118,266,213400,6,0,P|148:240|168:206,1,80,8|8,0:0|0:0,0:0:0:0:
189,187,213650,1,8,0:0:0:0:
214,175,213733,1,8,0:0:0:0:
242,172,213817,1,8,0:0:0:0:
269,176,213900,1,8,0:0:0:0:
294,187,213983,1,8,0:0:0:0:
315,205,214067,6,0,P|352:203|395:199,1,80,6|0,0:0|0:0,0:0:0:0:
445,319,214400,2,0,P|405:315|365:313,1,80,8|0,0:0|0:0,0:0:0:0:
374,92,214733,2,0,P|413:95|453:97,1,80,8|2,0:0|0:0,0:0:0:0:
394,199,215067,1,8,0:0:0:0:
268,85,215233,1,2,0:0:0:0:
448,18,215400,6,0,P|451:57|453:97,1,80,12|0,0:0|0:0,0:0:0:0:
303,258,215733,2,0,P|306:218|308:178,1,80,8|0,0:0|0:0,0:0:0:0:
165,45,216067,2,0,P|168:84|170:124,1,80,8|2,0:0|0:0,0:0:0:0:
43,226,216400,2,0,P|46:186|48:146,1,80,8|0,0:0|0:0,0:0:0:0:
14,44,216733,5,12,0:0:0:0:
173,232,216900,1,8,0:0:0:0:
173,232,216983,1,8,0:0:0:0:
173,232,217067,1,10,0:0:0:0:
200,248,217150,1,8,0:0:0:0:
231,252,217233,1,8,0:0:0:0:
262,247,217317,1,8,0:0:0:0:
290,233,217400,1,4,3:3:0:0:
319,220,217483,1,8,0:0:0:0:
350,214,217567,1,8,0:0:0:0:
381,218,217650,1,8,0:0:0:0:
409,231,217733,2,0,P|442:263|453:301,1,80,10|0,0:0|0:0,0:0:0:0:
354,312,218067,5,10,0:0:0:0:
477,138,219400,6,0,P|472:77|469:13,1,120.000004577637,6|0,0:0|0:0,0:0:0:0:
382,114,219952,1,0,0:0:0:0:
373,204,220136,2,0,P|371:239|368:272,1,60.0000022888184,2|0,0:0|0:0,0:0:0:0:
286,147,220504,2,0,P|283:117|281:87,1,60.0000022888184,2|0,0:0|0:0,0:0:0:0:
259,95,220780,1,0,0:0:0:0:
236,102,220872,6,0,P|198:98|116:90,1,120.000004577637,2|2,0:0|0:0,0:0:0:0:
50,152,221420,1,0,0:0:0:0:
99,229,221603,2,0,P|104:262|104:291,1,60.0000022888184,0|0,0:0|0:0,0:0:0:0:
199,340,221969,2,0,P|199:310|204:280,1,60.0000022888184,2|0,0:0|0:0,0:0:0:0:
285,230,222335,5,2,0:0:0:0:
288,322,222513,1,0,0:0:0:0:
204,280,222692,1,0,0:0:0:0:
371,270,222870,1,0,0:0:0:0:
371,270,223049,2,0,P|409:265|434:262,1,60.0000022888184,2|0,0:0|0:0,0:0:0:0:
202,190,223406,2,0,L|172:186|142:182,1,60.0000022888184,2|0,0:0|0:0,0:0:0:0:
382,99,223763,6,0,P|379:143|376:174,1,60.0000022888184,2|0,0:0|0:0,0:0:0:0:
199,88,224133,2,0,P|196:58|194:28,1,60.0000022888184,0|2,0:0|0:0,0:0:0:0:
289,107,224496,2,0,P|285:156|280:236,1,120.000004577637,2|0,0:0|0:0,0:0:0:0:
204,280,225048,1,0,0:0:0:0:
204,280,225140,1,0,0:0:0:0:
204,280,225232,6,0,P|144:262|76:274,1,120.000004577637,6|0,0:0|0:0,0:0:0:0:
280,338,225794,1,2,0:0:0:0:
280,338,225982,2,0,P|317:349|347:349,1,60.0000022888184,2|0,0:0|0:0,0:0:0:0:
401,284,226357,2,0,P|430:262|445:238,1,60.0000022888184,2|0,0:0|0:0,0:0:0:0:
424,152,226732,6,0,P|428:111|430:85,1,60.0000022888184,2|0,0:0|0:0,0:0:0:0:
317,50,227132,2,0,P|319:79|322:109,1,60.0000022888184,2|0,0:0|0:0,0:0:0:0:
203,215,227532,6,0,P|207:170|213:91,1,120.000004577637,2|0,0:0|0:0,0:0:0:0:
145,28,228194,1,0,0:0:0:0:
57,70,228438,5,2,0:0:0:0:
78,162,228926,1,2,0:0:0:0:
18,245,229502,1,2,0:0:0:0:
50,336,230108,1,2,0:0:0:0:
113,257,230858,6,0,L|138:253,3,13.3333333333333,2|0|0|4,0:0|0:0|0:0|0:0,0:0:0:0:
256,192,231358,12,0,235608,0:0:0:0:
