osu file format v14

[General]
AudioFilename: Sekai Wa Koi Ni Ochiteiru.mp3
AudioLeadIn: 0
PreviewTime: 60379
Countdown: 0
SampleSet: Normal
StackLeniency: 0.7
Mode: 3
LetterboxInBreaks: 0
SpecialStyle: 0
WidescreenStoryboard: 0

[Editor]
DistanceSpacing: 0.8
BeatDivisor: 4
GridSize: 8
TimelineZoom: 1.2

[Metadata]
Title:Sekai wa Koi ni Ochiteiru TV size
TitleUnicode:世界は恋に落ちている TV size
Artist:CHiCO with HoneyWorks
ArtistUnicode:CHiCO with HoneyWorks
Creator:kifuera456
Version:HD
Source:AO--HARU--RIDE
Tags:blue spring ride opening アオハライド.
BeatmapID:558382
BeatmapSetID:241832

[Difficulty]
HPDrainRate:7
CircleSize:4
OverallDifficulty:8
ApproachRate:5
SliderMultiplier:1.4
SliderTickRate:1

[Events]
//Background and Video events
0,0,"ao-haru-ride-episode-2-5.jpg",0,0
//Break Periods
//Storyboard Layer 0 (Background)
//Storyboard Layer 1 (Fail)
//Storyboard Layer 2 (Pass)
//Storyboard Layer 3 (Foreground)
//Storyboard Sound Samples

[TimingPoints]
1302,461.538461538462,4,1,0,15,1,0
16071,-100,4,1,0,23,0,0
60378,-100,4,1,0,30,0,1
75148,-100,4,1,0,25,0,0
88417,-100,4,1,0,15,0,0

[HitObjects]
448,192,1302,128,0,2686:2:0:0:0:
192,192,1302,1,2,2:0:0:0:
192,192,2686,128,2,3148:2:0:0:0:
320,192,3148,128,0,4071:2:0:0:0:
64,192,3148,1,2,2:0:0:0:
64,192,4071,128,0,4994:2:0:0:0:
448,192,4071,1,2,2:0:0:0:
448,192,4994,128,0,5917:2:0:0:0:
192,192,4994,1,2,2:0:0:0:
192,192,5686,1,2,2:0:0:0:
320,192,5917,128,0,6378:2:0:0:0:
64,192,5917,1,2,2:0:0:0:
192,192,6378,128,2,6840:2:0:0:0:
448,192,6840,1,2,2:0:0:0:
64,192,6840,128,0,7763:2:0:0:0:
192,192,7763,1,2,2:0:0:0:
320,192,7994,1,2,2:0:0:0:
448,192,8225,128,2,8686:2:0:0:0:
192,192,8686,1,2,2:0:0:0:
320,192,8686,128,0,9609:2:0:0:0:
448,192,9148,1,0,2:0:0:0:
64,192,9609,128,2,10071:2:0:0:0:
448,192,10071,128,0,10532:2:0:0:0:
320,192,10071,1,2,2:0:0:0:
192,192,10532,128,0,11455:2:0:0:0:
64,192,10532,1,2,2:0:0:0:
320,192,10994,1,0,2:0:0:0:
320,192,11455,128,0,11917:2:0:0:0:
448,192,11455,1,2,2:0:0:0:
192,192,11917,128,0,12378:2:0:0:0:
448,192,12378,1,2,2:0:0:0:
64,192,12378,128,0,14225:2:0:0:0:
320,192,12725,1,2,2:0:0:0:
192,192,12840,1,2,2:0:0:0:
448,192,13071,1,2,2:0:0:0:
320,192,13302,1,2,2:0:0:0:
448,192,13763,1,2,2:0:0:0:
192,192,14225,1,2,2:0:0:0:
320,192,14253,1,2,2:0:0:0:
448,192,14282,1,2,2:0:0:0:
192,192,14917,128,0,16071:2:0:0:0:
64,192,16071,1,4,3:0:0:0:
448,192,16071,1,4,3:0:0:0:
320,192,16071,128,0,17686:0:0:0:0:
192,192,16417,1,0,3:0:0:0:
448,192,16532,1,2,3:0:0:0:
64,192,16532,1,0,1:0:0:0:
192,192,16763,1,4,3:0:0:0:
448,192,16994,1,2,2:0:0:0:
192,192,17225,1,4,3:0:0:0:
64,192,17455,1,2,3:0:0:0:
448,192,17455,1,0,1:0:0:0:
192,192,17686,1,4,3:0:0:0:
192,192,17917,128,2,18609:2:0:0:0:
64,192,17917,1,4,3:0:0:0:
320,192,18263,1,0,3:0:0:0:
64,192,18378,1,0,1:0:0:0:
448,192,18378,1,2,3:0:0:0:
320,192,18609,1,4,3:0:0:0:
448,192,18609,128,0,19302:2:0:0:0:
320,192,18840,1,2,2:0:0:0:
192,192,18955,1,0,2:0:0:0:
64,192,19071,1,4,3:0:0:0:
320,192,19302,128,2,19763:2:3:0:0:
192,192,19302,1,0,1:0:0:0:
192,192,19648,1,0,3:0:0:0:
448,192,19763,1,4,3:0:0:0:
64,192,19763,128,2,21378:2:0:0:0:
320,192,19878,1,0,3:0:0:0:
448,192,19994,1,0,3:0:0:0:
192,192,20109,1,0,3:0:0:0:
320,192,20225,1,2,3:0:0:0:
448,192,20225,1,0,1:0:0:0:
192,192,20455,1,2,2:0:0:0:
320,192,20686,1,4,3:0:0:0:
448,192,20917,1,4,3:0:0:0:
320,192,21148,1,2,3:0:0:0:
192,192,21148,1,0,1:0:0:0:
448,192,21378,1,4,3:0:0:0:
448,192,21609,128,2,22302:2:0:0:0:
320,192,21609,1,4,3:0:0:0:
64,192,21955,1,4,3:0:0:0:
320,192,22071,1,0,1:0:0:0:
192,192,22071,1,2,3:0:0:0:
192,192,22302,128,0,23455:2:0:0:0:
64,192,22302,1,2,2:0:0:0:
320,192,22378,1,2,2:0:0:0:
64,192,22455,1,2,2:0:0:0:
448,192,22561,1,8,3:0:0:0:
320,192,22677,1,4,3:0:0:0:
64,192,22763,1,4,3:0:0:0:
320,192,22878,1,2,3:0:0:0:
448,192,22994,1,6,3:0:0:0:
320,192,23225,1,4,3:0:0:0:
448,192,23225,1,4,3:0:0:0:
320,192,23455,1,0,1:0:0:0:
448,192,23455,1,4,2:0:0:0:
64,192,23455,1,4,3:0:0:0:
320,192,23686,1,4,3:0:0:0:
192,192,23917,1,4,3:0:0:0:
64,192,23917,1,0,1:0:0:0:
320,192,24148,1,0,2:0:0:0:
192,192,24263,1,0,3:0:0:0:
448,192,24378,1,0,2:0:0:0:
192,192,24494,1,4,3:0:0:0:
320,192,24609,1,4,3:0:0:0:
448,192,24840,1,0,1:0:0:0:
64,192,24840,1,2,3:0:0:0:
320,192,25071,1,0,2:0:0:0:
192,192,25302,1,2,3:0:0:0:
448,192,25302,1,0,2:0:0:0:
64,192,25532,1,4,3:0:0:0:
320,192,25763,1,0,1:0:0:0:
448,192,25763,1,2,3:0:0:0:
192,192,25994,1,0,2:0:0:0:
320,192,26109,1,0,3:0:0:0:
64,192,26225,1,4,3:0:0:0:
192,192,26455,1,4,3:0:0:0:
448,192,26686,1,2,3:0:0:0:
64,192,26686,1,0,1:0:0:0:
64,192,26917,1,4,3:0:0:0:
192,192,27032,1,0,3:0:0:0:
320,192,27148,1,4,3:0:0:0:
320,192,27378,1,4,3:0:0:0:
192,192,27378,128,0,27609:2:0:0:0:
64,192,27609,1,0,1:0:0:0:
448,192,27609,128,2,28071:2:3:0:0:
320,192,27840,1,0,2:0:0:0:
64,192,27955,1,0,2:0:0:0:
192,192,28071,128,0,28302:2:0:0:0:
448,192,28302,128,0,28763:2:0:0:0:
320,192,28302,1,4,3:0:0:0:
320,192,28532,1,2,3:0:0:0:
64,192,28532,1,0,1:0:0:0:
192,192,28763,128,0,28994:2:0:0:0:
320,192,28994,128,0,29455:2:0:0:0:
448,192,28994,1,4,3:0:0:0:
448,192,29225,1,4,3:0:0:0:
64,192,29455,1,0,1:0:0:0:
192,192,29455,128,2,29686:2:3:0:0:
320,192,29686,1,0,2:0:0:0:
448,192,29686,128,0,30378:2:0:0:0:
64,192,29802,1,0,3:0:0:0:
192,192,29917,1,0,2:0:0:0:
320,192,30148,128,0,30378:2:0:0:0:
64,192,30148,1,4,3:0:0:0:
64,192,30378,1,0,1:0:0:0:
192,192,30378,128,2,32686:2:0:0:0:
448,192,30840,1,4,3:0:0:0:
448,192,31071,1,4,3:0:0:0:
64,192,31302,1,2,3:0:0:0:
320,192,31302,1,0,1:0:0:0:
448,192,31532,1,4,3:0:0:0:
64,192,31648,1,0,3:0:0:0:
320,192,31763,1,4,3:0:0:0:
64,192,31994,1,4,3:0:0:0:
448,192,32225,1,2,3:0:0:0:
320,192,32225,1,0,1:0:0:0:
64,192,32455,1,0,2:0:0:0:
448,192,32571,1,0,2:0:0:0:
320,192,32686,1,4,3:0:0:0:
320,192,32917,1,4,3:0:0:0:
448,192,33148,1,2,3:0:0:0:
64,192,33148,1,0,1:0:0:0:
192,192,33378,1,4,3:0:0:0:
320,192,33494,1,0,2:0:0:0:
64,192,33609,1,2,3:0:0:0:
192,192,33609,1,0,2:0:0:0:
448,192,33725,1,0,2:0:0:0:
320,192,33840,1,4,3:0:0:0:
448,192,34071,1,0,1:0:0:0:
64,192,34071,1,2,3:0:0:0:
320,192,34302,1,0,2:0:0:0:
192,192,34532,1,2,3:0:0:0:
64,192,34532,1,0,2:0:0:0:
448,192,34763,1,4,3:0:0:0:
320,192,34994,1,0,1:0:0:0:
64,192,34994,1,2,3:0:0:0:
192,192,35225,128,2,35686:2:0:0:0:
448,192,35225,1,4,3:0:0:0:
448,192,35686,1,2,2:0:0:0:
320,192,35802,1,2,2:0:0:0:
192,192,35917,1,2,2:0:0:0:
64,192,36032,1,2,2:0:0:0:
192,192,36148,1,2,2:0:0:0:
320,192,36263,1,2,2:0:0:0:
448,192,36378,1,4,3:0:0:0:
64,192,36378,1,2,3:0:0:0:
64,192,36609,1,4,3:0:0:0:
192,192,36840,1,2,3:0:0:0:
448,192,36840,1,0,1:0:0:0:
64,192,37071,1,0,2:0:0:0:
320,192,37302,1,8,3:0:0:0:
192,192,37417,1,2,3:0:0:0:
64,192,37417,1,0,1:0:0:0:
448,192,37532,1,4,3:0:0:0:
320,192,37763,1,2,3:0:0:0:
64,192,37763,1,0,1:0:0:0:
448,192,38225,1,2,3:0:0:0:
192,192,38225,1,0,1:0:0:0:
64,192,38225,1,4,2:0:0:0:
448,192,38455,1,4,3:0:0:0:
320,192,38686,1,2,3:0:0:0:
64,192,38686,1,0,1:0:0:0:
192,192,38917,1,4,3:0:0:0:
448,192,39032,1,2,2:3:0:0:
320,192,39148,1,4,3:0:0:0:
64,192,39263,1,0,2:0:0:0:
192,192,39378,1,4,3:0:0:0:
64,192,39609,1,0,1:0:0:0:
448,192,39609,1,2,3:0:0:0:
320,192,39840,1,0,2:0:0:0:
192,192,40071,1,4,3:0:0:0:
192,192,40302,1,4,3:0:0:0:
64,192,40532,1,0,1:0:0:0:
448,192,40532,1,2,3:0:0:0:
320,192,40763,1,4,3:0:0:0:
64,192,40878,1,2,2:3:0:0:
192,192,40994,1,4,3:0:0:0:
448,192,41109,1,0,2:0:0:0:
192,192,41225,1,4,3:0:0:0:
64,192,41455,1,2,3:0:0:0:
448,192,41455,1,0,1:0:0:0:
448,192,41686,1,4,3:0:0:0:
64,192,41802,1,0,3:0:0:0:
320,192,41917,1,2,3:0:0:0:
448,192,41917,1,4,2:0:0:0:
320,192,42148,1,4,3:0:0:0:
192,192,42378,1,0,1:0:0:0:
64,192,42378,128,2,42609:3:0:0:0:
320,192,42609,128,0,43302:2:0:0:0:
448,192,42609,1,4,3:0:0:0:
64,192,43071,1,4,3:0:0:0:
192,192,43302,128,2,43532:3:0:0:0:
448,192,43302,1,0,1:0:0:0:
64,192,43532,1,4,3:0:0:0:
320,192,43532,128,0,44225:2:0:0:0:
448,192,43994,1,4,3:0:0:0:
192,192,44225,128,2,44455:3:0:0:0:
64,192,44225,1,0,1:0:0:0:
320,192,44455,1,4,3:0:0:0:
448,192,44455,128,0,45148:2:0:0:0:
192,192,44686,1,4,3:0:0:0:
192,192,44917,1,4,3:0:0:0:
64,192,45148,1,2,3:0:0:0:
320,192,45148,1,0,1:0:0:0:
448,192,45378,1,0,3:0:0:0:
320,192,45494,1,4,3:0:0:0:
192,192,45609,1,4,3:0:0:0:
64,192,45609,128,0,46071:2:0:0:0:
192,192,45840,1,4,3:0:0:0:
448,192,46071,1,0,1:0:0:0:
192,192,46071,128,0,46532:2:0:0:0:
320,192,46532,1,4,3:0:0:0:
448,192,46532,128,0,46994:2:0:0:0:
192,192,46763,1,4,3:0:0:0:
64,192,46994,128,2,47455:3:0:0:0:
320,192,46994,1,0,1:0:0:0:
192,192,47455,1,4,3:0:0:0:
320,192,47455,128,0,47917:2:0:0:0:
192,192,47686,1,4,3:0:0:0:
448,192,47917,128,2,48378:3:0:0:0:
64,192,47917,1,0,1:0:0:0:
320,192,48263,1,0,3:0:0:0:
192,192,48378,1,4,3:0:0:0:
64,192,48378,128,0,48840:2:0:0:0:
192,192,48609,1,4,3:0:0:0:
448,192,48840,1,0,1:0:0:0:
320,192,48840,128,2,49302:3:0:0:0:
64,192,49302,128,0,49763:2:0:0:0:
192,192,49302,1,4,3:0:0:0:
192,192,49532,1,4,3:0:0:0:
192,192,49763,128,2,50225:3:0:0:0:
448,192,49763,1,0,1:0:0:0:
320,192,50225,128,0,50686:2:0:0:0:
64,192,50225,1,4,3:0:0:0:
64,192,50455,1,4,3:0:0:0:
448,192,50686,1,0,1:0:0:0:
64,192,50686,128,2,51148:3:0:0:0:
320,192,50917,1,0,2:0:0:0:
448,192,51148,128,0,51609:2:0:0:0:
192,192,51148,1,4,3:0:0:0:
192,192,51378,1,4,3:0:0:0:
320,192,51609,128,2,52071:3:0:0:0:
64,192,51609,1,0,1:0:0:0:
192,192,51840,1,0,2:0:0:0:
448,192,51955,1,0,2:0:0:0:
64,192,52071,128,0,52532:2:0:0:0:
192,192,52071,1,4,3:0:0:0:
448,192,52186,1,2,3:0:0:0:
192,192,52302,1,4,3:0:0:0:
320,192,52532,128,2,52994:3:0:0:0:
448,192,52532,1,0,1:0:0:0:
192,192,52994,1,4,3:0:0:0:
64,192,53225,1,4,3:0:0:0:
192,192,53455,1,2,3:0:0:0:
448,192,53455,1,0,1:0:0:0:
64,192,53686,1,4,3:0:0:0:
320,192,53802,1,0,3:0:0:0:
192,192,53917,1,4,3:0:0:0:
320,192,54148,1,4,3:0:0:0:
192,192,54378,1,0,1:0:0:0:
448,192,54378,1,2,3:0:0:0:
64,192,54609,1,4,3:0:0:0:
320,192,54840,1,4,3:0:0:0:
320,192,55071,1,4,3:0:0:0:
64,192,55302,1,0,1:0:0:0:
448,192,55302,1,2,3:0:0:0:
192,192,55532,1,4,3:0:0:0:
448,192,55648,1,2,3:0:0:0:
192,192,55763,1,4,3:0:0:0:
64,192,55878,1,8,3:0:0:0:
320,192,55994,1,4,3:0:0:0:
64,192,56109,1,2,3:0:0:0:
320,192,56225,1,2,3:0:0:0:
192,192,56340,1,0,3:0:0:0:
448,192,56455,1,4,3:0:0:0:
64,192,56686,128,0,56917:2:0:0:0:
192,192,56917,128,0,57148:2:0:0:0:
320,192,57148,128,0,57378:2:0:0:0:
448,192,57378,128,0,57840:2:0:0:0:
320,192,57840,128,0,58302:2:0:0:0:
192,192,58302,128,0,58532:2:0:0:0:
64,192,58532,1,2,2:0:0:0:
192,192,58763,1,0,2:0:0:0:
448,192,58994,1,2,2:0:0:0:
64,192,59225,1,0,2:0:0:0:
320,192,59455,1,0,2:0:0:0:
192,192,59455,128,0,60378:2:0:0:0:
64,192,60378,1,0,1:0:0:0:
320,192,60378,1,2,3:0:0:0:
448,192,60378,1,4,2:0:0:0:
192,192,60725,1,4,3:0:0:0:
320,192,60840,1,2,3:0:0:0:
448,192,60840,1,0,2:0:0:0:
320,192,61071,1,0,2:0:0:0:
192,192,61186,1,0,2:0:0:0:
448,192,61302,1,4,3:0:0:0:
192,192,61532,1,4,3:0:0:0:
320,192,61763,1,0,1:0:0:0:
64,192,61763,1,2,3:0:0:0:
192,192,61994,1,4,3:0:0:0:
320,192,62109,1,0,3:0:0:0:
448,192,62225,1,2,3:0:0:0:
64,192,62225,1,0,0:0:0:0:
448,192,62571,1,0,3:0:0:0:
192,192,62686,1,0,1:0:0:0:
64,192,62686,1,2,3:0:0:0:
192,192,62917,1,4,3:0:0:0:
448,192,63032,1,0,3:0:0:0:
64,192,63148,1,4,3:0:0:0:
192,192,63378,1,4,3:0:0:0:
192,192,63609,1,2,3:0:0:0:
448,192,63609,1,0,1:0:0:0:
320,192,63955,1,0,2:0:0:0:
448,192,64071,1,4,3:0:0:0:
64,192,64071,1,0,1:0:0:0:
192,192,64417,1,0,3:0:0:0:
320,192,64532,1,0,1:0:0:0:
448,192,64532,1,2,3:0:0:0:
64,192,64763,1,4,3:0:0:0:
320,192,64878,1,0,3:0:0:0:
192,192,64994,1,4,3:0:0:0:
448,192,65109,1,0,3:0:0:0:
320,192,65225,1,4,3:0:0:0:
192,192,65455,1,0,1:0:0:0:
64,192,65455,1,2,3:0:0:0:
320,192,65686,1,4,3:0:0:0:
192,192,65802,1,0,3:0:0:0:
448,192,65917,1,4,3:0:0:0:
320,192,65917,1,0,1:0:0:0:
64,192,66263,1,0,3:0:0:0:
320,192,66378,1,2,3:0:0:0:
448,192,66378,1,0,1:0:0:0:
320,192,66609,1,4,3:0:0:0:
64,192,66725,1,0,2:0:0:0:
448,192,66840,1,4,3:0:0:0:
192,192,66955,1,0,3:0:0:0:
320,192,67071,1,4,3:0:0:0:
64,192,67302,1,2,3:0:0:0:
192,192,67302,1,0,1:0:0:0:
448,192,67417,1,0,3:0:0:0:
192,192,67532,1,4,3:0:0:0:
320,192,67648,1,0,2:0:0:0:
192,192,67763,1,0,3:0:0:0:
64,192,67763,1,4,2:0:0:0:
448,192,67763,1,4,3:0:0:0:
64,192,68109,1,0,3:0:0:0:
448,192,68225,1,0,1:0:0:0:
320,192,68225,1,2,3:0:0:0:
448,192,68455,1,4,3:0:0:0:
64,192,68571,1,0,3:0:0:0:
320,192,68686,1,4,3:0:0:0:
192,192,68802,1,0,2:0:0:0:
320,192,68917,1,4,3:0:0:0:
64,192,69148,1,0,1:0:0:0:
448,192,69148,1,2,3:0:0:0:
320,192,69378,1,4,3:0:0:0:
64,192,69494,1,0,3:0:0:0:
320,192,69609,1,4,3:0:0:0:
448,192,69609,1,0,1:0:0:0:
64,192,69725,1,0,3:0:0:0:
192,192,69840,1,2,3:0:0:0:
320,192,69955,1,0,3:0:0:0:
192,192,70071,1,2,3:0:0:0:
64,192,70071,1,0,1:0:0:0:
64,192,70302,1,4,3:0:0:0:
192,192,70417,1,0,3:0:0:0:
320,192,70532,1,4,3:0:0:0:
64,192,70648,1,0,3:0:0:0:
448,192,70763,1,4,3:0:0:0:
192,192,70878,1,0,3:0:0:0:
448,192,70994,1,0,1:0:0:0:
320,192,70994,1,2,3:0:0:0:
320,192,71225,1,4,3:0:0:0:
192,192,71340,1,0,3:0:0:0:
448,192,71455,1,4,3:0:0:0:
64,192,71455,128,0,72840:2:0:0:0:
192,192,71802,1,0,3:0:0:0:
448,192,71917,1,0,1:0:0:0:
320,192,71917,1,2,3:0:0:0:
320,192,72148,1,4,3:0:0:0:
448,192,72263,1,0,2:0:0:0:
320,192,72378,1,4,3:0:0:0:
192,192,72494,1,0,2:0:0:0:
320,192,72609,1,0,2:0:0:0:
448,192,72725,1,2,3:0:0:0:
320,192,72840,1,2,3:0:0:0:
192,192,72955,1,0,2:0:0:0:
320,192,73071,1,4,3:0:0:0:
448,192,73186,1,2,3:0:0:0:
320,192,73302,1,4,3:0:0:0:
64,192,73302,1,4,3:0:0:0:
192,192,73302,1,2,2:0:0:0:
448,192,73763,1,2,2:0:0:0:
320,192,73763,1,4,3:0:0:0:
192,192,73763,1,4,3:0:0:0:
192,192,74225,1,4,3:0:0:0:
320,192,74225,1,4,3:0:0:0:
64,192,74225,1,2,2:0:0:0:
192,192,74686,1,4,3:0:0:0:
320,192,74686,1,4,3:0:0:0:
448,192,74686,1,2,2:0:0:0:
448,192,75148,128,0,76071:2:0:0:0:
64,192,75148,1,4,3:0:0:0:
320,192,75148,1,4,3:0:0:0:
64,192,75378,1,4,3:0:0:0:
192,192,75609,1,2,3:0:0:0:
320,192,75609,1,0,1:0:0:0:
64,192,75955,1,0,3:0:0:0:
320,192,76071,128,0,76994:2:0:0:0:
192,192,76071,1,4,3:0:0:0:
448,192,76302,1,4,3:0:0:0:
192,192,76532,1,2,3:0:0:0:
64,192,76532,1,0,1:0:0:0:
64,192,76878,1,0,3:0:0:0:
192,192,76994,128,0,77455:2:0:0:0:
448,192,76994,1,4,3:0:0:0:
320,192,77225,1,4,3:0:0:0:
448,192,77455,1,0,1:0:0:0:
64,192,77455,128,2,77917:3:0:0:0:
448,192,77802,1,2,3:0:0:0:
192,192,77917,128,0,78378:2:0:0:0:
320,192,77917,1,4,3:0:0:0:
64,192,78148,1,4,3:0:0:0:
320,192,78378,1,2,3:0:0:0:
448,192,78378,1,0,1:0:0:0:
192,192,78725,1,0,0:0:0:0:
64,192,78840,1,2,3:0:0:0:
448,192,78840,1,2,3:0:0:0:
192,192,79071,1,4,3:0:0:0:
64,192,79302,1,2,3:0:0:0:
448,192,79302,1,0,1:0:0:0:
320,192,79648,1,0,3:0:0:0:
192,192,79763,1,2,3:0:0:0:
64,192,79763,1,0,1:0:0:0:
192,192,79994,1,4,3:0:0:0:
448,192,80225,1,0,1:0:0:0:
320,192,80225,1,2,3:0:0:0:
192,192,80571,1,0,3:0:0:0:
448,192,80686,1,4,3:0:0:0:
64,192,80802,1,0,2:0:0:0:
320,192,80917,1,0,2:0:0:0:
192,192,81032,1,0,2:0:0:0:
64,192,81148,1,0,1:0:0:0:
448,192,81148,1,2,3:0:0:0:
320,192,81263,1,0,2:0:0:0:
192,192,81378,1,0,2:0:0:0:
64,192,81494,1,0,2:0:0:0:
192,192,81609,1,0,2:0:0:0:
448,192,81725,1,0,2:0:0:0:
320,192,81840,1,4,3:0:0:0:
64,192,81955,1,2,3:0:0:0:
192,192,82071,1,2,3:0:0:0:
320,192,82186,1,4,3:0:0:0:
448,192,82302,1,2,3:0:0:0:
320,192,82417,1,4,3:0:0:0:
192,192,82532,1,0,2:0:0:0:
64,192,82532,1,2,3:0:0:0:
64,192,82763,1,4,3:0:0:0:
448,192,82994,1,0,1:0:0:0:
192,192,82994,1,2,3:0:0:0:
448,192,83225,1,4,3:0:0:0:
64,192,83340,1,0,3:0:0:0:
320,192,83455,1,4,3:0:0:0:
192,192,83571,1,0,3:0:0:0:
448,192,83686,1,4,3:0:0:0:
192,192,83917,1,0,1:0:0:0:
64,192,83917,1,2,3:0:0:0:
192,192,84148,1,4,3:0:0:0:
320,192,84263,1,0,3:0:0:0:
448,192,84378,1,4,3:0:0:0:
64,192,84378,128,0,84840:2:0:0:0:
448,192,84609,1,4,3:0:0:0:
320,192,84840,1,0,1:0:0:0:
192,192,84840,128,4,85302:3:0:0:0:
64,192,85186,1,0,3:0:0:0:
320,192,85302,128,0,85763:2:0:0:0:
448,192,85302,1,4,3:0:0:0:
192,192,85532,1,4,3:0:0:0:
64,192,85763,1,4,3:0:0:0:
448,192,85763,128,4,86225:1:0:0:0:
192,192,85994,1,4,3:0:0:0:
320,192,86109,1,0,3:0:0:0:
192,192,86225,1,2,3:0:0:0:
64,192,86225,1,2,2:0:0:0:
448,192,86455,1,4,3:0:0:0:
320,192,86686,1,0,2:0:0:0:
192,192,86686,1,2,3:0:0:0:
448,192,86917,1,2,3:0:0:0:
64,192,86917,1,2,2:0:0:0:
192,192,87032,1,0,3:0:0:0:
320,192,87148,1,2,2:0:0:0:
448,192,87225,1,0,3:0:0:0:
320,192,87378,1,0,3:0:0:0:
448,192,87436,1,0,3:0:0:0:
64,192,87494,1,2,3:0:0:0:
192,192,87609,1,4,3:0:0:0:
320,192,87725,1,2,3:0:0:0:
448,192,87840,1,4,1:0:0:0:
64,192,87840,1,2,3:0:0:0:
64,192,88532,1,0,2:0:0:0:
448,192,88763,1,0,2:0:0:0:
