osu file format v14

[General]
AudioFilename: Sekai Wa Koi Ni Ochiteiru.mp3
AudioLeadIn: 0
PreviewTime: 60379
Countdown: 0
SampleSet: Normal
StackLeniency: 0.7
Mode: 3
LetterboxInBreaks: 0
SpecialStyle: 0
WidescreenStoryboard: 0

[Editor]
DistanceSpacing: 0.8
BeatDivisor: 4
GridSize: 8
TimelineZoom: 1.6

[Metadata]
Title:Sekai wa Koi ni Ochiteiru TV size
TitleUnicode:世界は恋に落ちている TV size
Artist:CHiCO with HoneyWorks
ArtistUnicode:CHiCO with HoneyWorks
Creator:kifuera456
Version:EZ
Source:AO--HARU--RIDE
Tags:blue spring ride opening アオハライド.
BeatmapID:558381
BeatmapSetID:241832

[Difficulty]
HPDrainRate:6
CircleSize:4
OverallDifficulty:7
ApproachRate:5
SliderMultiplier:1.4
SliderTickRate:1

[Events]
//Background and Video events
0,0,"ao-haru-ride-episode-2-5.jpg",0,0
//Break Periods
//Storyboard Layer 0 (Background)
//Storyboard Layer 1 (Fail)
//Storyboard Layer 2 (Pass)
//Storyboard Layer 3 (Foreground)
//Storyboard Sound Samples

[TimingPoints]
1302,461.538461538462,4,1,0,15,1,0
16071,-100,4,1,0,23,0,0
60378,-100,4,1,0,30,0,1
75148,-100,4,1,0,25,0,0
88417,-100,4,1,0,15,0,0

[HitObjects]
64,192,1302,5,2,2:0:0:0:
320,192,2686,1,2,2:0:0:0:
192,192,3148,1,2,2:0:0:0:
448,192,4071,1,2,2:0:0:0:
192,192,4994,1,2,2:0:0:0:
320,192,5686,1,2,2:0:0:0:
64,192,5917,1,2,2:0:0:0:
448,192,6378,1,2,2:0:0:0:
192,192,6840,1,2,2:0:0:0:
320,192,7763,1,2,2:0:0:0:
192,192,7994,1,2,2:0:0:0:
64,192,8225,1,2,2:0:0:0:
448,192,8686,1,2,2:0:0:0:
192,192,9609,1,2,2:0:0:0:
320,192,10071,1,2,2:0:0:0:
448,192,10532,1,2,2:0:0:0:
320,192,11455,1,2,2:0:0:0:
192,192,11917,1,2,2:0:0:0:
320,192,12378,128,2,14225:2:0:0:0:
448,192,14225,1,2,2:0:0:0:
192,192,14917,128,0,16071:2:0:0:0:
64,192,16071,128,0,17917:2:0:0:0:
448,192,16071,1,2,2:0:0:0:
192,192,16763,1,2,2:0:0:0:
448,192,17455,1,2,2:0:0:0:
192,192,17917,128,0,18609:2:0:0:0:
320,192,17917,1,2,3:2:0:0:
64,192,18609,128,0,19302:2:0:0:0:
448,192,18609,1,2,3:2:0:0:
320,192,19302,1,2,1:2:0:0:
448,192,19302,128,0,19763:2:0:0:0:
192,192,19763,128,0,20455:2:0:0:0:
64,192,19763,1,2,3:2:0:0:
320,192,20455,128,0,21148:2:0:0:0:
64,192,20455,1,2,3:2:0:0:
448,192,21148,128,0,21609:2:0:0:0:
192,192,21148,1,2,2:0:0:0:
320,192,21609,128,0,22302:2:0:0:0:
64,192,21609,1,2,2:0:0:0:
64,192,22302,128,0,23455:2:0:0:0:
448,192,22302,1,2,2:0:0:0:
448,192,22994,1,4,3:0:0:0:
320,192,23455,1,4,3:0:0:0:
192,192,23686,1,4,3:0:0:0:
448,192,23917,1,0,1:0:0:0:
320,192,23917,1,2,3:0:0:0:
192,192,24609,1,4,3:0:0:0:
320,192,24840,1,0,1:0:0:0:
448,192,24840,1,2,3:0:0:0:
192,192,25302,1,4,3:0:0:0:
320,192,25532,1,4,3:0:0:0:
192,192,25763,1,2,3:0:0:0:
64,192,25763,1,0,1:0:0:0:
320,192,26455,1,4,3:0:0:0:
64,192,26686,1,0,1:0:0:0:
192,192,26686,1,2,3:0:0:0:
448,192,27148,1,4,3:0:0:0:
192,192,27378,128,0,27609:2:0:0:0:
448,192,27609,128,0,28071:2:0:0:0:
320,192,28071,128,0,28302:2:0:0:0:
64,192,28302,128,0,28763:2:0:0:0:
192,192,28763,128,0,28994:2:0:0:0:
448,192,28994,128,0,29455:2:0:0:0:
320,192,29455,128,0,29686:2:0:0:0:
64,192,29686,128,0,30148:2:0:0:0:
448,192,30148,128,0,30378:2:0:0:0:
192,192,30378,128,0,32686:2:0:0:0:
320,192,30840,1,4,3:0:0:0:
64,192,31071,1,4,3:0:0:0:
320,192,31302,1,2,3:0:0:0:
448,192,31302,1,0,1:0:0:0:
64,192,31994,1,4,3:0:0:0:
320,192,32225,1,2,3:0:0:0:
448,192,32225,1,0,1:0:0:0:
448,192,32686,1,4,3:0:0:0:
320,192,32917,1,4,3:0:0:0:
64,192,33148,1,0,1:0:0:0:
192,192,33148,1,2,3:0:0:0:
320,192,33840,1,4,3:0:0:0:
64,192,34071,1,0,1:0:0:0:
192,192,34071,1,2,3:0:0:0:
64,192,34532,128,0,35225:2:0:0:0:
320,192,34532,1,2,2:0:0:0:
448,192,35225,128,0,35917:2:0:0:0:
192,192,35225,1,2,2:0:0:0:
64,192,35917,1,0,1:0:0:0:
192,192,36378,1,4,3:0:0:0:
320,192,36609,1,4,3:0:0:0:
192,192,36840,1,0,1:0:0:0:
64,192,36840,1,2,3:0:0:0:
320,192,37417,1,4,3:0:0:0:
192,192,37532,1,4,3:0:0:0:
448,192,37763,1,0,1:0:0:0:
320,192,37763,1,2,3:0:0:0:
192,192,38225,1,4,3:0:0:0:
320,192,38455,1,4,3:0:0:0:
64,192,38686,1,0,1:0:0:0:
448,192,38686,1,2,3:0:0:0:
320,192,39378,1,4,3:0:0:0:
192,192,39609,1,0,1:0:0:0:
64,192,39609,1,2,3:0:0:0:
192,192,40071,1,4,3:0:0:0:
320,192,40302,1,4,3:0:0:0:
64,192,40532,1,0,1:0:0:0:
448,192,40532,1,2,3:0:0:0:
192,192,41225,1,4,3:0:0:0:
448,192,41455,1,0,1:0:0:0:
320,192,41455,1,2,3:0:0:0:
192,192,41917,1,4,3:0:0:0:
320,192,42148,1,4,3:0:0:0:
192,192,42378,128,2,42609:3:0:0:0:
448,192,42609,128,0,43302:2:0:0:0:
64,192,43302,128,2,43532:3:0:0:0:
192,192,43532,128,0,44225:2:0:0:0:
448,192,44225,128,2,44455:3:0:0:0:
320,192,44455,128,0,45609:2:0:0:0:
64,192,45609,128,0,46071:2:0:0:0:
448,192,45609,1,4,3:0:0:0:
192,192,46071,128,0,46532:2:0:0:0:
320,192,46532,128,0,46994:2:0:0:0:
192,192,46994,128,0,47455:2:0:0:0:
320,192,47455,128,0,47917:2:0:0:0:
448,192,47917,128,0,48378:2:0:0:0:
320,192,48378,1,0,2:0:0:0:
64,192,48609,1,0,2:0:0:0:
192,192,48840,1,0,2:0:0:0:
320,192,48840,1,2,3:0:0:0:
448,192,49071,1,0,2:0:0:0:
320,192,49302,128,0,49763:2:0:0:0:
64,192,49763,128,0,50225:2:0:0:0:
192,192,50225,128,0,50686:2:0:0:0:
448,192,50686,128,0,51148:2:0:0:0:
320,192,51148,128,0,51609:2:0:0:0:
64,192,51609,128,0,52071:2:0:0:0:
192,192,52071,1,0,2:0:0:0:
320,192,52302,1,0,2:0:0:0:
64,192,52532,1,0,2:0:0:0:
448,192,52532,1,2,3:0:0:0:
192,192,52763,1,0,2:0:0:0:
448,192,52994,128,0,53455:2:0:0:0:
64,192,53455,128,0,53917:2:0:0:0:
320,192,53917,128,0,54378:2:0:0:0:
192,192,54378,128,0,54840:2:0:0:0:
448,192,54840,128,0,55302:2:0:0:0:
64,192,55302,128,0,55763:2:0:0:0:
320,192,55763,128,0,56225:2:0:0:0:
192,192,56225,128,0,56686:2:0:0:0:
64,192,56686,128,2,58532:2:0:0:0:
320,192,58532,1,2,2:0:0:0:
192,192,58763,1,0,2:0:0:0:
448,192,58994,1,2,2:0:0:0:
64,192,59225,1,0,2:0:0:0:
320,192,59455,1,0,2:0:0:0:
448,192,60378,1,2,3:0:0:0:
64,192,60378,1,6,3:0:0:0:
320,192,60725,1,2,3:0:0:0:
192,192,60840,1,0,1:0:0:0:
64,192,60840,1,2,3:0:0:0:
320,192,61071,1,0,3:0:0:0:
192,192,61532,1,4,3:0:0:0:
64,192,61763,1,0,1:0:0:0:
448,192,61763,1,2,3:0:0:0:
192,192,62225,1,4,3:0:0:0:
192,192,62571,1,0,3:0:0:0:
320,192,62686,1,0,1:0:0:0:
448,192,62686,1,2,3:0:0:0:
192,192,62917,1,4,3:0:0:0:
320,192,63378,1,4,3:0:0:0:
448,192,63609,1,0,1:0:0:0:
64,192,63609,1,2,3:0:0:0:
320,192,64071,1,4,3:0:0:0:
192,192,64417,1,0,3:0:0:0:
448,192,64532,1,0,1:0:0:0:
320,192,64532,1,2,3:0:0:0:
64,192,64763,1,4,3:0:0:0:
320,192,64994,1,4,3:0:0:0:
192,192,65225,1,4,3:0:0:0:
448,192,65455,1,0,1:0:0:0:
320,192,65455,1,2,3:0:0:0:
64,192,65686,1,4,3:0:0:0:
320,192,65917,1,4,3:0:0:0:
192,192,66263,1,4,3:0:0:0:
448,192,66378,1,0,1:0:0:0:
320,192,66378,1,2,3:0:0:0:
192,192,66609,1,4,3:0:0:0:
64,192,66840,1,4,3:0:0:0:
320,192,67071,1,4,3:0:0:0:
192,192,67302,1,0,1:0:0:0:
64,192,67302,1,2,3:0:0:0:
64,192,67763,1,4,3:0:0:0:
448,192,67763,1,0,1:0:0:0:
192,192,68109,1,0,3:0:0:0:
320,192,68225,1,2,3:0:0:0:
448,192,68225,1,0,1:0:0:0:
192,192,68455,1,4,3:0:0:0:
320,192,68917,1,4,3:0:0:0:
192,192,69148,1,0,1:0:0:0:
64,192,69148,1,4,3:0:0:0:
320,192,69609,1,4,3:0:0:0:
192,192,69955,1,0,3:0:0:0:
320,192,70071,1,0,1:0:0:0:
448,192,70071,1,4,3:0:0:0:
192,192,70302,1,4,3:0:0:0:
320,192,70532,1,4,3:0:0:0:
64,192,70763,1,4,3:0:0:0:
448,192,70994,1,0,1:0:0:0:
320,192,70994,128,0,71455:2:0:0:0:
192,192,71455,128,0,72840:0:0:0:0:
64,192,71455,1,4,3:0:0:0:
448,192,71917,1,2,2:0:0:0:
64,192,72378,1,4,3:0:0:0:
320,192,72840,1,2,2:0:0:0:
448,192,73302,1,2,2:0:0:0:
64,192,73302,1,4,3:0:0:0:
192,192,73763,1,2,2:0:0:0:
320,192,73763,1,4,3:0:0:0:
64,192,74225,1,4,3:0:0:0:
192,192,74225,1,2,2:0:0:0:
448,192,74686,1,4,3:0:0:0:
320,192,74686,1,2,2:0:0:0:
192,192,75148,1,4,3:0:0:0:
448,192,75378,1,4,3:0:0:0:
64,192,75609,1,0,1:0:0:0:
320,192,75609,1,2,3:0:0:0:
192,192,76071,1,4,1:0:0:0:
448,192,76302,1,4,1:0:0:0:
64,192,76532,1,0,1:0:0:0:
320,192,76532,1,2,3:0:0:0:
448,192,76994,1,4,3:0:0:0:
320,192,77225,1,4,3:0:0:0:
64,192,77455,1,0,1:0:0:0:
192,192,77455,1,2,3:0:0:0:
448,192,77917,1,4,3:0:0:0:
320,192,78148,1,4,3:0:0:0:
192,192,78378,1,2,3:0:0:0:
64,192,78378,1,0,1:0:0:0:
320,192,78840,1,4,3:0:0:0:
64,192,79071,1,4,3:0:0:0:
192,192,79302,1,2,3:0:0:0:
448,192,79302,1,0,1:0:0:0:
320,192,79763,1,4,3:0:0:0:
64,192,79994,1,4,3:0:0:0:
448,192,80225,1,0,1:0:0:0:
192,192,80225,1,2,3:0:0:0:
320,192,80686,1,4,3:0:0:0:
448,192,80917,1,4,3:0:0:0:
64,192,81148,1,0,1:0:0:0:
192,192,81148,1,2,3:0:0:0:
64,192,81609,128,0,82071:2:0:0:0:
320,192,81609,1,4,3:0:0:0:
192,192,82071,128,0,82532:2:0:0:0:
448,192,82071,1,4,3:0:0:0:
320,192,82532,1,4,3:0:0:0:
64,192,82763,1,4,3:0:0:0:
448,192,82994,1,2,3:0:0:0:
320,192,82994,1,0,1:0:0:0:
192,192,83455,1,4,3:0:0:0:
448,192,83686,1,4,3:0:0:0:
192,192,83917,1,0,1:0:0:0:
64,192,83917,1,2,3:0:0:0:
320,192,84378,1,4,3:0:0:0:
192,192,84609,1,4,3:0:0:0:
448,192,84840,1,0,1:0:0:0:
320,192,84840,1,2,3:0:0:0:
192,192,85302,1,4,3:0:0:0:
320,192,85532,1,4,3:0:0:0:
64,192,85763,1,2,3:0:0:0:
192,192,85763,1,0,1:0:0:0:
320,192,86225,1,4,3:0:0:0:
448,192,86455,1,4,3:0:0:0:
64,192,86686,1,0,1:0:0:0:
192,192,86686,1,2,3:0:0:0:
320,192,86917,1,4,3:0:0:0:
192,192,87148,1,4,3:0:0:0:
448,192,87378,1,4,3:0:0:0:
64,192,87609,1,4,3:0:0:0:
448,192,87840,1,0,1:0:0:0:
320,192,87840,1,4,2:0:0:0:
448,192,88532,1,0,2:0:0:0:
64,192,88763,1,0,2:0:0:0:
