osu file format v13

[General]
AudioFilename: .mp3
AudioLeadIn: 1500
PreviewTime: 59648
Countdown: 0
SampleSet: Soft
StackLeniency: 0.3
Mode: 0
LetterboxInBreaks: 0
WidescreenStoryboard: 0

[Editor]
DistanceSpacing: 1.6
BeatDivisor: 4
GridSize: 8
TimelineZoom: 1.4

[Metadata]
Title:Sekai wa Koi ni Ochiteiru TV size
TitleUnicode:世界は恋に落ちている TV size
Artist:CHiCO with HoneyWorks
ArtistUnicode:CHiCO with HoneyWorks
Creator:No_Gu
Version:Insane
Source:AO-HARU-RIDE
Tags:アオハライド Azure Kotone Karenying Oyatsu
BeatmapID:461600
BeatmapSetID:194368

[Difficulty]
HPDrainRate:8
CircleSize:4
OverallDifficulty:8
ApproachRate:8.5
SliderMultiplier:1.6
SliderTickRate:1

[Events]
//Background and Video events
0,0,"AO.png",0,0
Video,-213,"video.avi"
//Break Periods
//Storyboard Layer 0 (Background)
//Storyboard Layer 1 (Fail)
//Storyboard Layer 2 (Pass)
//Storyboard Layer 3 (Foreground)
//Storyboard Sound Samples
//Background Colour Transformations
3,100,163,162,255

[TimingPoints]
585,461.538461538462,4,2,1,50,1,0
585,-117.647058823529,4,2,1,50,0,0
6815,-117.647058823529,4,1,1,20,0,0
7046,-117.647058823529,4,2,1,50,0,0
7508,-117.647058823529,4,2,1,25,0,0
7969,-117.647058823529,4,2,1,50,0,0
11661,-117.647058823529,4,2,1,20,0,0
13508,-117.647058823529,4,2,1,50,0,0
14431,-200,4,2,1,50,0,0
14546,-200,4,2,1,5,0,0
14892,-80,4,2,1,50,0,0
15008,-80,4,2,1,5,0,0
15354,-90.9090909090909,4,2,1,70,0,0
26200,-90.9090909090909,4,1,1,30,0,0
26431,-90.9090909090909,4,2,1,70,0,0
29892,-90.9090909090909,4,1,1,30,0,0
30123,-90.9090909090909,4,2,1,70,0,0
52046,-90.9090909090909,4,1,1,30,0,0
52277,-90.9090909090909,4,2,1,70,0,0
55046,451.127819548872,4,2,1,70,1,0
55271,441.176470588235,4,2,1,70,1,0
55491,431.654676258993,4,2,1,70,1,0
55706,526.315789473684,4,2,1,50,1,0
55969,461.538461538462,4,2,1,50,1,0
55969,-117.647058823529,4,2,1,50,0,0
59648,461.538461538462,4,2,1,70,1,1
59648,-90.9090909090909,4,2,1,70,0,1
72801,-90.9090909090909,4,2,1,35,0,1
73032,-90.9090909090909,4,2,1,70,0,1
73378,-90.9090909090909,4,2,1,20,0,1
73494,-90.9090909090909,4,2,1,70,0,1
74301,-90.9090909090909,4,2,1,70,0,0
74417,-90.9090909090909,4,2,1,70,0,1
87109,-90.9090909090909,4,2,1,70,0,0
87224,-90.9090909090909,4,2,1,5,0,0

[Colours]
Combo1 : 255,228,149
Combo2 : 118,172,199
Combo3 : 250,156,170
Combo4 : 133,192,141

[HitObjects]
96,80,585,5,2,0:0:0:0:
96,80,1046,1,0,0:0:0:0:
112,96,1969,1,2,0:0:0:0:
112,96,2431,5,2,0:0:0:0:
192,38,2892,1,0,0:0:0:0:
208,136,3354,1,2,0:0:0:0:
224,152,4277,6,0,L|360:144,1,136.000002593994,2|0,0:0|0:0,0:0:0:0:
440,200,4969,1,0,0:0:0:0:
344,367,5200,2,0,P|367:305|346:242,1,136.000002593994,2|0,0:0|0:0,0:0:0:0:
152,144,6123,5,2,0:0:0:0:
152,360,6585,1,0,0:0:0:0:
288,128,6815,2,0,L|280:96,2,22.666667098999,0|0|0,0:0|0:0|0:0,0:0:0:0:
320,152,7046,2,0,L|312:224,1,68.0000012969971,2|0,0:0|0:0,0:0:0:0:
296,320,7508,1,2,0:0:0:0:
296,320,7969,5,2,0:0:0:0:
192,336,8431,1,0,0:0:0:0:
336,200,8892,1,2,0:0:0:0:
270,117,9354,1,0,0:0:0:0:
456,184,9815,5,2,0:0:0:0:
494,85,10277,1,0,0:0:0:0:
408,296,10738,1,2,0:0:0:0:
256,192,11661,12,2,13508,0:0:0:0:
144,64,14431,6,0,L|136:136,1,60,0|0,0:0|0:0,0:0:0:0:
176,192,14892,2,0,P|232:216|320:192,1,150,2|0,0:0|0:0,0:0:0:0:
408,136,15354,6,0,L|400:272,1,132.00000402832,4|0,3:2|3:0,0:0:0:0:
456,328,15815,1,8,1:0:0:0:
288,248,16046,1,0,3:2:0:0:
232,200,16161,2,0,P|184:192|144:200,1,88.000002685547,8|8,0:0|0:0,0:0:0:0:
88,248,16508,2,0,P|40:256|0:248,1,88.000002685547,0|8,3:0|1:0,0:0:0:0:
272,24,16969,1,0,3:0:0:0:
297,59,17084,1,8,0:0:0:0:
304,102,17199,5,0,3:2:0:0:
291,144,17315,2,0,P|256:176|216:184,1,88.000002685547,8|0,0:0|3:2,0:0:0:0:
136,168,17661,1,8,1:0:0:0:
296,344,17892,1,0,3:0:0:0:
359,294,18008,2,8,L|455:302,1,88.000002685547,8|8,0:0|0:0,0:0:0:0:
504,240,18354,2,0,P|512:200|504:152,1,88.000002685547,0|8,3:0|1:0,0:0:0:0:
320,48,18815,1,0,0:0:0:0:
320,48,18931,1,8,0:0:0:0:
320,48,19046,6,0,L|248:40,1,44.0000013427735,0|8,3:0|0:0,0:0:0:0:
288,346,19392,2,0,L|351:310,1,44.0000013427735,0|8,3:0|1:0,0:0:0:0:
138,86,19738,2,0,L|108:152,1,44.0000013427735,0|8,3:0|0:0,0:0:0:0:
412,208,20085,2,0,L|398:137,1,44.0000013427735,8|0,0:0|3:0,0:0:0:0:
119,270,20431,1,8,1:0:0:0:
256,192,20661,1,0,0:0:0:0:
256,192,20777,1,8,0:0:0:0:
256,192,20892,6,0,L|320:200,1,44.0000013427735,0|8,3:0|0:0,0:0:0:0:
440,336,21238,2,0,L|376:328,1,44.0000013427735,0|8,0:0|1:0,0:0:0:0:
168,144,21585,2,0,L|160:176,2,29.3333342285157,0|8|0,3:0|0:0|0:0,0:0:0:0:
232,96,21815,2,0,L|219:48,1,44.0000013427735,4|0,0:3|0:0,0:0:0:0:
320,96,22046,2,0,L|333:48,1,44.0000013427735,0|8,0:0|0:0,0:0:0:0:
400,142,22277,2,0,L|435:107,1,44.0000013427735,8|0,0:0|0:0,3:0:0:0:
451,215,22508,2,0,L|499:202,1,44.0000013427735,4|0,0:3|3:0,3:0:0:0:
384,328,22738,6,0,P|336:336|288:320,1,88.000002685547,4|0,3:2|3:0,0:0:0:0:
248,264,23085,1,0,2:0:0:0:
248,264,23200,2,0,L|256:176,1,88.000002685547,8|0,1:0|2:0,0:0:0:0:
176,144,23546,2,8,L|168:232,1,88.000002685547,8|8,2:0|2:0,0:0:0:0:
160,312,23892,1,0,3:0:0:0:
328,240,24123,1,8,1:0:0:0:
480,336,24354,1,0,0:0:0:0:
480,336,24470,1,0,0:0:0:0:
480,336,24585,6,0,P|432:344|384:336,1,88.000002685547,0|0,3:0|3:0,0:0:0:0:
216,320,25046,2,0,P|168:312|120:320,1,88.000002685547,8|0,1:0|0:0,0:0:0:0:
56,280,25392,1,8,0:0:0:0:
40,200,25508,2,0,L|48:152,2,44.0000013427735,0|8|0,0:0|0:0|3:0,0:0:0:0:
16,368,25969,1,8,1:0:0:0:
176,296,26200,2,0,L|144:288,2,29.3333342285157,0|0|0,0:0|0:0|0:0,0:0:0:0:
208,304,26431,6,0,P|256:304|296:288,1,88.000002685547,0|0,3:0|3:0,0:0:0:0:
384,168,26892,1,8,1:0:0:0:
280,48,27123,1,0,0:0:0:0:
272,80,27238,1,8,0:0:0:0:
192,248,27469,1,8,0:0:0:0:
184,216,27584,1,0,3:0:0:0:
16,168,27815,1,8,1:0:0:0:
56,336,28046,1,0,0:0:0:0:
56,336,28161,1,8,0:0:0:0:
56,336,28277,6,0,P|104:344|152:336,1,88.000002685547,0|0,3:0|3:0,0:0:0:0:
296,256,28738,2,0,P|344:248|392:256,1,88.000002685547,8|0,1:0|0:0,0:0:0:0:
464,280,29085,2,8,L|456:192,1,88.000002685547
408,128,29431,2,8,L|416:40,1,88.000002685547,0|8,3:0|1:0,0:0:0:0:
168,80,29892,2,0,L|136:72,2,29.3333342285157,0|0|0,0:0|0:0|0:0,0:0:0:0:
200,104,30123,6,0,P|208:144|200:192,1,88.000002685547,0|0,3:0|3:0,0:0:0:0:
104,248,30585,1,8,1:0:0:0:
96,144,30815,2,0,L|40:152,1,44.0000013427735,0|8,0:0|0:0,0:0:0:0:
280,240,31161,2,0,L|336:232,1,44.0000013427735,8|0,0:0|3:0,0:0:0:0:
432,280,31508,1,8,1:0:0:0:
488,80,31738,1,0,0:0:0:0:
488,80,31854,1,8,0:0:0:0:
488,80,31969,6,0,P|440:64|400:72,1,88.000002685547,0|0,3:0|3:0,0:0:0:0:
288,200,32431,1,8,1:0:0:0:
128,136,32661,1,0,0:0:0:0:
129,103,32776,1,8,0:0:0:0:
131,70,32891,1,0,0:0:0:0:
133,37,33007,1,8,0:0:0:0:
135,4,33122,1,0,3:0:0:0:
32,176,33354,1,8,1:0:0:0:
208,264,33585,1,0,0:0:0:0:
208,264,33700,1,8,0:0:0:0:
208,264,33815,6,0,P|256:272|296:256,1,88.000002685547,0|0,3:0|3:0,0:0:0:0:
400,136,34277,1,8,1:0:0:0:
240,96,34508,1,0,0:0:0:0:
240,96,34623,1,8,0:0:0:0:
408,256,34854,1,8,0:0:0:0:
408,256,34969,2,0,L|464:248,1,44.0000013427735
480,224,35200,1,8,1:0:0:0:
499,184,35315,1,0,0:0:0:0:
503,141,35430,1,0,0:0:0:0:
491,99,35546,1,8,0:0:0:0:
464,64,35661,5,0,3:0:0:0:
328,160,35892,1,0,3:0:0:0:
176,104,36123,2,0,P|168:56|176:16,1,88.000002685547,8|0,1:0|0:0,0:0:0:0:
192,184,36469,2,8,P|200:232|192:272,1,88.000002685547
128,320,36815,2,0,L|40:328,1,88.000002685547,0|8,3:0|1:0,0:0:0:0:
280,264,37277,1,0,0:0:0:0:
280,264,37392,1,8,0:0:0:0:
280,264,37508,6,0,P|328:264|368:288,1,88.000002685547,4|0,3:2|3:0,0:0:0:0:
480,216,37969,2,0,P|503:279|487:342,1,132.00000402832,8|8,1:0|0:0,0:0:0:0:
416,360,38431,1,0,0:0:0:0:
344,344,38546,2,0,L|296:352,1,44.0000013427735,8|0,0:0|3:0,0:0:0:0:
352,192,38892,1,8,1:0:0:0:
184,216,39123,1,0,0:0:0:0:
184,216,39238,1,8,0:0:0:0:
184,216,39354,6,0,P|176:264|192:304,1,88.000002685547,0|0,3:0|3:0,0:0:0:0:
256,128,39815,2,8,L|120:120,1,132.00000402832,8|8,1:0|0:0,0:0:0:0:
8,280,40392,1,8,0:0:0:0:
8,280,40508,1,0,3:0:0:0:
200,320,40738,1,8,1:0:0:0:
24,168,40969,1,8,0:0:0:0:
24,168,41085,1,8,0:0:0:0:
24,168,41200,6,0,P|16:120|24:72,1,88.000002685547,4|0,3:2|3:0,0:0:0:0:
272,32,41661,2,0,P|280:80|272:128,1,88.000002685547,8|0,1:0|0:0,0:0:0:0:
208,160,42008,1,8,0:0:0:0:
144,120,42123,2,0,L|72:128,2,44.0000013427735,0|8|0,0:0|0:0|3:0,0:0:0:0:
288,224,42585,2,0,L|402:211,1,88.000002685547,8|0,1:0|0:0,0:0:0:0:
448,240,42931,1,8,0:0:0:0:
504,192,43046,6,0,L|512:144,2,44.0000013427735,0|8|0,0:0|0:0|3:0,0:0:0:0:
408,336,43508,1,8,1:0:0:0:
272,240,43738,1,0,0:0:0:0:
228,218,43853,1,8,0:0:0:0:
180,214,43968,1,0,3:0:0:0:
134,227,44084,1,8,0:0:0:0:
96,257,44199,1,0,3:0:0:0:
200,328,44431,1,8,1:0:0:0:
312,160,44661,1,8,1:0:0:0:
312,160,44777,1,8,1:0:0:0:
312,160,44892,6,0,P|320:120|312:72,1,88.000002685547,4|0,3:2|3:0,0:0:0:0:
112,128,45354,2,0,L|120:264,1,132.00000402832,8|8,1:0|0:0,0:0:0:0:
168,320,45815,1,0,3:0:0:0:
336,288,46046,1,0,3:0:0:0:
216,152,46277,1,8,1:0:0:0:
216,152,46738,5,0,3:0:0:0:
280,224,46969,1,0,3:0:0:0:
192,240,47200,2,8,L|56:232,1,132.00000402832,8|8,1:0|0:0,0:0:0:0:
32,256,47661,2,0,L|24:168,1,88.000002685547,0|0,3:0|3:0,0:0:0:0:
8,56,48123,1,8,1:0:0:0:
8,56,48585,5,0,3:0:0:0:
104,120,48815,1,0,3:0:0:0:
216,80,49046,2,8,P|280:64|344:80,1,132.00000402832,8|8,1:0|0:0,0:0:0:0:
392,144,49508,2,0,L|384:232,1,88.000002685547,0|0,3:0|3:0,0:0:0:0:
272,328,49969,2,0,L|264:240,1,88.000002685547,8|0,1:0|0:0,0:0:0:0:
160,160,50431,6,0,P|96:144|56:160,1,88.000002685547,0|0,3:0|3:0,0:0:0:0:
104,240,50892,1,8,1:0:0:0:
248,112,51123,1,0,0:0:0:0:
256,80,51238,1,8,0:0:0:0:
408,200,51469,1,8,0:0:0:0:
400,168,51584,1,0,3:0:0:0:
320,312,51815,1,8,1:0:0:0:
160,272,52046,2,0,L|112:280,2,29.3333342285157,0|0|0,0:0|0:0|0:0,0:0:0:0:
192,240,52277,6,0,P|200:192|192:152,1,88.000002685547,0|0,3:0|3:0,0:0:0:0:
96,88,52738,1,8,1:0:0:0:
80,200,52969,1,0,0:0:0:0:
80,200,53085,1,8,0:0:0:0:
80,200,53200,1,0,0:0:0:0:
80,200,53315,1,8,0:0:0:0:
80,200,53431,1,0,3:0:0:0:
240,280,53661,1,8,1:0:0:0:
440,232,53892,1,0,0:0:0:0:
440,232,54008,1,8,0:0:0:0:
440,232,54123,6,0,P|392:216|344:224,1,88.000002685547,0|0,3:0|3:0,0:0:0:0:
384,312,54585,1,8,1:0:0:0:
512,160,54815,1,0,3:0:0:0:
512,160,54931,1,8,0:0:0:0:
512,160,55046,2,0,L|496:112,1,40,0|8,3:0|0:0,0:0:0:0:
408,128,55271,2,0,L|362:105,1,40,8|8,0:0|1:0,0:0:0:0:
312,176,55491,2,0,L|263:192,1,40,8|8,1:0|1:0,0:0:0:0:
190,222,55706,1,4,3:1:0:0:
99,130,55969,6,0,P|91:96|100:54,1,68.0000012969971,2|0,0:0|0:0,0:0:0:0:
184,94,56431,1,0,0:0:0:0:
32,204,56661,2,0,P|56:268|32:332,1,136.000002593994,2|2,0:0|0:0,0:0:0:0:
34,329,57584,1,0,0:0:0:0:
130,296,57815,6,0,P|171:300|196:320,1,68.0000012969971,2|0,0:0|0:0,0:0:0:0:
302,271,58277,2,0,P|328:302|331:334,1,68.0000012969971,2|0,0:0|0:0,0:0:0:0:
446,295,58738,2,2,B|472:324|471:361|471:361|505:343|510:301|510:301|496:265|514:235|514:235|496:202|464:205,1,268.5,2|4,0:0|3:2,0:0:0:0:
176,288,59994,5,0,3:0:0:0:
152,304,60109,2,0,L|56:296,1,88.000002685547,8|0,1:0|3:0,0:0:0:0:
160,120,60571,1,0,0:0:0:0:
160,120,60686,1,8,0:0:0:0:
160,120,60801,2,0,P|208:128|240:160,1,88.000002685547,0|8,3:0|1:0,0:0:0:0:
424,80,61263,1,0,0:0:0:0:
424,80,61378,1,8,0:0:0:0:
424,80,61494,6,0,P|456:152|432:216,1,132.00000402832,0|0,3:0|3:0,3:0:0:0:
376,248,61955,2,0,L|288:240,1,88.000002685547,8|0,1:0|3:0,0:0:0:0:
272,256,62301,1,8,0:0:0:0:
256,272,62417,1,0,3:0:0:0:
240,288,62532,1,8,0:0:0:0:
224,304,62647,1,0,3:0:0:0:
48,160,62878,2,0,P|40:104|48:64,1,88.000002685547,8|0,1:0|0:0,0:0:0:0:
112,32,63224,1,8,0:0:0:0:
112,32,63340,6,0,L|256:24,1,132.00000402832,0|0,3:0|3:0,0:0:0:0:
320,16,63801,1,8,1:0:0:0:
336,232,64032,1,0,3:0:0:0:
292,234,64147,1,8,0:0:0:0:
253,216,64262,1,0,3:0:0:0:
228,180,64378,1,8,0:0:0:0:
223,137,64493,1,0,3:0:0:0:
400,80,64724,1,8,1:0:0:0:
488,248,64955,1,0,0:0:0:0:
488,248,65071,1,8,0:0:0:0:
488,248,65186,6,0,L|496:304,1,44.0000013427735,0|8,3:0|0:0,0:0:0:0:
312,144,65532,2,0,L|304:88,1,44.0000013427735,0|8,3:0|0:0,0:0:0:0:
72,79,65878,1,0,3:0:0:0:
55,118,65993,1,8,0:0:0:0:
56,160,66108,1,0,3:0:0:0:
74,197,66224,1,8,0:0:0:0:
106,223,66339,1,0,3:0:0:0:
304,296,66571,2,0,L|392:288,1,88.000002685547,8|0,1:0|3:0,0:0:0:0:
456,232,66917,1,8,0:0:0:0:
504,296,67032,6,0,L|512:344,1,44.0000013427735,0|8,3:0|0:0,0:0:0:0:
424,128,67378,1,0,3:0:0:0:
424,128,67494,2,0,P|412:83|424:32,1,88.000002685547,8|0,1:0|3:0,0:0:0:0:
336,48,67840,1,8,0:0:0:0:
264,16,67955,2,0,L|208:24,2,44.0000013427735,0|8|0,3:0|0:0|3:0,0:0:0:0:
296,192,68417,2,0,P|248:200|208:184,1,88.000002685547,8|0,1:0|3:0,0:0:0:0:
136,200,68762,1,8,0:0:0:0:
80,144,68878,6,0,L|88:96,2,44.0000013427735,0|8|0,3:0|0:0|0:0,0:0:0:0:
56,224,69224,2,0,L|64:272,1,44.0000013427735,0|8,3:0|1:0,0:0:0:0:
272,344,69570,1,0,3:0:0:0:
304,342,69685,1,8,0:0:0:0:
337,340,69800,1,0,0:0:0:0:
370,338,69916,1,8,0:0:0:0:
403,336,70031,1,0,3:0:0:0:
496,160,70262,1,8,1:0:0:0:
336,48,70493,1,0,0:0:0:0:
336,48,70608,1,8,0:0:0:0:
336,48,70724,6,0,L|392:40,1,44.0000013427735,0|8,3:0|0:0,0:0:0:0:
256,232,71070,1,0,3:0:0:0:
256,232,71186,2,0,P|208:240|168:232,1,88.000002685547,8|0,1:0|3:0,0:0:0:0:
104,192,71531,1,8,0:0:0:0:
104,192,71647,2,0,L|56:200,1,44.0000013427735,0|8,3:0|0:0,0:0:0:0:
144,120,71878,2,0,L|98:102,1,44.0000013427735,0|8,3:0|1:0,0:0:0:0:
216,80,72108,2,0,L|185:42,1,44.0000013427735,8|0,1:0|0:0,0:0:0:0:
296,88,72339,2,0,L|288:40,1,44.0000013427735,0|8,0:0|0:0,0:0:0:0:
376,112,72570,6,0,L|368:200,1,88.000002685547,0|8,3:0|0:0,0:0:0:0:
424,320,73031,2,0,P|384:296|296:304,1,132.00000402832,0|8,3:0|0:0,0:0:0:0:
224,344,73493,1,0,3:0:0:0:
224,344,73955,1,8,1:0:0:0:
200,328,74070,1,0,0:0:0:0:
176,312,74185,1,0,0:0:0:0:
152,296,74301,1,0,0:0:0:0:
128,280,74417,6,0,L|32:288,1,88.000002685547,4|0,3:2|3:0,0:0:0:0:
48,144,74878,2,0,P|104:120|176:136,1,132.00000402832,8|8,1:0|0:0,0:0:0:0:
216,200,75339,1,0,3:0:0:0:
384,152,75570,1,0,3:0:0:0:
280,16,75801,2,0,L|296:160,1,132.00000402832,8|8,1:0|0:0,0:0:0:0:
312,232,76262,5,0,3:0:0:0:
168,296,76493,1,0,3:0:0:0:
32,208,76724,2,0,P|16:144|40:80,1,132.00000402832,8|8,1:0|0:0,0:0:0:0:
120,64,77186,2,0,L|104:0,2,44.0000013427735,0|8|0,3:0|0:0|3:0,0:0:0:0:
224,176,77647,1,8,1:0:0:0:
432,120,77878,1,0,0:0:0:0:
432,120,77993,1,8,0:0:0:0:
432,120,78109,6,0,P|384:112|336:120,1,88.000002685547,4|0,3:2|3:0,0:0:0:0:
368,344,78570,2,0,P|400:280|384:224,1,132.00000402832,8|8,1:0|0:0,0:0:0:0:
360,216,79031,1,0,3:0:0:0:
336,208,79147,1,8,0:0:0:0:
312,200,79262,1,0,3:0:0:0:
144,304,79493,2,0,P|208:312|264:272,1,132.00000402832,8|0,1:0|3:0,0:0:0:0:
248,168,79955,6,0,L|240:120,3,44.0000013427735,0|0|0|0,3:0|0:0|3:0|0:0,0:0:0:0:
400,40,80416,2,0,L|392:88,3,44.0000013427735,8|0|0|8,1:0|3:0|0:0|0:0,0:0:0:0:
376,112,80878,1,0,3:0:0:0:
354,136,80993,1,8,0:0:0:0:
327,156,81108,1,0,3:0:0:0:
297,170,81224,1,8,1:0:0:0:
265,177,81339,1,8,1:0:0:0:
232,176,81454,1,0,0:0:0:0:
200,169,81570,1,8,0:0:0:0:
170,156,81685,1,8,1:0:0:0:
144,136,81801,6,0,L|48:144,1,88.000002685547,4|0,3:2|3:0,0:0:0:0:
48,312,82262,2,0,L|179:301,1,132.00000402832,8|8,1:0|0:0,0:0:0:0:
196,319,82724,1,0,3:0:0:0:
212,335,82839,1,8,0:0:0:0:
228,351,82955,1,0,3:0:0:0:
464,248,83185,2,0,P|480:176|464:112,1,132.00000402832,8|8,1:0|0:0,0:0:0:0:
408,72,83647,6,0,L|416:24,2,44.0000013427735,0|8|0,3:0|0:0|3:0,0:0:0:0:
312,232,84108,2,0,P|248:240|192:200,1,132.00000402832,8|8,1:0|0:0,0:0:0:0:
144,144,84570,2,0,L|152:96,2,44.0000013427735,0|8|0,3:0|0:0|3:0,0:0:0:0:
32,248,85032,2,0,L|48:344,1,88.000002685547,8|0,1:0|3:0,0:0:0:0:
120,368,85378,1,8,0:0:0:0:
184,320,85493,6,0,L|232:328,2,44.0000013427735,0|8|0,3:0|0:0|3:0,0:0:0:0:
312,152,85955,1,8,1:0:0:0:
472,280,86185,1,0,3:0:0:0:
472,280,86301,1,8,0:0:0:0:
472,280,86417,2,0,L|480:224,1,44.0000013427735,0|8,3:0|0:0,0:0:0:0:
424,96,86648,2,0,L|417:139,1,44.0000013427735,8|8,0:0|0:0,0:0:0:0:
328,264,86879,2,0,L|336:208,1,44.0000013427735,0|8,3:0|0:0,0:0:0:0:
256,128,87110,2,0,P|216:112|160:120,1,88.000002685547,0|0,3:0|0:0,0:0:0:0:
