osu file format v14

[General]
AudioFilename: SWKNO.mp3
AudioLeadIn: 0
PreviewTime: 58054
Countdown: 0
SampleSet: Soft
StackLeniency: 0.7
Mode: 0
LetterboxInBreaks: 0
WidescreenStoryboard: 0

[Editor]
DistanceSpacing: 1
BeatDivisor: 4
GridSize: 4
TimelineZoom: 1.7

[Metadata]
Title:Sekai wa Koi ni Ochiteiru
TitleUnicode:世界は恋に落ちている
Artist:CHiCO with HoneyWorks
ArtistUnicode:CHiCO with HoneyWorks
Creator:Midasmens
Version:Normal
Source:AO--HARU--RIDE
Tags:tv size opening love アオハライド yf_bmp
BeatmapID:461949
BeatmapSetID:194399

[Difficulty]
HPDrainRate:4
CircleSize:3
OverallDifficulty:3
ApproachRate:5
SliderMultiplier:1.4
SliderTickRate:1

[Events]
//Background and Video events
0,0,"BG.jpg",0,0
Video,0,"sk.flv"
//Break Periods
//Storyboard Layer 0 (Background)
//Storyboard Layer 1 (Fail)
//Storyboard Layer 2 (Pass)
//Storyboard Layer 3 (Foreground)
//Storyboard Sound Samples

[TimingPoints]
650,461.538461538462,4,2,2,60,1,0
11727,-100,4,2,2,20,0,0
13573,-100,4,2,2,60,0,0
14034,-100,4,2,2,65,0,0
14496,-100,4,2,2,70,0,0
14957,-100,4,2,2,75,0,0
21880,-100,4,2,2,50,0,0
21996,-100,4,2,1,75,0,0
22573,-100,4,2,2,50,0,0
22804,-100,4,2,2,70,0,0
56034,-100,4,2,1,60,0,0
59727,-100,4,2,2,80,0,1
72650,-100,4,2,2,80,0,0
74496,-100,4,2,2,80,0,1
87419,-100,4,2,2,80,0,0
87880,-100,4,2,2,70,0,0

[Colours]
Combo1 : 240,120,0
Combo2 : 255,81,255
Combo3 : 27,220,65
Combo4 : 2,129,255

[HitObjects]
476,100,650,5,2,0:0:0:0:
428,200,1111,2,0,P|356:212|292:188,1,140
224,104,2034,1,0,0:0:0:0:
224,104,2496,2,0,P|192:160|200:232,1,140,2|0,0:0|0:0,0:0:0:0:
264,324,3419,2,0,P|296:268|288:196,1,140,2|0,0:0|0:0,0:0:0:0:
224,104,4342,5,2,0:0:0:0:
124,56,4803,1,0,0:0:0:0:
64,152,5265,2,0,P|48:220|68:292,1,140
180,320,6188,2,0,P|248:308|320:332,1,140,2|0,0:0|0:0,0:0:0:0:
424,304,7111,1,0,0:0:0:0:
344,96,8034,6,0,P|280:72|208:84,1,140,2|0,0:0|0:0,0:0:0:0:
128,160,8957,1,0,0:0:0:0:
168,264,9419,1,0,0:0:0:0:
60,236,9880,2,0,P|28:172|40:104,1,140,2|0,0:0|0:0,0:0:0:0:
136,52,10803,1,0,0:0:0:0:
220,128,11265,1,0,0:0:0:0:
256,192,11726,12,0,13111,0:0:0:0:
244,56,13573,5,2,0:0:0:0:
300,152,14034,1,0,0:0:0:0:
212,224,14496,1,2,0:0:0:0:
276,316,14957,1,0,0:0:0:0:
376,264,15419,6,0,L|444:192,1,70,4|0,0:0|0:0,0:0:0:0:
444,160,15880,1,8,0:0:0:0:
316,96,16342,2,0,P|256:108|168:76,1,140,0|8,0:0|0:0,0:0:0:0:
116,208,17265,2,0,L|104:280,1,70,2|0,0:0|0:0,0:0:0:0:
120,332,17726,1,8,0:0:0:0:
256,296,18188,2,0,P|324:312|396:292,1,140,0|8,0:0|0:0,0:0:0:0:
456,168,19111,6,0,P|460:92|432:36,1,140,2|8,0:0|0:0,0:0:0:0:
324,128,20034,2,0,L|248:140,2,70,0|0|8,0:0|0:0|0:0,0:0:0:0:
404,244,20957,1,0,0:0:0:0:
284,316,21419,1,8,0:0:0:0:
144,300,21880,2,0,P|112:200|136:92,1,210,8|8,3:0|3:0,0:0:0:0:
172,60,22803,5,4,0:0:0:0:
248,176,23265,1,8,0:0:0:0:
356,88,23726,2,0,L|380:160,1,70
428,204,24188,2,0,L|404:288,1,70,8|0,0:0|0:0,0:0:0:0:
384,324,24650,5,2,0:0:0:0:
248,348,25111,1,8,0:0:0:0:
104,324,25573,2,0,L|64:256,2,70,0|0|8,0:0|0:0|0:0,0:0:0:0:
172,200,26496,2,0,P|240:180|308:196,1,140,2|8,0:0|0:0,0:0:0:0:
404,296,27419,1,0,0:0:0:0:
444,164,27880,2,0,L|424:80,1,70,8|0,0:0|0:0,0:0:0:0:
384,60,28342,5,2,0:0:0:0:
244,48,28803,1,8,0:0:0:0:
108,96,29265,2,0,P|96:128|96:172,2,70,0|0|8,0:0|0:0|0:0,0:0:0:0:
228,160,30188,6,0,B|284:176|324:144|324:144|360:176,1,140,2|8,0:0|0:0,0:0:0:0:
336,308,31111,2,0,L|256:320,1,70
240,368,31573,2,0,L|172:336,1,70,8|0,0:0|0:0,0:0:0:0:
128,312,32034,5,2,0:0:0:0:
76,184,32496,1,8,0:0:0:0:
140,52,32957,2,0,L|216:28,2,70,0|0|8,0:0|0:0|0:0,0:0:0:0:
220,168,33880,2,0,P|240:240|220:316,1,140,2|8,0:0|0:0,0:0:0:0:
96,248,34803,2,0,P|76:176|96:100,1,140,0|8,0:0|0:0,0:0:0:0:
216,52,35726,5,2,0:0:0:0:
272,180,36188,1,8,0:0:0:0:
368,76,36650,1,0,0:0:0:0:
448,192,37111,1,8,0:0:0:0:
448,192,37573,6,0,P|449:257|400:328,1,140,4|8,0:0|0:0,0:0:0:0:
276,352,38496,1,0,0:0:0:0:
212,228,38957,1,8,0:0:0:0:
88,292,39419,6,0,P|72:224|96:156,1,140,2|8,0:0|0:0,0:0:0:0:
216,96,40342,1,0,0:0:0:0:
296,212,40803,1,8,0:0:0:0:
372,332,41265,6,0,P|308:356|236:340,1,140,4|8,0:0|0:0,0:0:0:0:
144,240,42188,1,0,0:0:0:0:
188,108,42650,1,8,0:0:0:0:
316,52,43111,6,0,P|388:40|464:60,1,140,2|8,0:0|0:0,0:0:0:0:
484,192,44034,2,0,L|488:268,2,70,0|0|8,0:0|0:0|0:0,0:0:0:0:
368,268,44957,6,0,L|348:336,1,70
296,356,45419,1,8,0:0:0:0:
196,252,45880,2,0,P|164:248|116:256,2,70,0|0|8,0:0|0:0|0:0,0:0:0:0:
320,184,46803,2,0,L|300:40,1,140,2|8,0:0|0:0,0:0:0:0:
164,92,47726,1,0,0:0:0:0:
76,200,48188,1,8,0:0:0:0:
116,336,48650,6,0,L|184:316,1,70
204,264,49111,1,8,0:0:0:0:
76,200,49573,2,0,P|72:168|80:120,2,70,2|0|8,0:0|0:0|0:0,0:0:0:0:
196,128,50496,2,0,P|264:112|344:128,1,140,0|8,0:0|0:0,0:0:0:0:
352,260,51419,2,0,L|324:328,2,70,2|0|8,0:0|0:0|0:0,0:0:0:0:
472,188,52342,6,0,P|492:252|472:328,1,140,0|8,0:0|0:0,0:0:0:0:
340,360,53265,1,2,0:0:0:0:
292,228,53726,1,8,0:0:0:0:
180,308,54188,2,0,L|104:188,1,140,0|8,0:0|0:0,0:0:0:0:
168,64,55111,1,0,0:0:0:0:
296,120,55573,1,10,0:0:0:0:
296,120,56034,6,0,P|257:269|217:120,1,420,4|0,0:0|0:0,0:0:0:0:
256,192,57880,12,0,59265,0:0:0:0:
224,80,59726,6,0,P|160:96|108:156,1,140,4|8,0:0|0:0,0:0:0:0:
144,284,60650,2,0,L|176:352,2,70,0|0|8,0:0|0:0|0:0,0:0:0:0:
284,300,61573,2,0,P|348:316|424:292,1,140,2|8,0:0|0:0,0:0:0:0:
472,168,62496,1,0,0:0:0:0:
372,68,62957,2,0,L|292:56,1,70,8|0,0:0|0:0,0:0:0:0:
248,76,63419,5,2,0:0:0:0:
132,156,63880,1,8,0:0:0:0:
256,216,64342,2,0,P|268:292|240:360,1,140,0|8,0:0|0:0,0:0:0:0:
120,292,65265,2,0,P|108:216|136:148,1,140,2|8,0:0|0:0,0:0:0:0:
252,104,66188,1,0,0:0:0:0:
368,184,66650,1,8,0:0:0:0:
312,312,67111,6,0,P|244:324|172:312,1,140,4|8,0:0|0:0,0:0:0:0:
212,180,68034,2,0,L|244:112,2,70,0|0|8,0:0|0:0|0:0,0:0:0:0:
84,120,68957,2,0,P|64:176|84:268,1,140,2|8,0:0|0:0,0:0:0:0:
188,340,69880,1,0,0:0:0:0:
308,268,70342,2,0,L|332:196,1,70,8|0,0:0|0:0,0:0:0:0:
328,144,70803,5,0,0:0:0:0:
208,216,71265,1,8,0:0:0:0:
84,284,71726,2,0,P|76:212|104:144,1,140,0|8,0:0|0:0,0:0:0:0:
232,96,72650,5,4,0:0:0:0:
351,168,73111,1,2,0:0:0:0:
279,287,73573,1,4,0:0:0:0:
159,215,74034,1,4,0:0:0:0:
232,96,74496,6,0,P|296:76|372:88,1,140,4|8,0:0|0:0,0:0:0:0:
428,212,75419,2,0,L|412:304,1,70
380,324,75880,1,8,0:0:0:0:
260,248,76342,2,0,P|192:264|124:248,1,140,2|8,0:0|0:0,0:0:0:0:
52,128,77265,1,0,0:0:0:0:
16,264,77726,1,8,0:0:0:0:
136,196,78188,6,0,P|156:128|128:60,1,140,2|8,0:0|0:0,0:0:0:0:
48,180,79111,2,0,P|28:248|56:320,1,140,0|8,0:0|0:0,0:0:0:0:
184,356,80034,1,0,0:0:0:0:
240,228,80496,1,8,0:0:0:0:
320,344,80957,2,0,P|392:344|448:304,1,140,2|8,0:0|0:0,0:0:0:0:
480,168,81880,5,0,0:0:0:0:
420,44,82342,1,8,0:0:0:0:
356,168,82803,2,0,L|348:256,1,70
344,292,83265,1,8,0:0:0:0:
232,208,83726,2,0,P|164:188|96:200,1,140,2|8,0:0|0:0,0:0:0:0:
44,328,84650,2,0,P|112:348|180:336,1,140,0|8,0:0|0:0,0:0:0:0:
308,276,85573,5,2,0:0:0:0:
416,368,86034,1,8,0:0:0:0:
388,232,86496,2,0,L|404:152,1,70
456,156,86957,2,0,L|424:68,1,70,8|0,0:0|0:0,0:0:0:0:
388,56,87419,1,4,0:0:0:0:
256,104,87880,6,0,L|256:176,1,70
