osu file format v14

[General]
AudioFilename: 01. .mp3
AudioLeadIn: 1150
PreviewTime: 135849
Countdown: 0
SampleSet: Normal
StackLeniency: 0.7
Mode: 0
LetterboxInBreaks: 0
WidescreenStoryboard: 0

[Editor]
Bookmarks: 19336
DistanceSpacing: 1
BeatDivisor: 4
GridSize: 4
TimelineZoom: 2.8

[Metadata]
Title:Pride Kakumei
TitleUnicode:プライド革命
Artist:CHiCO with HoneyWorks
ArtistUnicode:CHiCO with HoneyWorks
Creator:monstrata
Version:Insane
Source:銀魂゜
Tags:atsuro milan- sheela901 gintama゜ gintoki silver soul opening 2015
BeatmapID:757505
BeatmapSetID:342242

[Difficulty]
HPDrainRate:6
CircleSize:4
OverallDifficulty:8
ApproachRate:8.6
SliderMultiplier:1.6
SliderTickRate:1

[Events]
//Background and Video events
0,0,"kakumei.jpg",0,0
//Break Periods
2,160656,170175
//Storyboard Layer 0 (Background)
//Storyboard Layer 1 (Fail)
//Storyboard Layer 2 (Pass)
//Storyboard Layer 3 (Foreground)
//Storyboard Sound Samples

[TimingPoints]
905,324.324324324324,4,2,0,45,1,0
905,-133.333333333333,4,2,0,45,0,0
5430,324.324324324324,4,2,0,45,1,0
5430,-133.333333333333,4,2,0,45,0,0
6078,324.324324324324,4,2,0,45,1,0
6078,-133.333333333333,4,2,0,45,0,0
11267,-166.666666666667,4,1,0,30,0,0
12564,-100,4,1,0,50,0,0
22942,-133.333333333333,4,2,0,35,0,0
25537,-100,4,1,0,50,0,0
34456,-100,4,2,0,40,0,0
35915,-100,4,1,0,55,0,0
46294,-117.647058823529,4,2,0,45,0,0
55375,-100,4,1,0,50,0,0
64456,-166.666666666667,4,1,0,35,0,0
67050,-100,4,1,0,65,0,1
87807,-100,4,1,0,50,0,0
107105,-100,4,2,0,40,0,0
107429,-133.333333333333,4,2,0,40,0,0
108564,-100,4,1,0,55,0,0
118942,-117.647058823529,4,2,0,45,0,0
123483,-142.857142857143,4,2,0,35,0,0
123807,-117.647058823529,4,2,0,45,0,0
129321,-100,4,1,0,55,0,0
137105,-133.333333333333,4,1,0,35,0,0
138402,-100,4,1,0,35,0,0
139375,-71.4285714285714,4,1,0,50,0,0
139699,-100,4,1,0,65,0,1
160456,-100,4,1,0,50,0,0
170834,-100,4,3,0,45,0,0
174726,-133.333333333333,4,2,0,35,0,0
176023,-100,4,1,0,50,0,0
201969,-166.666666666667,4,1,0,40,0,0
203267,-133.333333333333,4,2,0,45,0,0
204564,-114.285714285714,4,2,0,50,0,0
205861,-100,4,2,0,50,0,0
206186,-100,4,2,0,40,0,0
208132,-80,4,1,0,50,0,0
208780,-100,4,1,0,65,0,1
216240,-133.333333333333,4,2,0,45,0,1
217375,-100,4,1,0,65,0,1
231483,-100,4,1,0,40,0,1
231645,-100,4,1,0,20,0,1
231726,-100,4,1,0,10,0,1
231807,-100,4,1,0,5,0,0

[Colours]
Combo1 : 137,216,218
Combo2 : 0,151,223
Combo3 : 255,30,30
Combo4 : 129,129,192

[HitObjects]
98,215,905,6,0,P|155:236|221:198,2,120.000004577637,2|0|0,0:2|3:0|0:0,0:0:0:0:
153,157,1715,1,0,0:0:0:0:
229,138,1877,2,0,P|269:164|279:182,1,60.0000022888184,0|0,3:0|0:0,0:0:0:0:
321,236,2202,6,0,B|307:178|307:178|358:119,2,120.000004577637,2|2|2,0:2|0:3|0:2,0:0:0:0:
294,309,3013,1,0,3:0:0:0:
217,322,3175,1,0,3:0:0:0:
125,195,3499,6,0,B|80:174|43:196|43:196|2:170,2,120.000004577637,2|0|0,0:2|3:0|0:0,0:0:0:0:
168,260,4310,1,0,0:0:0:0:
244,248,4472,2,0,L|316:237,1,60.0000022888184,2|0,0:3|0:0,0:0:0:0:
350,177,4796,6,0,P|334:233|362:285,1,120.000004577637,2|2,0:2|0:3,0:0:0:0:
422,334,5283,1,0,0:0:0:0:
434,257,5430,2,0,L|506:246,2,60.0000022888184,0|0|2,0:0|0:0|0:3,0:0:0:0:
288,314,6078,6,0,B|228:323|228:323|160:293,1,120.000004577637,2|0,0:2|3:0,0:0:0:0:
102,268,6564,2,0,P|131:233|167:227,1,60.0000022888184,2|0,0:2|0:0,0:0:0:0:
186,163,6888,2,0,L|260:164,2,60.0000022888184,0|2|0,0:0|0:3|0:0,0:0:0:0:
107,161,7375,6,0,P|131:107|202:85,1,120.000004577637,0|0,1:2|3:0,0:0:0:0:
261,91,7861,2,0,L|335:92,1,60.0000022888184,2|0,0:2|0:0,0:0:0:0:
349,164,8186,2,0,L|423:165,2,60.0000022888184,0|2|0,0:0|3:0|0:0,0:0:0:0:
292,217,8672,6,0,B|271:275|321:275|294:331,1,120.000004577637,2|0,0:2|0:0,0:0:0:0:
229,375,9159,1,2,0:3:0:0:
162,333,9321,2,0,B|135:276|185:276|164:218,1,120.000004577637,2|0,3:2|0:0,0:0:0:0:
107,163,9807,6,0,B|164:183|164:183|233:160,1,120.000004577637,2|0,0:2|0:0,0:0:0:0:
292,135,10294,1,0,3:0:0:0:
303,57,10456,2,0,B|348:64|379:102|377:151|356:181|356:181|360:280,1,240.000009155274,2|0,2:0|0:0,0:0:0:0:
408,324,11267,6,0,B|246:248|248:392|84:315,1,335.999989746094,2|0,2:0|0:0,0:0:0:0:
48,163,12564,6,0,L|213:181,1,160,4|8,0:2|0:0,0:0:0:0:
332,123,13050,2,0,P|315:61|223:36,1,160,2|0,0:2|0:0,0:0:0:0:
251,114,13537,1,8,0:0:0:0:
365,196,13699,6,0,L|452:204,1,80,2|0,0:2|3:0,0:0:0:0:
412,131,14023,1,4,0:3:0:0:
286,188,14186,2,0,P|296:235|331:266,1,80,8|0,0:0|0:0,0:0:0:0:
313,277,14429,1,0,0:0:0:0:
311,297,14510,2,0,L|223:305,2,80,2|0|8,0:3|0:0|0:0,0:0:0:0:
332,123,15159,6,0,P|315:61|223:36,1,160,2|8,0:2|0:0,0:0:0:0:
127,170,15645,2,0,L|286:187,1,160,2|2,0:2|0:3,0:0:0:0:
251,114,16132,1,8,0:0:0:0:
240,254,16294,6,0,L|231:333,1,80,2|0,0:2|0:0,0:0:0:0:
320,260,16618,1,4,0:3:0:0:
160,245,16780,2,0,L|80:236,1,80,0|2,0:0|0:2,0:0:0:0:
71,217,17023,1,0,0:0:0:0:
64,200,17105,2,0,L|31:126,2,80,2|8|8,0:3|0:3|0:0,0:0:0:0:
275,327,17753,6,0,P|354:333|399:254,1,160,2|8,0:2|0:0,0:0:0:0:
334,126,18240,2,0,P|290:188|319:259,1,160,2|4,0:2|0:3,0:0:0:0:
370,198,18726,1,8,0:0:0:0:
263,184,18888,6,0,L|183:173,1,80,2|0,0:2|3:0,0:0:0:0:
103,161,19213,1,4,0:3:0:0:
213,247,19375,2,0,L|293:258,1,80,8|0,0:0|0:0,0:0:0:0:
300,276,19618,1,0,0:0:0:0:
308,295,19699,2,0,L|387:306,2,80,2|0|8,0:3|0:0|0:0,0:0:0:0:
235,330,20186,1,0,0:0:0:0:
235,330,20267,1,0,0:0:0:0:
235,330,20348,6,0,L|155:318,1,80,4|2,0:2|0:2,0:0:0:0:
213,247,20672,2,0,L|182:172,1,80,8|2,0:0|0:2,0:0:0:0:
89,81,20996,1,4,0:3:0:0:
218,100,21159,1,2,0:2:0:0:
103,161,21321,1,8,0:0:0:0:
160,43,21483,6,0,P|209:19|256:28,1,80,2|0,0:2|3:0,0:0:0:0:
294,73,21807,1,4,0:3:0:0:
203,179,21969,2,0,L|185:276,1,80,8|0,0:0|0:0,0:0:0:0:
267,245,22294,2,0,L|281:323,1,80,4|2,0:3|0:2,0:0:0:0:
277,342,22537,1,0,0:0:0:0:
273,362,22618,1,8,0:0:0:0:
198,336,22780,1,2,0:3:0:0:
122,362,22942,6,0,L|41:388,2,60.0000022888184,2|0|0,0:0|0:0|0:0,0:0:0:0:
137,283,23429,2,0,L|162:155,1,120.000004577637,2|0,0:0|0:0,0:0:0:0:
176,85,23915,2,0,L|112:30,2,60.0000022888184,2|0|0,0:0|0:0|0:0,0:0:0:0:
251,58,24402,2,0,L|374:16,1,120.000004577637,2|0,0:0|0:0,0:0:0:0:
432,58,24888,2,0,L|497:36,2,60.0000022888184,2|0|2,0:0|0:0|0:0,0:0:0:0:
332,317,25537,6,0,P|298:331|234:318,1,80,2|0,0:3|0:0,0:0:0:0:
283,253,25861,2,0,P|253:230|233:168,1,80,8|0,0:0|0:0,0:0:0:0:
313,178,26186,2,0,P|296:142|265:117,1,80,0|0,0:0|0:0,0:0:0:0:
292,42,26510,2,0,P|252:38|215:53,1,80,8|0,0:0|0:0,0:0:0:0:
136,43,26834,6,0,L|44:30,2,80,2|0|8,0:3|0:0|0:0,0:0:0:0:
169,116,27321,1,0,0:0:0:0:
169,116,27402,1,0,0:0:0:0:
169,116,27483,2,0,L|261:129,1,80,2|2,0:2|0:3,0:0:0:0:
326,137,27807,2,0,P|311:174|281:200,1,80,8|0,0:0|0:0,0:0:0:0:
200,196,28132,6,0,L|100:186,2,80,2|0|8,0:2|0:0|0:0,0:0:0:0:
233,268,28618,1,2,0:2:0:0:
233,268,28699,1,0,0:0:0:0:
233,268,28780,2,0,P|269:340|356:341,1,160,4|8,0:3|0:0,0:0:0:0:
313,273,29267,1,8,0:3:0:0:
357,206,29429,6,0,L|454:212,1,80,2|0,0:3|0:0,0:0:0:0:
401,139,29753,2,0,L|455:57,1,80,8|2,0:0|0:2,0:0:0:0:
364,67,30077,2,0,P|317:54|272:74,1,80,0|0,3:0|0:0,0:0:0:0:
321,133,30402,1,8,0:0:0:0:
391,278,30726,6,0,L|488:286,2,80,2|0|8,0:3|0:0|0:0,0:0:0:0:
357,206,31213,2,0,L|260:198,1,80,2|2,0:2|0:3,0:0:0:0:
243,127,31537,1,0,0:0:0:0:
211,53,31699,2,0,P|176:83|163:117,1,80,8|4,0:0|0:3,0:0:0:0:
144,190,32023,6,0,P|139:124|52:84,1,160,2|8,0:3|0:0,0:0:0:0:
71,162,32510,2,0,L|57:255,1,80,2|2,0:2|0:3,0:0:0:0:
45,319,32834,1,0,0:0:0:0:
120,292,32996,2,0,L|182:341,1,80,8|0,0:0|0:0,0:0:0:0:
196,262,33321,6,0,L|270:232,1,80,2|0,0:2|0:0,0:0:0:0:
281,152,33645,1,8,0:0:0:0:
291,72,33807,2,0,P|331:44|429:92,1,160,2|8,0:2|0:3,0:0:0:0:
355,121,34294,1,8,0:0:0:0:
344,200,34456,6,0,B|329:296|329:296|359:361,2,160,4|2|2,0:3|0:2|0:2,0:0:0:0:
355,121,35267,1,2,0:2:0:0:
355,121,35429,1,0,0:0:0:0:
291,72,35591,1,2,0:2:0:0:
291,72,35753,1,0,0:0:0:0:
216,102,35915,6,0,P|200:155|213:194,1,80,4|0,0:2|0:0,0:0:0:0:
339,198,36240,2,0,P|301:157|260:149,1,80,8|0,0:0|0:0,0:0:0:0:
329,278,36564,2,0,L|429:291,2,80,2|0|8,0:2|0:0|0:0,0:0:0:0:
267,229,37050,1,0,0:0:0:0:
183,338,37213,6,0,P|229:329|259:303,1,80,2|0,0:3|0:0,0:0:0:0:
205,180,37537,2,0,P|159:189|129:215,1,80,8|0,0:0|0:0,0:0:0:0:
267,229,37861,2,0,L|328:148,2,80,2|0|8,0:3|0:0|0:0,0:0:0:0:
194,259,38348,1,0,0:0:0:0:
194,259,38429,1,0,0:0:0:0:
194,259,38510,6,0,B|97:297|97:297|77:283|38:284,2,160,2|8|2,0:2|0:0|0:2,0:0:0:0:
256,307,39321,1,4,0:3:0:0:
338,199,39483,1,8,0:0:0:0:
267,229,39645,1,0,0:0:0:0:
328,277,39807,6,0,P|368:272|411:224,1,80,2|4,0:3|0:3,0:0:0:0:
338,198,40132,2,0,L|351:100,1,80,8|0,0:0|0:0,0:0:0:0:
358,41,40456,2,0,P|318:46|275:94,2,80,2|0|8,0:2|0:0|0:0,0:0:0:0:
484,137,41105,6,0,L|460:311,1,160,2|8,0:3|0:0,0:0:0:0:
489,370,41591,2,0,P|435:312|358:309,1,160,2|2,0:2|0:2,0:0:0:0:
226,259,42077,2,0,P|249:303|302:328,1,80,8|0,0:0|0:0,0:0:0:0:
335,173,42402,6,0,P|284:171|236:204,2,80,2|0|8,0:3|0:0|0:0,0:0:0:0:
391,229,42888,2,0,P|414:166|347:94,1,160,2|0,0:2|0:0,0:0:0:0:
227,55,43375,1,8,0:0:0:0:
307,38,43537,1,0,0:0:0:0:
201,132,43699,6,0,P|178:168|187:230,1,80,2|0,0:2|0:0,0:0:0:0:
253,190,44023,1,0,0:0:0:0:
227,55,44186,2,0,B|147:56|147:56|146:112|83:136,1,160,2|0,0:2|0:0,0:0:0:0:
68,57,44672,1,8,0:0:0:0:
201,132,44834,6,0,L|291:132,1,80,2|2,0:2|0:3,0:0:0:0:
318,60,45159,1,4,0:3:0:0:
398,56,45321,2,0,L|488:56,1,80,8|2,0:0|0:2,0:0:0:0:
487,73,45564,1,0,0:0:0:0:
497,90,45645,2,0,P|506:143|490:183,1,80,8|2,0:3|0:2,0:0:0:0:
435,216,45969,2,0,L|349:216,1,80,8|2,0:3|0:2,0:0:0:0:
275,216,46294,6,0,B|248:280|304:280|276:347,2,136.000002593994,2|4|2,0:2|0:3|0:2,0:0:0:0:
318,60,47267,1,0,0:0:0:0:
361,127,47429,1,2,0:3:0:0:
361,127,47510,1,0,0:0:0:0:
361,127,47591,6,0,L|352:195,1,68.0000012969971,4|2,0:3|0:2,0:0:0:0:
275,216,47915,2,0,L|284:284,1,68.0000012969971,4|0,0:3|0:0,0:0:0:0:
204,303,48240,2,0,L|195:371,2,68.0000012969971,2|0|2,0:3|0:0|0:2,0:0:0:0:
190,222,48726,1,0,0:0:0:0:
190,222,48807,1,0,0:0:0:0:
190,222,48888,6,0,P|206:166|279:130,2,136.000002593994,4|8|2,0:3|0:3|0:3,0:0:0:0:
275,216,49699,1,0,0:0:0:0:
322,286,49861,2,0,L|415:277,1,68.0000012969971,0|2,0:0|0:2,0:0:0:0:
398,265,50105,1,0,0:0:0:0:
406,250,50186,6,0,B|435:189|435:189|412:155|420:107,1,136.000002593994,4|8,0:3|0:3,0:0:0:0:
275,216,50834,2,0,P|247:247|240:295,1,68.0000012969971,2|0,0:2|0:0,0:0:0:0:
263,350,51159,2,0,P|216:351|184:329,1,68.0000012969971,2|0,0:2|0:0,0:0:0:0:
159,270,51483,5,2,0:2:0:0:
159,270,51807,2,0,B|132:208|184:208|156:136,2,136.000002593994,0|2|2,0:0|0:3|0:2,0:0:0:0:
353,270,52780,5,4,0:3:0:0:
353,270,53105,2,0,B|380:208|328:208|356:136,2,136.000002593994,0|2|2,3:0|3:0|0:2,0:0:0:0:
291,324,53915,1,0,0:0:0:0:
291,324,53996,1,0,0:0:0:0:
291,324,54077,6,0,L|207:324,1,68.0000012969971,4|0,0:3|0:0,0:0:0:0:
256,249,54402,2,0,B|248:212|248:212|264:148|264:148|256:112,1,136.000002593994,8|2,0:3|0:3,0:0:0:0:
232,38,54888,1,0,0:0:0:0:
151,19,55050,2,0,P|121:36|101:63,1,68.0000012969971,2|0,0:2|0:0,0:0:0:0:
114,141,55375,6,0,L|130:245,1,80,4|0,0:2|0:0,0:0:0:0:
46,210,55699,2,0,L|33:289,1,80,8|0,0:3|0:0,0:0:0:0:
113,302,56023,2,0,P|190:323|269:286,1,160,2|8,0:3|0:0,0:0:0:0:
308,228,56510,1,2,0:2:0:0:
308,228,56591,1,0,0:0:0:0:
308,228,56672,6,0,L|395:215,1,80,2|0,0:3|0:0,0:0:0:0:
344,147,56996,2,0,L|423:135,1,80,8|0,0:0|0:0,0:0:0:0:
304,77,57321,2,0,L|217:90,1,80,2|0,0:3|0:0,0:0:0:0:
268,158,57645,2,0,L|181:171,1,80,8|0,0:0|0:0,0:0:0:0:
109,181,57969,6,0,P|129:225|189:246,1,80,2|0,0:3|0:0,0:0:0:0:
124,316,58294,2,0,P|172:320|220:279,1,80,8|0,0:0|0:0,0:0:0:0:
248,370,58618,2,0,P|276:330|264:268,1,80,2|0,0:3|0:0,0:0:0:0:
356,289,58942,2,0,P|336:245|276:223,1,80,8|0,0:0|0:0,0:0:0:0:
224,88,59267,6,0,L|145:100,1,80,2|0,0:3|0:0,0:0:0:0:
109,181,59591,2,0,L|188:192,1,80,8|0,0:0|0:0,0:0:0:0:
285,267,59915,2,0,L|205:278,1,80,2|0,0:3|0:0,0:0:0:0:
169,359,60240,2,0,L|248:370,1,80,8|0,0:0|0:0,0:0:0:0:
118,287,60564,5,8,0:3:0:0:
81,367,60726,1,0,3:0:0:0:
81,367,60807,1,0,3:0:0:0:
81,367,60888,1,8,3:0:0:0:
30,294,61050,1,0,0:3:0:0:
30,294,61132,1,0,0:0:0:0:
30,294,61213,2,0,P|45:237|90:201,1,80,4|0,0:3|0:0,0:0:0:0:
169,359,61537,2,0,L|276:351,1,80,8|0,3:0|0:0,0:0:0:0:
361,274,61861,6,0,L|282:280,1,80,4|0,0:3|0:0,0:0:0:0:
154,219,62186,1,8,0:0:0:0:
236,213,62348,2,0,L|276:209,2,40,0|0|2,0:0|0:0|0:3,0:0:0:0:
201,288,62672,1,0,3:0:0:0:
188,145,62834,2,0,L|267:139,1,80,8|0,0:0|0:0,0:0:0:0:
140,77,63159,6,0,L|60:82,1,80,2|0,0:2|0:0,0:0:0:0:
74,224,63483,2,0,L|153:218,1,80,8|0,0:0|0:0,0:0:0:0:
281,282,63807,2,0,L|201:287,2,80,4|0|8,0:3|0:0|0:3,0:0:0:0:
318,205,64294,1,0,0:0:0:0:
318,205,64375,1,0,0:0:0:0:
318,205,64456,6,0,B|341:128|270:75|270:75|190:163|145:56|52:129,1,383.99998828125,4|0,0:2|2:0,0:0:0:0:
199,207,67050,6,0,L|210:312,2,80,4|0|8,0:2|0:0|0:0,0:0:0:0:
189,127,67537,1,2,0:2:0:0:
189,127,67618,1,0,0:0:0:0:
189,126,67699,2,0,P|228:129|260:152,1,80,2|4,0:3|0:3,0:0:0:0:
358,209,68023,1,8,0:0:0:0:
337,132,68186,1,2,0:3:0:0:
281,230,68348,6,0,P|320:280|424:253,1,160,2|8,0:2|0:0,0:0:0:0:
337,132,68834,2,0,L|316:62,2,40,0|0|2,0:0|0:0|0:3,0:0:0:0:
435,188,69159,1,4,0:3:0:0:
414,111,69321,1,8,0:0:0:0:
358,209,69483,1,2,3:0:0:0:
260,152,69645,6,0,L|164:178,1,80,4|0,0:2|0:0,0:0:0:0:
281,230,69969,1,8,0:0:0:0:
414,152,70132,1,2,0:2:0:0:
414,152,70213,1,0,0:0:0:0:
414,152,70294,1,2,0:3:0:0:
337,132,70456,1,4,3:0:0:0:
337,286,70618,2,0,P|386:283|421:256,1,80,8|2,0:0|3:0,0:0:0:0:
281,230,70942,6,0,L|185:256,2,80,2|0|8,0:2|3:0|0:0,0:0:0:0:
414,152,71429,2,0,L|462:139,2,40,0|0|2,0:0|0:0|0:3,0:0:0:0:
358,209,71753,1,4,0:3:0:0:
376,78,71915,1,8,0:0:0:0:
286,173,72077,1,2,0:3:0:0:
297,93,72240,6,0,P|233:58|138:74,1,160,4|8,0:2|0:0,0:0:0:0:
90,121,72726,1,0,0:0:0:0:
90,121,72807,1,0,0:0:0:0:
90,121,72888,1,2,0:2:0:0:
141,220,73050,1,0,3:0:0:0:
165,145,73213,1,8,0:0:0:0:
66,196,73375,6,0,P|66:245|158:298,1,160,4|2,0:3|3:0,0:0:0:0:
274,199,73861,1,8,0:0:0:0:
203,170,74023,1,0,0:0:0:0:
203,170,74105,1,0,0:0:0:0:
203,170,74186,2,0,L|135:224,1,80,2|0,0:3|0:0,0:0:0:0:
287,277,74510,1,8,0:0:0:0:
274,199,74672,1,0,0:0:0:0:
225,327,74834,6,0,P|280:356|365:289,1,160,2|8,0:3|0:0,0:0:0:0:
352,186,75321,2,0,L|394:125,2,40,2|0|2,0:2|0:0|0:3,0:0:0:0:
287,277,75645,1,8,3:0:0:0:
203,170,75807,1,8,0:0:0:0:
274,199,75969,1,0,0:0:0:0:
322,76,76132,6,0,L|361:-24,1,80,8|0,0:3|3:0,0:0:0:0:
191,95,76456,2,0,L|123:10,1,80,8|2,0:0|0:2,0:0:0:0:
133,143,76780,2,0,L|110:199,3,40,4|0|0|0,3:3|3:0|3:0|3:0,0:0:0:0:
217,207,77105,2,0,L|202:169,3,40,8|0|0|0,3:0|3:0|3:0|3:0,0:0:0:0:
167,269,77429,6,0,P|231:285|296:208,1,160,4|8,0:2|0:0,0:0:0:0:
323,91,77915,2,0,L|362:47,2,40,0|0|0,0:0|0:0|0:0,0:0:0:0:
270,149,78240,1,0,3:0:0:0:
369,242,78402,1,8,0:0:0:0:
347,167,78564,1,2,0:2:0:0:
315,298,78726,6,0,P|388:317|445:255,1,160,2|8,0:2|0:0,0:0:0:0:
293,223,79213,2,0,P|250:253|238:294,1,80,2|2,0:2|0:3,0:0:0:0:
256,355,79537,1,4,0:3:0:0:
315,298,79699,1,8,0:0:0:0:
177,332,79861,1,0,0:0:0:0:
177,332,79942,1,0,0:0:0:0:
177,332,80023,6,0,L|100:309,1,80,2|0,0:2|0:0,0:0:0:0:
23,286,80348,1,8,0:0:0:0:
159,253,80510,2,0,L|235:230,1,80,0|2,0:0|0:3,0:0:0:0:
313,207,80834,1,0,0:0:0:0:
274,75,80996,1,8,0:0:0:0:
255,153,81159,1,0,0:0:0:0:
351,52,81321,6,0,P|320:10|294:-2,2,80,2|4|8,0:2|0:3|0:0,0:0:0:0:
388,183,81807,2,0,L|379:257,2,40,2|0|8,0:2|0:0|0:3,0:0:0:0:
330,131,82132,1,2,0:2:0:0:
235,230,82294,1,8,0:0:0:0:
255,153,82456,1,2,0:2:0:0:
289,289,82618,6,0,P|214:305|160:251,1,160,4|8,0:2|0:0,0:0:0:0:
177,133,83105,2,0,L|196:60,2,40,2|0|2,0:2|0:0|0:3,0:0:0:0:
235,230,83429,1,0,0:0:0:0:
330,131,83591,1,0,0:0:0:0:
311,206,83753,1,4,0:3:0:0:
274,77,83915,6,0,L|356:47,2,80,2|0|8,0:2|0:0|0:0,0:0:0:0:
177,133,84402,1,2,0:2:0:0:
235,230,84564,1,4,0:3:0:0:
255,153,84726,1,0,0:0:0:0:
157,210,84888,2,0,P|158:259|196:301,1,80,8|2,0:0|0:3,0:0:0:0:
249,312,85213,6,0,L|322:339,3,40,8|0|2|0,0:3|0:0|0:2|0:0,0:0:0:0:
315,251,85537,2,0,L|391:237,3,40,2|0|4|0,0:3|0:0|0:3|0:0,0:0:0:0:
341,165,85861,1,8,0:3:0:0:
339,135,85942,1,0,0:0:0:0:
328,107,86023,1,0,0:0:0:0:
309,84,86105,1,0,0:0:0:0:
283,70,86186,1,8,0:3:0:0:
177,133,86348,1,4,0:3:0:0:
315,251,86510,6,0,P|372:251|408:228,1,80,2|0,0:2|0:0,0:0:0:0:
255,153,86834,1,4,0:3:0:0:
249,312,86996,2,0,P|299:341|348:333,1,80,2|2,0:2|0:3,0:0:0:0:
235,230,87321,1,4,0:3:0:0:
235,230,87402,1,0,0:0:0:0:
235,230,87483,2,0,P|184:258|167:305,1,80,2|8,0:2|0:3,0:0:0:0:
175,353,87807,6,0,P|139:287|63:290,1,160,6|8,0:2|0:3,0:0:0:0:
175,353,88294,2,0,L|338:340,1,160,2|4,0:2|0:3,0:0:0:0:
372,269,88780,1,8,0:0:0:0:
247,203,88942,6,0,P|213:244|214:295,1,80,2|0,0:3|0:0,0:0:0:0:
329,200,89267,2,0,P|310:150|190:142,1,160,0|0,0:0|2:0,0:0:0:0:
291,272,89753,2,0,L|393:269,2,80,2|4|8,0:2|0:3|0:0,0:0:0:0:
253,344,90240,1,0,0:0:0:0:
253,344,90321,1,0,0:0:0:0:
253,344,90402,6,0,L|60:349,1,160,2|8,0:2|0:0,0:0:0:0:
87,198,90888,2,0,L|246:202,1,160,2|4,0:2|0:3,0:0:0:0:
287,134,91375,1,8,0:0:0:0:
169,60,91537,6,0,L|220:158,1,80,2|0,0:3|0:0,0:0:0:0:
325,204,91861,2,0,P|362:159|314:59,1,160,0|0,0:0|0:0,0:0:0:0:
246,202,92348,2,0,P|263:254|309:278,1,80,2|4,0:2|0:3,0:0:0:0:
287,134,92672,1,8,0:0:0:0:
96,164,92996,6,0,P|117:239|180:288,1,160,2|8,0:2|0:0,0:0:0:0:
332,288,93483,2,0,P|394:239|415:164,1,160,2|4,0:2|0:3,0:0:0:0:
287,134,93969,1,8,0:0:0:0:
202,210,94132,6,0,L|180:287,1,80,2|0,0:3|0:0,0:0:0:0:
332,288,94456,2,0,L|283:121,1,160,0|0,0:0|2:0,0:0:0:0:
262,57,94942,2,0,P|228:76|211:111,2,80,2|4|8,0:2|0:3|0:0,0:0:0:0:
340,77,95429,1,0,0:0:0:0:
340,77,95510,1,0,0:0:0:0:
340,76,95591,6,0,L|417:96,1,80,2|0,0:2|0:0,0:0:0:0:
381,167,95915,2,0,L|403:243,1,80,8|0,0:0|0:0,0:0:0:0:
345,323,96240,1,2,0:2:0:0:
246,269,96402,1,4,0:3:0:0:
323,247,96564,1,8,0:0:0:0:
268,346,96726,6,0,P|217:345|175:309,1,80,2|0,0:2|0:0,0:0:0:0:
246,269,97050,1,2,0:3:0:0:
400,266,97213,2,0,P|424:319|410:369,1,80,8|0,0:0|0:0,0:0:0:0:
323,247,97537,1,8,0:3:0:0:
317,227,97618,1,0,0:0:0:0:
312,208,97699,1,0,0:0:0:0:
306,189,97780,1,0,0:0:0:0:
301,170,97861,2,0,L|209:147,1,80,8|0,0:3|0:0,0:0:0:0:
145,131,98186,6,0,L|90:188,1,80,2|0,0:3|0:0,0:0:0:0:
34,246,98510,2,0,P|79:268|133:252,1,80,8|0,0:0|0:0,0:0:0:0:
171,217,98834,2,0,B|255:212|255:212|352:263,1,160,2|8,0:3|0:0,0:0:0:0:
400,266,99321,1,0,0:0:0:0:
455,207,99483,6,0,P|438:134|351:110,1,160,2|8,0:3|0:0,0:0:0:0:
299,157,99969,1,0,0:0:0:0:
299,157,100050,1,0,0:0:0:0:
299,157,100132,1,2,0:2:0:0:
376,188,100294,1,4,0:3:0:0:
287,74,100456,2,0,P|251:87|219:133,1,80,8|0,0:0|0:0,0:0:0:0:
310,239,100780,6,0,B|241:281|241:281|141:263,2,160,6|8|2,0:3|0:0|0:2,0:0:0:0:
376,188,101591,1,2,0:3:0:0:
299,157,101753,1,8,0:0:0:0:
387,270,101915,6,0,P|434:246|442:137,1,160,2|4,0:3|0:3,0:0:0:0:
287,74,102402,2,0,P|251:87|219:133,1,80,8|0,0:0|0:0,0:0:0:0:
221,137,102645,1,0,0:0:0:0:
218,157,102726,2,0,L|120:164,1,80,2|4,0:2|0:3,0:0:0:0:
263,225,103050,2,0,P|289:195|299:157,1,80,8|0,0:0|0:0,0:0:0:0:
181,230,103375,6,0,B|186:274|216:302|248:306|248:306|273:368,1,160,2|8,0:2|0:0,0:0:0:0:
343,376,103861,2,0,P|355:324|468:303,1,160,2|0,0:2|0:0,0:0:0:0:
503,234,104348,1,8,0:0:0:0:
400,137,104510,1,0,0:0:0:0:
424,215,104672,6,0,L|473:375,1,160,2|8,0:2|0:0,0:0:0:0:
503,234,105159,2,0,L|342:283,1,160,2|0,0:2|0:0,0:0:0:0:
212,248,105645,1,8,0:0:0:0:
290,225,105807,1,0,0:0:0:0:
191,327,105969,6,0,P|157:346|94:341,1,80,2|0,0:3|0:0,0:0:0:0:
134,271,106294,1,8,0:0:0:0:
270,304,106456,2,0,B|328:358|328:358|368:322|437:346,1,160,2|8,0:2|0:3,0:0:0:0:
477,369,106942,1,8,0:0:0:0:
503,234,107105,2,0,L|478:153,1,80,8|0,0:3|0:0,0:0:0:0:
401,140,107429,6,0,L|383:82,2,60.0000022888184,0|0|0,2:2|0:0|0:0,0:0:0:0:
350,201,107915,1,2,2:0:0:0:
271,187,108077,1,0,2:0:0:0:
243,111,108240,2,0,L|184:97,1,60.0000022888184,2|0,2:0|0:0,0:0:0:0:
131,37,108564,6,0,B|159:121|99:121|130:192,1,160,4|8,0:2|0:0,0:0:0:0:
156,268,109050,1,0,0:0:0:0:
285,223,109213,2,0,P|252:207|189:216,1,80,4|0,0:3|0:0,0:0:0:0:
310,297,109537,1,8,0:0:0:0:
361,238,109699,1,2,0:3:0:0:
234,282,109861,6,8,P|238:329|280:369,1,80,2|0,0:2|0:0,0:0:0:0:
386,311,110186,2,0,L|473:327,1,80,8|2,0:0|0:2,0:0:0:0:
361,238,110510,1,4,0:3:0:0:
310,297,110672,1,0,0:0:0:0:
335,164,110834,2,0,L|305:80,1,80,8|0,0:0|0:0,0:0:0:0:
207,206,111159,6,0,L|236:289,1,80,4|0,0:2|0:0,0:0:0:0:
128,191,111483,2,0,L|49:177,1,80,8|0,0:0|0:0,0:0:0:0:
42,158,111726,1,0,0:0:0:0:
35,139,111807,2,0,P|83:93|183:98,1,160,4|8,0:3|0:0,0:0:0:0:
243,129,112294,6,0,L|356:119,2,80,2|0|2,0:2|0:0|0:2,0:0:0:0:
207,206,112780,2,0,L|94:216,1,80,8|2,0:0|0:2,0:0:0:0:
11,297,113105,2,0,L|91:290,1,80,4|0,0:3|0:0,0:0:0:0:
163,324,113429,1,8,0:0:0:0:
231,283,113591,1,0,0:0:0:0:
231,283,113672,1,0,0:0:0:0:
231,283,113753,6,0,B|287:283|287:283|337:304|337:304|389:304,1,160,2|8,0:2|0:0,0:0:0:0:
430,236,114240,2,0,B|470:236,2,40,2|0|4,0:2|0:0|0:3,0:0:0:0:
369,183,114564,1,0,0:0:0:0:
463,81,114726,2,0,P|463:121|446:157,1,80,8|2,0:0|0:2,0:0:0:0:
307,130,115050,6,0,B|247:117|247:117|132:158,1,160,4|8,0:2|0:0,0:0:0:0:
144,229,115537,2,0,B|106:242,2,40,2|0|4,0:2|0:0|0:3,0:0:0:0:
220,205,115861,1,0,0:0:0:0:
86,174,116023,2,0,P|47:200|36:248,1,80,8|2,0:0|0:2,0:0:0:0:
38,249,116267,1,0,0:0:0:0:
40,269,116348,6,0,B|68:323|131:309|131:309|165:335|212:312,1,160,2|8,0:3|0:0,0:0:0:0:
248,282,116834,2,0,P|292:246|300:189,1,80,2|4,0:2|0:3,0:0:0:0:
240,125,117159,1,0,0:0:0:0:
220,205,117321,1,8,0:0:0:0:
320,145,117483,1,0,0:0:0:0:
320,145,117564,1,0,0:0:0:0:
320,145,117645,6,0,L|422:171,1,80,8|0,0:3|0:0,0:0:0:0:
377,85,117969,2,0,L|450:9,1,80,8|0,0:3|0:0,0:0:0:0:
296,65,118294,1,12,0:3:0:0:
240,125,118456,1,0,0:0:0:0:
263,203,118618,1,2,3:2:0:0:
206,261,118780,1,0,3:0:0:0:
127,240,118942,6,0,P|104:202|134:121,2,136.000002593994,2|8|2,0:2|0:3|0:2,0:0:0:0:
341,223,119915,2,0,L|426:243,1,68.0000012969971,0|0,0:0|0:0,0:0:0:0:
411,254,120159,1,0,0:0:0:0:
416,270,120240,6,0,L|501:290,1,68.0000012969971,2|0,0:3|0:0,0:0:0:0:
423,351,120564,2,0,L|356:335,1,68.0000012969971,8|0,0:3|0:0,0:0:0:0:
284,317,120888,2,0,L|230:358,1,68.0000012969971,4|0,0:3|0:0,0:0:0:0:
274,242,121213,2,0,L|264:174,1,68.0000012969971,2|0,0:2|0:0,0:0:0:0:
248,167,121456,1,0,0:0:0:0:
232,161,121537,6,0,L|222:93,1,68.0000012969971,2|0,0:3|0:0,0:0:0:0:
151,114,121861,2,0,L|141:181,1,68.0000012969971,8|0,0:3|0:0,0:0:0:0:
132,255,122186,2,0,P|78:221|76:145,1,136.000002593994,0|2,0:0|0:3,0:0:0:0:
80,79,122672,1,0,0:0:0:0:
80,79,122753,1,0,0:0:0:0:
80,79,122834,6,0,P|117:43|212:64,1,136.000002593994,4|4,0:3|0:3,0:0:0:0:
314,84,123483,6,0,L|383:80,2,55.9999982910157,2|0|2,0:2|0:0|2:0,0:0:0:0:
212,193,124132,5,2,0:2:0:0:
212,193,124456,2,0,L|191:340,2,136.000002593994,2|4|2,0:3|0:3|0:2,0:0:0:0:
280,162,125267,1,0,0:0:0:0:
280,162,125348,1,0,0:0:0:0:
280,162,125429,6,0,L|396:253,2,136.000002593994,4|2|8,0:3|3:0|0:3,0:0:0:0:
139,111,126402,2,0,L|82:177,1,68.0000012969971,2|0,0:2|0:0,0:0:0:0:
95,178,126645,1,0,0:0:0:0:
96,195,126726,6,0,L|39:261,1,68.0000012969971,0|8,0:0|0:3,0:0:0:0:
77,346,127050,1,0,0:0:0:0:
114,282,127213,1,4,0:3:0:0:
141,383,127375,1,0,0:0:0:0:
178,319,127537,1,8,0:3:0:0:
288,382,127699,1,0,0:0:0:0:
287,255,127861,1,4,0:3:0:0:
214,383,128023,5,12,0:3:0:0:
251,319,128186,1,0,0:0:0:0:
114,282,128348,2,0,L|72:355,1,68.0000012969971,4|0,0:3|0:0,0:0:0:0:
178,245,128672,2,0,L|220:172,1,68.0000012969971,2|0,0:2|0:0,0:0:0:0:
227,185,128915,1,0,0:0:0:0:
245,186,128996,2,0,L|287:113,1,68.0000012969971,2|2,0:3|0:2,0:0:0:0:
294,126,129240,1,0,0:0:0:0:
312,127,129321,6,0,L|351:57,1,80,4|0,0:2|0:0,0:0:0:0:
388,150,129645,2,0,L|472:149,1,80,8|0,0:0|0:0,0:0:0:0:
406,227,129969,2,0,L|448:299,1,80,2|0,0:3|0:0,0:0:0:0:
348,281,130294,2,0,L|306:354,1,80,8|0,0:0|0:0,0:0:0:0:
213,360,130618,6,0,L|253:291,1,80,2|0,0:3|0:0,0:0:0:0:
203,216,130942,2,0,L|283:216,1,80,8|0,0:0|0:0,0:0:0:0:
322,135,131267,2,0,L|362:204,1,80,2|0,0:2|0:0,0:0:0:0:
451,197,131591,2,0,L|411:266,1,80,8|0,0:0|0:0,0:0:0:0:
370,335,131915,6,0,B|330:342|330:342|280:304,1,80,2|0,0:3|0:0,0:0:0:0:
190,266,132240,2,0,B|230:273|230:273|280:235,1,80,8|0,0:0|0:0,0:0:0:0:
367,193,132564,2,0,B|327:200|327:200|296:177,1,80,2|0,0:2|0:0,0:0:0:0:
188,124,132888,2,0,B|228:131|228:131|259:107,1,80,8|0,0:0|0:0,0:0:0:0:
137,61,133213,6,0,P|108:116|165:202,1,160,4|8,0:3|0:3,0:0:0:0:
160,213,133618,1,0,0:0:0:0:
170,230,133699,1,2,0:3:0:0:
180,248,133780,1,0,0:0:0:0:
190,265,133861,2,0,L|293:279,1,80,8|0,0:3|0:0,0:0:0:0:
302,349,134186,2,0,L|381:338,1,80,12|2,0:3|0:2,0:0:0:0:
361,198,134510,5,2,0:3:0:0:
411,262,134672,1,0,0:0:0:0:
470,109,134834,2,0,P|451:66|400:42,1,80,8|8,0:0|0:3,0:0:0:0:
405,52,135077,1,0,0:0:0:0:
386,57,135159,2,0,L|289:80,1,80,8|2,0:3|0:3,0:0:0:0:
200,130,135483,2,0,L|278:149,1,80,4|8,0:3|0:3,0:0:0:0:
284,167,135726,1,0,0:0:0:0:
291,186,135807,6,0,L|368:204,1,80,8|0,0:3|0:0,0:0:0:0:
478,230,136132,1,8,0:0:0:0:
436,162,136294,1,0,0:0:0:0:
410,272,136456,2,0,L|391:349,1,80,0|8,0:0|0:3,0:0:0:0:
309,263,136780,2,0,L|290:185,1,80,8|0,0:3|0:0,0:0:0:0:
208,253,137105,6,0,B|179:297|179:297|142:267|96:288|96:288|85:294|73:299|57:298|46:293|25:283|17:258|18:226|48:203|84:211|84:211|134:222|169:184|168:144,1,420.000016021729,0|0,0:0|0:0,0:0:0:0:
159,82,138402,6,0,L|257:63,1,80,0|0,3:0|0:0,0:0:0:0:
253,78,138645,1,0,3:0:0:0:
269,90,138726,1,0,3:0:0:0:
362,152,138888,1,0,3:0:0:0:
347,74,139050,1,0,3:0:0:0:
284,167,139213,1,0,3:0:0:0:
287,186,139294,1,0,3:0:0:0:
291,206,139375,6,0,L|279:322,1,111.999996582031,2|0,3:0|3:0,0:0:0:0:
133,315,139699,6,0,L|207:283,1,80,4|0,0:0|0:0,0:0:0:0:
151,154,140023,1,8,0:0:0:0:
77,187,140186,1,0,0:0:0:0:
77,187,140267,1,0,0:0:0:0:
77,187,140348,1,2,0:3:0:0:
142,235,140510,1,4,0:3:0:0:
225,121,140672,2,0,P|198:86|158:74,1,80,8|0,0:0|0:0,0:0:0:0:
216,201,140996,6,0,P|259:195|290:166,1,80,2|0,0:2|0:0,0:0:0:0:
373,55,141321,1,8,0:0:0:0:
299,87,141483,2,0,L|239:81,2,40,2|0|2,0:2|0:0|0:3,0:0:0:0:
365,136,141807,1,4,0:3:0:0:
446,21,141969,2,0,L|373:55,1,80,8|0,0:0|0:0,0:0:0:0:
290,168,142294,6,0,B|280:212|280:212|296:284|296:284|284:340,1,160,4|8,0:2|0:0,0:0:0:0:
212,352,142780,1,2,0:2:0:0:
212,352,142861,1,0,0:0:0:0:
212,352,142942,2,0,B|175:330|175:330|125:335,1,80,2|4,0:3|0:3,0:0:0:0:
5,293,143267,1,8,0:0:0:0:
60,352,143429,1,0,0:0:0:0:
161,255,143591,6,0,B|192:250|192:250|303:320,1,160,2|8,0:2|0:0,0:0:0:0:
379,300,144077,2,0,B|412:321,2,40,2|0|2,0:2|0:0|0:3,0:0:0:0:
346,227,144402,1,4,0:3:0:0:
458,158,144564,1,8,0:0:0:0:
425,231,144726,1,0,0:0:0:0:
313,154,144888,6,0,B|236:128|236:172|156:148,2,160,4|8|2,0:2|0:0|0:3,0:0:0:0:
425,231,145699,1,4,0:3:0:0:
396,96,145861,1,0,0:0:0:0:
346,227,146023,6,0,P|358:277|465:301,1,160,2|2,0:3|0:2,0:0:0:0:
458,158,146510,1,8,0:0:0:0:
425,231,146672,1,0,0:0:0:0:
396,96,146834,2,0,L|488:67,2,80,2|4|8,0:3|0:3|0:0,0:0:0:0:
320,123,147321,1,0,0:0:0:0:
258,70,147483,6,0,B|215:64|185:111|185:111|207:178,2,160,4|8|2,0:2|0:0|0:3,0:0:0:0:
320,123,148294,1,4,0:3:0:0:
236,253,148456,2,0,P|197:258|159:243,1,80,8|2,0:0|0:3,0:0:0:0:
92,203,148780,6,0,P|116:234|122:273,1,80,0|2,0:0|0:2,0:0:0:0:
162,165,149105,2,0,L|241:168,1,80,8|2,0:0|0:2,0:0:0:0:
252,79,149429,2,0,L|319:122,1,80,2|4,0:3|0:3,0:0:0:0:
372,49,149753,2,0,L|408:120,1,80,8|0,0:0|0:0,0:0:0:0:
490,83,150077,6,0,L|485:177,1,80,4|0,0:2|0:0,0:0:0:0:
424,284,150402,1,8,0:0:0:0:
326,154,150564,2,0,L|406:158,1,80,0|2,0:0|0:3,0:0:0:0:
296,229,150888,1,4,0:3:0:0:
276,90,151050,1,8,0:0:0:0:
357,78,151213,1,0,0:0:0:0:
244,166,151375,6,0,P|222:198|216:238,1,80,2|0,0:2|0:0,0:0:0:0:
296,229,151699,1,8,0:0:0:0:
276,90,151861,2,0,P|236:87|199:101,1,80,0|2,0:0|0:3,0:0:0:0:
326,154,152186,1,4,0:3:0:0:
439,66,152348,1,8,0:0:0:0:
357,78,152510,1,0,0:0:0:0:
375,218,152672,6,0,L|338:310,1,80,4|0,0:2|0:0,0:0:0:0:
326,154,152996,1,8,0:0:0:0:
490,131,153159,2,0,P|484:177|443:220,1,80,2|2,0:2|0:3,0:0:0:0:
326,154,153483,1,4,0:3:0:0:
439,66,153645,1,8,0:0:0:0:
408,143,153807,1,0,0:0:0:0:
276,90,153969,6,0,P|236:87|199:101,1,80,2|0,0:3|0:0,0:0:0:0:
296,229,154294,1,8,0:0:0:0:
357,78,154456,2,0,P|342:42|311:15,1,80,0|8,0:0|0:3,0:0:0:0:
244,166,154780,1,4,0:3:0:0:
375,218,154942,2,0,L|472:202,1,80,8|0,0:0|0:0,0:0:0:0:
461,186,155186,1,0,0:0:0:0:
469,168,155267,6,0,L|505:75,1,80,4|0,0:2|0:0,0:0:0:0:
357,78,155591,2,0,L|295:0,1,80,8|2,0:0|0:2,0:0:0:0:
244,166,155915,1,2,0:3:0:0:
296,229,156077,1,4,0:3:0:0:
185,316,156240,1,8,0:0:0:0:
215,241,156402,1,4,0:3:0:0:
347,291,156564,6,0,L|403:358,1,80,2|0,0:2|0:0,0:0:0:0:
375,218,156888,1,0,0:0:0:0:
244,166,157050,1,2,0:2:0:0:
244,166,157132,1,0,0:0:0:0:
244,166,157213,1,2,0:3:0:0:
296,229,157375,1,4,0:3:0:0:
271,88,157537,2,0,B|253:80|253:80|185:90,1,80,8|0,0:0|0:0,0:0:0:0:
62,153,157861,6,0,L|46:192,3,40,8|0|0|0,3:0|3:0|3:0|3:0,0:0:0:0:
137,253,158186,2,0,L|122:215,3,40,0|0|8|0,3:0|0:0|3:0|3:0,0:0:0:0:
61,268,158510,2,0,L|45:307,3,40,0|0|0|0,3:0|3:0|3:0|0:0,0:0:0:0:
115,330,158834,1,8,0:3:0:0:
134,332,158915,1,0,0:0:0:0:
154,330,158996,1,4,0:3:0:0:
173,323,159077,1,0,0:0:0:0:
190,313,159159,6,0,L|253:328,2,53.3333333333333,8|0|0,3:0|3:0|3:0,0:0:0:0:
279,259,159483,2,0,L|241:223,2,53.3333333333333,4|0|0,3:0|3:0|3:0,0:0:0:0:
330,170,159807,2,0,L|348:232,2,53.3333333333333,8|0|0,3:0|3:0|3:0,0:0:0:0:
420,219,160132,2,0,L|433:168,2,53.3333333333333,4|0|0,3:0|3:0|3:0,0:0:0:0:
381,106,160456,5,2,3:2:0:0:
104,244,170834,6,0,L|113:323,1,80,2|0,0:3|0:0,0:0:0:0:
180,218,171159,2,0,L|192:318,1,80,0|0,0:0|0:0,0:0:0:0:
256,192,171483,2,0,L|268:292,1,80,2|0,0:0|0:0,0:0:0:0:
196,140,171807,2,0,P|240:114|298:123,1,80,0|0,0:0|0:0,0:0:0:0:
408,244,172132,6,0,L|398:323,1,80,2|0,0:0|0:0,0:0:0:0:
332,218,172456,2,0,L|320:318,1,80,0|0,0:0|0:0,0:0:0:0:
256,192,172780,2,0,L|244:292,1,80,2|0,0:0|0:0,0:0:0:0:
316,140,173105,2,0,P|272:114|214:123,1,80,0|0,0:0|0:0,0:0:0:0:
104,244,173429,6,0,L|113:323,1,80,4|0,0:2|0:0,0:0:0:0:
168,196,173753,1,0,0:0:0:0:
83,84,173915,2,0,L|26:59,2,40,2|0|0,0:0|0:0|0:0,0:0:0:0:
158,116,174240,1,0,0:0:0:0:
222,66,174402,1,0,0:0:0:0:
241,74,174483,1,0,0:0:0:0:
259,82,174564,1,0,0:0:0:0:
278,90,174645,1,0,0:0:0:0:
296,96,174726,6,0,B|379:138|460:133|454:54|421:23|353:37|377:90,1,240.000009155274,2|2,0:2|0:2,0:0:0:0:
232,258,175699,2,0,L|193:211,1,60.0000022888184,2|0,0:2|0:0,0:0:0:0:
187,324,176023,6,0,P|243:337|311:260,1,160,2|8,0:2|0:0,0:0:0:0:
387,197,176510,2,0,P|342:259|371:330,1,160,2|4,0:3|0:3,0:0:0:0:
422,269,176996,2,0,L|505:254,1,80,8|0,0:0|0:0,0:0:0:0:
432,131,177321,6,0,B|414:118|403:98|403:98|395:109|395:109|340:89|286:134,1,160,2|8,0:2|0:0,0:0:0:0:
176,165,177807,2,0,B|180:218|236:220|236:220|303:204,1,160,2|4,0:2|0:3,0:0:0:0:
224,101,178294,2,0,P|187:86|122:109,1,80,8|0,0:0|0:0,0:0:0:0:
116,227,178618,6,0,L|98:340,1,80,2|0,0:2|0:0,0:0:0:0:
154,367,178942,1,8,0:0:0:0:
231,353,179105,1,0,0:0:0:0:
257,279,179267,2,0,B|275:228|275:228|327:218,1,80,2|4,0:3|0:3,0:0:0:0:
300,143,179591,2,0,B|274:138|274:138|256:87,1,80,8|0,0:0|0:0,0:0:0:0:
423,85,179915,6,0,B|405:136|405:136|380:141,1,80,2|0,0:2|0:0,0:0:0:0:
379,221,180240,2,0,B|404:225|404:225|422:276,1,80,8|0,0:0|0:0,0:0:0:0:
447,352,180564,2,0,P|488:323|501:281,2,80,2|4|8,0:3|0:3|0:0,0:0:0:0:
367,337,181050,1,0,0:0:0:0:
257,248,181213,6,0,B|168:263,2,80,2|0|8,0:2|0:0|0:0,0:0:0:0:
284,172,181699,2,0,B|372:156,1,80,2|2,0:2|0:3,0:0:0:0:
389,81,182023,1,4,0:3:0:0:
230,110,182186,2,0,P|207:141|204:181,1,80,8|0,0:0|0:0,0:0:0:0:
311,95,182510,6,0,P|295:58|263:36,2,80,2|0|8,0:2|0:0|0:0,0:0:0:0:
284,172,182996,2,0,B|253:256,1,80,2|2,0:2|0:3,0:0:0:0:
230,110,183321,1,4,0:3:0:0:
365,157,183483,2,0,B|449:188,1,80,8|0,0:0|0:0,0:0:0:0:
332,4,183807,6,0,B|248:35,1,80,2|4,0:2|0:3,0:0:0:0:
284,172,184132,1,4,0:3:0:0:
386,67,184294,2,0,B|302:98,1,80,4|4,0:2|0:3,0:0:0:0:
338,234,184618,1,4,0:3:0:0:
441,129,184780,6,0,B|357:160,1,80,2|4,0:2|0:3,0:0:0:0:
393,296,185105,1,4,0:3:0:0:
496,191,185267,2,0,B|412:222,1,80,4|4,0:2|0:3,0:0:0:0:
448,358,185591,1,4,0:3:0:0:
474,279,185753,5,8,0:3:0:0:
393,296,185915,1,0,0:0:0:0:
393,296,185996,1,0,0:0:0:0:
393,296,186077,1,8,0:3:0:0:
119,296,186402,6,0,L|31:278,2,80,4|0|8,0:3|0:0|0:0,0:0:0:0:
197,311,186888,1,2,0:2:0:0:
226,178,187050,1,8,0:0:0:0:
170,235,187213,1,0,0:0:0:0:
149,158,187375,1,8,0:0:0:0:
197,311,187537,6,0,L|285:329,1,80,2|0,0:3|0:0,0:0:0:0:
329,268,187861,1,8,3:0:0:0:
329,268,187942,1,0,3:0:0:0:
329,268,188023,2,0,L|373:277,3,40,8|0|0|0,3:0|3:0|3:0|3:0,0:0:0:0:
404,204,188348,2,0,L|443:195,3,40,8|0|0|0,3:0|3:0|3:0|3:0,0:0:0:0:
502,251,188672,2,0,P|521:211|517:165,1,80,8|0,3:0|3:0,0:0:0:0:
442,73,188996,6,0,L|341:93,1,80,2|0,0:3|0:0,0:0:0:0:
284,105,189321,1,8,0:0:0:0:
230,44,189483,2,0,B|254:96|254:96|209:200,1,160,2|4,0:2|0:3,0:0:0:0:
177,262,189969,1,8,0:0:0:0:
337,252,190132,6,0,P|323:210|277:179,1,80,0|0,0:0|0:0,0:0:0:0:
257,257,190456,1,0,0:0:0:0:
301,323,190618,1,8,0:0:0:0:
417,246,190780,2,0,P|446:213|450:158,1,80,0|2,0:0|0:3,0:0:0:0:
372,179,191105,1,4,0:3:0:0:
380,319,191267,2,0,L|472:314,1,80,8|0,0:0|0:0,0:0:0:0:
257,257,191591,6,0,L|165:262,2,80,2|0|8,0:3|0:0|0:0,0:0:0:0:
372,179,192077,2,0,L|464:174,1,80,2|0,0:2|0:0,0:0:0:0:
288,103,192402,1,4,0:3:0:0:
292,183,192564,1,8,0:0:0:0:
368,99,192726,6,0,P|349:51|318:28,1,80,2|0,0:3|0:0,0:0:0:0:
212,187,193050,2,0,P|231:235|262:258,1,80,0|8,0:0|0:0,0:0:0:0:
208,107,193375,1,0,0:0:0:0:
131,190,193537,1,8,3:0:0:0:
118,205,193618,1,0,3:0:0:0:
105,220,193699,1,0,3:0:0:0:
92,235,193780,1,0,3:0:0:0:
78,250,193861,2,0,P|60:304|83:350,1,80,8|0,3:0|3:0,0:0:0:0:
216,267,194186,5,0,0:0:0:0:
264,203,194348,1,4,0:3:0:0:
217,137,194510,1,0,0:0:0:0:
139,161,194672,1,4,0:2:0:0:
137,242,194834,5,4,0:3:0:0:
176,169,194996,1,0,0:0:0:0:
119,109,195159,1,8,0:3:0:0:
46,144,195321,1,0,0:0:0:0:
56,223,195483,5,0,0:0:0:0:
154,322,195645,1,4,0:2:0:0:
80,302,195807,1,4,0:3:0:0:
216,267,195969,1,0,0:0:0:0:
99,376,196132,5,8,0:3:0:0:
137,242,196294,1,0,0:0:0:0:
228,342,196456,1,0,0:0:0:0:
269,213,196618,1,4,0:3:0:0:
269,213,198077,5,4,0:2:0:0:
76,59,199375,5,4,0:2:0:0:
144,365,200672,5,4,0:2:0:0:
305,126,201969,6,0,L|404:112,1,95.9999970703126,4|0,0:2|0:0,0:0:0:0:
478,103,202456,1,0,0:0:0:0:
478,103,202537,1,0,0:0:0:0:
478,103,202618,2,0,P|490:148|487:182,2,71.9999978027344,8|8|0,0:3|0:3|0:0,0:0:0:0:
430,40,203267,6,0,L|350:51,1,60.0000022888184,2|0,0:2|0:0,0:0:0:0:
305,126,203591,2,0,L|384:137,1,60.0000022888184,0|0,0:0|0:0,0:0:0:0:
430,212,203915,2,0,L|350:223,1,60.0000022888184,4|0,0:3|0:0,0:0:0:0:
305,298,204240,2,0,L|384:309,1,60.0000022888184,0|0,0:0|0:0,0:0:0:0:
261,230,204564,6,0,P|237:255|226:288,1,70.000000667572,4|0,0:3|0:0,0:0:0:0:
181,355,204888,2,0,P|156:330|145:297,1,70.000000667572,0|0,0:0|0:0,0:0:0:0:
100,230,205213,2,0,P|75:254|64:287,1,70.000000667572,4|0,0:3|0:0,0:0:0:0:
135,157,205537,2,0,P|101:148|67:154,1,70.000000667572,0|0,0:0|0:0,0:0:0:0:
215,150,205861,6,0,L|202:91,3,40,4|0|0|0,0:3|0:0|0:0|0:0,0:0:0:0:
283,89,206186,2,0,L|291:49,3,40,0|0|0|0,0:0|0:0|0:0|0:0,0:0:0:0:
369,58,206510,2,0,L|392:25,3,40,4|0|0|0,0:2|0:0|0:0|0:0,0:0:0:0:
349,141,206834,1,2,0:2:0:0:
393,215,206996,1,0,0:0:0:0:
389,234,207077,1,0,0:0:0:0:
386,254,207159,6,0,P|352:270|301:256,1,80,0|2,0:0|3:3,0:0:0:0:
303,252,207402,1,0,3:0:0:0:
296,242,207483,2,0,L|209:254,1,80,0|0,3:0|3:0,0:0:0:0:
208,241,207726,1,0,3:0:0:0:
201,231,207807,2,0,L|114:243,1,80,0|0,3:0|3:0,0:0:0:0:
113,230,208051,1,0,3:0:0:0:
106,220,208132,6,0,P|64:224|95:293,1,100,2|0,3:0|2:0,0:0:0:0:
311,153,208780,6,0,L|398:141,1,80,8|0,0:3|0:0,0:0:0:0:
300,232,209105,1,0,0:0:0:0:
232,142,209267,1,4,0:3:0:0:
221,221,209429,2,0,L|209:308,1,80,8|0,0:0|0:0,0:0:0:0:
157,170,209753,6,0,P|167:94|236:61,1,160,2|8,0:2|0:0,0:0:0:0:
300,232,210240,2,0,L|288:319,1,80,2|2,0:2|0:3,0:0:0:0:
232,142,210564,1,4,0:3:0:0:
374,202,210726,1,8,0:0:0:0:
221,221,210888,1,0,0:0:0:0:
282,80,211050,6,0,P|329:77|371:103,1,80,4|0,0:2|0:0,0:0:0:0:
311,153,211375,1,8,0:0:0:0:
205,69,211537,2,0,P|225:26|269:3,1,80,2|2,0:2|0:3,0:0:0:0:
282,80,211862,1,4,0:3:0:0:
156,130,212023,1,8,0:0:0:0:
128,58,212186,1,0,0:0:0:0:
232,142,212348,5,2,0:2:0:0:
85,158,212510,1,0,0:0:0:0:
221,221,212672,1,8,0:0:0:0:
205,69,212834,1,0,0:0:0:0:
144,206,212996,2,0,L|133:278,3,40,8|0|0|0,0:3|0:0|0:0|0:0,0:0:0:0:
232,142,213321,1,8,0:0:0:0:
300,232,213483,1,0,0:0:0:0:
300,232,213564,1,0,0:0:0:0:
300,232,213645,6,0,L|397:246,1,80,4|0,0:2|0:0,0:0:0:0:
284,80,213969,2,0,L|187:66,1,80,8|0,0:0|0:0,0:0:0:0:
221,221,214294,1,2,0:3:0:0:
311,153,214456,1,4,0:3:0:0:
232,142,214618,1,8,0:0:0:0:
250,294,214780,1,2,0:2:0:0:
374,202,214942,6,0,L|471:216,2,80,4|0|8,0:2|0:0|0:0,0:0:0:0:
221,221,215429,1,2,0:2:0:0:
279,367,215591,2,0,L|327:374,3,40,8|0|0|0,3:0|3:0|3:0|3:0,0:0:0:0:
201,355,215915,2,0,L|152:347,3,40,8|0|0|0,3:0|3:0|3:0|3:0,0:0:0:0:
300,232,216240,6,0,L|379:202,1,60.0000022888184,4|0,0:3|0:0,0:0:0:0:
232,142,216564,2,0,L|153:112,1,60.0000022888184,2|0,0:2|0:0,0:0:0:0:
322,74,216888,2,0,L|401:44,1,60.0000022888184,2|0,0:2|0:0,0:0:0:0:
311,153,217213,1,0,0:0:0:0:
243,63,217375,6,0,L|164:33,1,80,4|0,0:3|0:0,0:0:0:0:
106,84,217699,1,0,0:0:0:0:
192,190,217861,5,8,0:0:0:0:
180,112,218023,1,4,0:3:0:0:
118,161,218186,1,0,0:0:0:0:
204,268,218348,5,4,0:3:0:0:
192,190,218510,1,8,0:3:0:0:
130,239,218673,1,4,0:3:0:0:
265,218,218834,6,0,L|359:203,1,80,4|0,0:2|0:0,0:0:0:0:
259,99,219159,2,0,L|164:113,1,80,8|0,0:0|0:0,0:0:0:0:
204,268,219483,2,0,P|238:292|290:293,2,80,2|4|8,0:2|0:3|0:0,0:0:0:0:
118,161,219969,6,0,P|84:137|32:136,1,80,2|0,0:2|0:0,0:0:0:0:
130,239,220294,1,0,0:0:0:0:
265,218,220456,2,0,L|359:203,1,80,8|0,0:0|0:0,0:0:0:0:
243,63,220780,1,2,0:2:0:0:
180,112,220942,1,4,0:3:0:0:
316,93,221105,2,0,L|410:78,1,80,8|0,0:0|0:0,0:0:0:0:
395,303,221429,6,0,L|316:291,1,80,4|0,0:2|0:0,0:0:0:0:
265,218,221753,1,8,0:0:0:0:
445,241,221915,2,0,P|473:288|427:379,1,160,2|4,0:2|0:3,0:0:0:0:
316,291,222402,1,8,0:0:0:0:
387,90,222564,6,0,P|430:87|466:102,1,80,2|0,0:3|0:0,0:0:0:0:
416,166,222888,1,0,0:0:0:0:
286,217,223050,2,0,L|191:203,1,80,8|2,0:0|0:2,0:0:0:0:
198,186,223294,1,0,0:0:0:0:
191,167,223375,2,0,B|181:121|181:121|200:76,1,80,2|4,0:3|0:3,0:0:0:0:
264,52,223699,2,0,B|274:98|274:98|255:143,1,80,8|0,0:0|0:0,0:0:0:0:
121,206,224023,6,0,B|25:231,1,80,4|0,0:2|0:0,0:0:0:0:
101,129,224348,1,8,0:0:0:0:
177,264,224510,2,0,P|240:255|275:167,1,160,2|4,0:2|0:3,0:0:0:0:
198,186,224996,1,8,0:0:0:0:
99,285,225159,6,0,L|73:380,1,80,2|0,0:3|0:0,0:0:0:0:
43,226,225483,1,2,0:2:0:0:
178,109,225645,2,0,L|273:83,1,80,8|2,0:0|0:2,0:0:0:0:
364,56,225969,1,2,0:3:0:0:
294,17,226132,1,4,0:3:0:0:
325,126,226294,2,0,L|351:221,1,80,8|0,0:0|0:0,0:0:0:0:
444,299,226618,5,4,0:2:0:0:
423,223,226780,1,2,0:2:0:0:
290,259,226942,1,8,0:0:0:0:
367,279,227105,1,2,0:2:0:0:
268,182,227267,1,4,0:3:0:0:
234,316,227429,1,2,0:2:0:0:
346,203,227591,1,8,0:3:0:0:
388,355,227753,6,0,L|478:378,1,80,4|0,0:3|0:0,0:0:0:0:
423,223,228077,1,8,0:3:0:0:
367,279,228240,1,8,0:3:0:0:
444,299,228402,1,4,0:3:0:0:
346,203,228564,2,0,L|255:179,1,80,0|0,3:0|0:0,0:0:0:0:
166,181,228888,2,0,L|256:204,1,80,0|0,3:0|0:0,0:0:0:0:
402,147,229213,5,2,0:2:0:0:
256,192,229294,12,0,231807,0:0:0:0:
