osu file format v14

[General]
AudioFilename: 01. .mp3
AudioLeadIn: 1150
PreviewTime: 135849
Countdown: 0
SampleSet: Normal
StackLeniency: 0.7
Mode: 0
LetterboxInBreaks: 0
WidescreenStoryboard: 0

[Editor]
DistanceSpacing: 1.1
BeatDivisor: 4
GridSize: 4
TimelineZoom: 2.5

[Metadata]
Title:Pride Kakumei
TitleUnicode:プライド革命
Artist:CHiCO with HoneyWorks
ArtistUnicode:CHiCO with HoneyWorks
Creator:monstrata
Version:Darkness
Source:銀魂゜
Tags:atsuro milan- sheela901 gintama゜ gintoki silver soul opening 2015
BeatmapID:756508
BeatmapSetID:342242

[Difficulty]
HPDrainRate:7
CircleSize:4
OverallDifficulty:8.7
ApproachRate:9
SliderMultiplier:1.7
SliderTickRate:1

[Events]
//Background and Video events
0,0,"kakumei.jpg",0,0
//Break Periods
2,160656,170235
//Storyboard Layer 0 (Background)
//Storyboard Layer 1 (Fail)
//Storyboard Layer 2 (Pass)
//Storyboard Layer 3 (Foreground)
//Storyboard Sound Samples

[TimingPoints]
905,324.324324324324,4,2,0,45,1,0
905,-141.666666855556,4,2,0,45,0,0
5430,324.324324324324,4,2,0,45,1,0
5430,-141.666666855556,4,2,0,45,0,0
6078,324.324324324324,4,2,0,45,1,0
6078,-141.666666855556,4,2,0,45,0,0
11267,-121.428571541327,4,1,0,30,0,0
12564,-100,4,1,0,50,0,0
22942,-133.333333333333,4,2,0,35,0,0
25537,-100,4,1,0,50,0,0
34456,-100,4,2,0,40,0,0
35915,-100,4,1,0,55,0,0
46294,-117.647058823529,4,2,0,45,0,0
55375,-100,4,1,0,50,0,0
64456,-117.647058823529,4,1,0,35,0,0
67050,-100,4,1,0,65,0,1
87807,-100,4,1,0,50,0,0
107105,-100,4,2,0,40,0,0
108564,-100,4,1,0,55,0,0
118942,-117.647058823529,4,2,0,45,0,0
123483,-142.857142857143,4,2,0,35,0,0
123807,-117.647058823529,4,2,0,45,0,0
129321,-100,4,1,0,55,0,0
137105,-127.388535031847,4,1,0,35,0,0
138403,-100,4,1,0,35,0,0
139375,-66.6666666666667,4,1,0,50,0,0
139699,-100,4,1,0,65,0,1
160456,-100,4,1,0,50,0,0
170834,-100,4,3,0,45,0,0
174726,-133.333333333333,4,2,0,35,0,0
176023,-100,4,1,0,50,0,0
201969,-200,4,1,0,40,0,0
203267,-133.333333333333,4,2,0,45,0,0
204564,-114.285714285714,4,2,0,50,0,0
206186,-100,4,2,0,40,0,0
208132,-80,4,1,0,50,0,0
208780,-100,4,1,0,65,0,1
216240,-133.333333333333,4,2,0,45,0,1
217375,-100,4,1,0,65,0,1
231483,-100,4,1,0,40,0,1
231645,-100,4,1,0,20,0,1
231726,-100,4,1,0,10,0,1
231807,-100,4,1,0,5,0,0

[Colours]
Combo1 : 137,216,218
Combo2 : 0,151,223
Combo3 : 255,30,30
Combo4 : 129,129,192

[HitObjects]
60,112,905,6,0,P|9:155|2:213,2,120.000004577637,2|0|0,0:2|3:0|0:0,0:0:0:0:
145,129,1715,1,0,0:0:0:0:
87,195,1877,2,0,L|113:276,1,60.0000022888184,0|0,3:0|0:0,0:0:0:0:
132,334,2202,6,0,P|183:291|190:233,1,120.000004577637,2|2,0:2|0:3,0:0:0:0:
169,156,2688,1,0,0:0:0:0:
231,94,2850,2,0,L|282:42,1,60.0000022888184,2|0,0:2|3:0,0:0:0:0:
146,71,3175,2,0,L|75:51,1,60.0000022888184,0|0,3:0|0:0,0:0:0:0:
107,218,3499,6,0,P|154:242|231:218,1,120.000004577637,2|0,0:2|3:0,0:0:0:0:
279,166,3986,1,0,0:0:0:0:
366,161,4148,2,0,P|317:194|301:251,1,120.000004577637,0|2,0:0|0:3,0:0:0:0:
325,335,4634,1,0,0:0:0:0:
240,313,4796,6,0,L|167:332,2,60.0000022888184,2|0|2,0:2|0:0|0:3,0:0:0:0:
453,156,5430,2,0,L|525:136,1,60.0000022888184
406,84,5754,2,0,L|352:31,1,60.0000022888184,2|0,0:3|0:0,0:0:0:0:
279,166,6078,6,0,B|260:224|304:224|280:284,1,120.000004577637,2|0,0:2|3:0,0:0:0:0:
208,333,6565,2,0,P|266:325|312:360,1,120.000004577637,2|0,0:2|0:0,0:0:0:0:
373,296,7051,1,2,0:3:0:0:
98,188,7375,5,0,1:2:0:0:
153,260,7538,1,0,0:0:0:0:
187,176,7700,1,0,3:0:0:0:
63,272,7862,2,0,P|85:322|160:351,1,120.000004577637,2|0,0:2|0:0,0:0:0:0:
243,248,8348,2,0,L|323:236,1,60.0000022888184,2|0,3:0|0:0,0:0:0:0:
357,86,8673,6,0,P|303:109|275:161,1,120.000004577637,2|0,0:2|0:0,0:0:0:0:
362,175,9159,1,2,0:3:0:0:
432,38,9321,2,0,P|384:3|325:5,1,120.000004577637,2|0,3:2|0:0,0:0:0:0:
436,126,9808,6,0,P|446:195|408:251,1,120.000004577637,2|0,0:2|0:0,0:0:0:0:
338,259,10294,1,0,3:0:0:0:
191,217,10457,2,0,B|140:216|140:216|100:292|100:292|160:272|212:300,1,240.000009155274,2|0,2:0|0:0,0:0:0:0:
264,238,11267,6,0,B|320:232|328:196|328:196|348:72|200:64|216:208|328:196|328:196|428:184|416:96,1,490.000004673004,2|0,2:0|2:0,0:0:0:0:
265,28,12565,6,0,L|147:42,1,85,4|0,0:2|0:0,0:0:0:0:
95,48,12889,1,8,0:0:0:0:
198,184,13051,2,0,L|277:-1,1,170,2|0,0:2|0:0,0:0:0:0:
146,116,13538,1,8,0:0:0:0:
250,252,13700,6,0,P|300:256|341:236,1,85,2|0,0:2|3:0,0:0:0:0:
283,174,14024,1,4,0:3:0:0:
166,263,14186,2,0,L|125:361,1,85,8|0,0:0|0:0,0:0:0:0:
113,195,14511,1,2,0:3:0:0:
219,331,14673,1,0,0:0:0:0:
283,174,14835,2,0,L|323:75,1,85,8|0,0:0|0:0,0:0:0:0:
198,184,15159,6,0,P|221:234|280:261,1,85,2|0,0:2|0:0,0:0:0:0:
368,164,15484,1,8,0:0:0:0:
231,105,15646,2,0,L|8:134,1,170,2|2,0:2|0:3,0:0:0:0:
179,36,16132,1,8,0:0:0:0:
283,173,16294,6,0,P|275:221|226:266,1,85,2|0,0:2|0:0,0:0:0:0:
198,184,16619,1,4,0:3:0:0:
368,164,16781,1,0,0:0:0:0:
231,105,16943,1,2,0:2:0:0:
231,105,17024,1,0,0:0:0:0:
231,105,17105,1,2,0:3:0:0:
334,240,17267,1,8,0:3:0:0:
402,88,17429,2,0,P|387:50|344:18,1,85,8|0,0:0|0:0,0:0:0:0:
252,250,17754,6,0,P|267:288|310:320,2,85,2|0|8,0:2|0:0|0:0,0:0:0:0:
317,96,18240,1,2,0:2:0:0:
317,96,18321,1,0,0:0:0:0:
317,96,18402,1,2,0:3:0:0:
368,164,18565,1,4,0:3:0:0:
231,105,18727,1,8,0:0:0:0:
401,87,18889,6,0,P|435:117|451:162,1,85,2|0,0:2|3:0,0:0:0:0:
368,164,19213,1,4,0:3:0:0:
231,105,19375,2,0,L|187:211,1,85,8|0,0:0|0:0,0:0:0:0:
152,293,19700,1,2,0:3:0:0:
120,215,19862,1,0,0:0:0:0:
230,261,20024,1,8,0:0:0:0:
68,281,20186,1,0,0:0:0:0:
68,281,20267,1,0,0:0:0:0:
68,281,20348,5,4,0:2:0:0:
198,183,20511,1,2,0:2:0:0:
218,344,20673,1,8,0:0:0:0:
120,215,20835,1,2,0:2:0:0:
281,194,20997,1,4,0:3:0:0:
152,293,21159,1,2,0:2:0:0:
131,131,21321,1,8,0:0:0:0:
230,261,21484,6,0,L|217:351,1,85,2|0,0:2|3:0,0:0:0:0:
120,215,21808,1,4,0:3:0:0:
281,194,21970,1,8,0:0:0:0:
131,131,22132,1,0,0:0:0:0:
260,33,22294,1,4,0:3:0:0:
358,161,22457,1,2,0:2:0:0:
348,203,22538,1,0,0:0:0:0:
339,244,22619,1,8,0:0:0:0:
292,111,22781,1,2,0:3:0:0:
425,63,22943,6,0,L|508:33,2,63.7500024318696,2|0|0,0:0|0:0|0:0,0:0:0:0:
292,111,23429,2,0,L|208:81,2,63.7500024318696,2|0|0,0:0|0:0|0:0,0:0:0:0:
339,244,23916,2,0,L|422:214,2,63.7500024318696,2|0|0,0:0|0:0|0:0,0:0:0:0:
206,292,24402,2,0,L|122:262,2,63.7500024318696,2|0|0,0:0|0:0|0:0,0:0:0:0:
289,316,24889,1,2,0:0:0:0:
268,232,25051,1,0,0:0:0:0:
226,376,25213,1,2,0:0:0:0:
226,376,25538,6,0,L|126:387,1,85,2|0,0:3|0:0,0:0:0:0:
68,291,25862,2,0,L|153:301,1,85,8|0,0:0|0:0,0:0:0:0:
223,206,26186,2,0,L|139:216,1,85
65,121,26511,1,8,0:0:0:0:
149,130,26673,1,0,0:0:0:0:
283,52,26835,6,0,L|199:61,1,85,2|0,0:3|0:0,0:0:0:0:
318,130,27159,2,0,L|402:121,1,85,8|0,0:0|0:0,0:0:0:0:
423,118,27402,1,0,0:0:0:0:
444,116,27484,1,2,0:2:0:0:
409,39,27646,1,2,0:3:0:0:
437,197,27808,2,0,L|420:300,1,85,8|0,0:0|0:0,0:0:0:0:
230,285,28132,6,0,P|276:219|358:225,1,170,2|8,0:2|0:0,0:0:0:0:
423,280,28619,1,2,0:2:0:0:
432,297,28700,1,0,0:0:0:0:
442,316,28781,1,4,0:3:0:0:
437,197,28943,1,0,0:0:0:0:
345,308,29105,1,8,0:0:0:0:
501,252,29267,1,8,0:3:0:0:
373,142,29429,6,0,B|311:83|311:83|208:83,1,170,2|8,0:3|0:0,0:0:0:0:
164,141,29916,1,2,0:2:0:0:
263,248,30078,1,0,3:0:0:0:
245,166,30240,1,0,0:0:0:0:
200,304,30402,2,0,P|248:332|306:320,1,85,8|0,0:0|0:0,0:0:0:0:
182,222,30727,6,0,P|133:249|115:305,2,85,2|0|8,0:3|0:0|0:0,0:0:0:0:
325,191,31213,1,2,0:2:0:0:
325,191,31294,1,0,0:0:0:0:
325,191,31375,1,2,0:3:0:0:
263,248,31538,1,0,0:0:0:0:
226,83,31700,2,0,B|205:-11,1,85,8|4,0:0|0:3,0:0:0:0:
164,141,32024,6,0,P|211:166|269:154,1,85,2|0,0:3|0:0,0:0:0:0:
308,109,32348,1,8,0:0:0:0:
145,57,32511,2,0,P|99:85|81:141,1,85,2|2,0:2|0:3,0:0:0:0:
79,246,32835,1,0,0:0:0:0:
164,141,32997,1,8,0:0:0:0:
33,177,33159,1,0,0:0:0:0:
160,224,33321,6,0,L|250:200,1,85,2|0,0:2|0:0,0:0:0:0:
164,141,33646,1,8,0:0:0:0:
33,177,33808,2,0,P|-3:233|64:328,1,170,2|8,0:2|0:3,0:0:0:0:
219,283,34294,1,8,0:0:0:0:
79,246,34457,5,4,0:3:0:0:
261,121,34781,1,0,0:0:0:0:
278,342,35105,1,0,0:0:0:0:
219,283,35267,1,2,0:2:0:0:
256,208,35429,1,0,0:0:0:0:
338,220,35592,1,2,0:2:0:0:
351,301,35754,1,0,0:0:0:0:
219,283,35916,6,0,P|179:241|175:190,1,85,4|0,0:2|0:0,0:0:0:0:
291,135,36240,2,0,P|274:190|232:219,1,85,8|0,0:0|0:0,0:0:0:0:
123,148,36565,1,2,0:2:0:0:
207,140,36727,1,0,0:0:0:0:
90,225,36889,1,8,0:0:0:0:
39,157,37051,1,0,0:0:0:0:
172,216,37213,6,0,L|251:251,1,85,2|0,0:3|0:0,0:0:0:0:
408,243,37538,2,0,L|330:279,1,85,8|0,0:0|0:0,0:0:0:0:
180,300,37862,1,2,0:3:0:0:
250,250,38024,1,0,0:0:0:0:
346,360,38186,2,0,L|439:360,1,85,8|0,0:0|0:0,0:0:0:0:
399,195,38511,6,0,L|306:195,1,85,2|0,0:2|0:0,0:0:0:0:
172,216,38835,1,8,0:0:0:0:
256,335,38997,1,2,0:2:0:0:
256,335,39078,1,0,0:0:0:0:
256,335,39159,1,2,0:2:0:0:
250,250,39321,1,4,0:3:0:0:
104,265,39484,2,0,P|98:318|121:360,1,85,8|0,0:0|0:0,0:0:0:0:
172,216,39808,5,2,0:3:0:0:
28,229,39970,1,4,0:3:0:0:
166,132,40132,2,0,P|218:146|251:190,1,85,8|0,0:0|0:0,0:0:0:0:
256,335,40457,1,2,0:2:0:0:
180,300,40619,1,0,0:0:0:0:
324,286,40781,2,0,L|334:392,1,85,8|0,0:0|0:0,0:0:0:0:
250,250,41105,6,0,P|305:207|404:274,1,170,2|8,0:3|0:0,0:0:0:0:
400,320,41592,1,2,0:2:0:0:
402,341,41673,1,0,0:0:0:0:
404,362,41754,1,4,0:3:0:0:
467,271,41916,1,2,0:2:0:0:
324,286,42078,2,0,L|236:348,1,85,8|0,0:0|0:0,0:0:0:0:
244,168,42402,6,0,P|317:204|324:286,1,170,2|8,0:3|0:0,0:0:0:0:
250,250,42889,1,2,0:2:0:0:
229,246,42970,1,0,0:0:0:0:
208,242,43051,1,4,0:3:0:0:
162,174,43213,1,0,0:0:0:0:
281,94,43375,1,8,0:0:0:0:
244,168,43538,1,0,0:0:0:0:
234,25,43700,6,0,P|314:18|358:116,1,170,2|8,0:2|0:0,0:0:0:0:
328,159,44186,1,2,0:2:0:0:
334,179,44267,1,0,0:0:0:0:
340,199,44348,1,4,0:3:0:0:
380,333,44511,1,0,0:0:0:0:
406,253,44673,1,8,0:0:0:0:
243,299,44835,6,0,L|158:286,1,85,2|2,0:2|0:3,0:0:0:0:
26,243,45159,1,4,0:3:0:0:
159,201,45321,1,8,0:0:0:0:
77,313,45484,1,2,0:2:0:0:
70,333,45565,1,0,0:0:0:0:
64,353,45646,1,8,0:3:0:0:
76,172,45808,1,2,0:2:0:0:
158,286,45970,1,8,0:3:0:0:
142,114,46132,1,2,0:2:0:0:
98,241,46294,6,0,L|127:341,1,72.2500013780594,2|0,0:2|0:0,0:0:0:0:
202,173,46619,2,0,L|181:242,1,72.2500013780594,4|0,0:3|0:0,0:0:0:0:
262,100,46943,2,0,L|307:255,1,144.500002756119,2|0,0:2|0:0,0:0:0:0:
335,352,47429,1,2,0:3:0:0:
335,352,47511,1,0,0:0:0:0:
335,352,47592,5,4,0:3:0:0:
376,278,47754,1,2,0:2:0:0:
261,311,47916,2,0,L|183:333,1,72.2500013780594,4|0,0:3|0:0,0:0:0:0:
64,248,48240,2,0,L|134:269,1,72.2500013780594,2|0,0:3|0:0,0:0:0:0:
215,245,48565,2,0,L|284:224,1,72.2500013780594,2|2,0:2|0:3,0:0:0:0:
301,229,48808,1,0,0:0:0:0:
318,234,48889,6,0,L|387:213,1,72.2500013780594,4|0,0:3|0:0,0:0:0:0:
477,110,49213,2,0,L|408:131,1,72.2500013780594,8|0,0:3|0:0,0:0:0:0:
280,47,49538,2,0,L|349:67,1,72.2500013780594,2|2,0:3|0:2,0:0:0:0:
329,149,49862,1,0,0:0:0:0:
387,213,50024,1,2,0:2:0:0:
378,248,50105,1,0,0:0:0:0:
370,284,50186,5,4,0:3:0:0:
284,224,50348,1,2,0:3:0:0:
396,178,50511,2,0,L|465:198,1,72.2500013780594,8|0,0:3|0:0,0:0:0:0:
361,319,50835,2,0,L|291:339,1,72.2500013780594,2|0,0:2|0:0,0:0:0:0:
224,287,51159,2,0,L|154:307,1,72.2500013780594,2|0,0:2|0:0,0:0:0:0:
87,255,51484,6,0,P|23:228|13:140,2,144.500002756119,2|0|2,0:2|3:0|0:3,0:0:0:0:
146,194,52294,1,0,0:0:0:0:
228,214,52457,2,0,L|223:310,1,72.2500013780594,2|0,0:2|0:0,0:0:0:0:
279,350,52781,6,0,B|352:380|352:328|420:356,2,144.500002756119,4|0|2,0:3|3:0|3:0,0:0:0:0:
195,367,53592,1,0,0:0:0:0:
138,302,53754,2,0,P|128:266|150:211,1,72.2500013780594,2|0,0:2|0:0,0:0:0:0:
139,215,53997,1,0,0:0:0:0:
144,197,54078,6,0,P|206:221|285:160,2,144.500002756119,4|8|2,0:3|0:3|0:3,0:0:0:0:
122,115,54889,1,0,0:0:0:0:
204,138,55051,1,2,0:2:0:0:
228,59,55213,1,0,0:0:0:0:
271,186,55375,5,4,0:2:0:0:
312,59,55538,1,0,0:0:0:0:
338,138,55700,2,0,L|309:226,1,85,8|0,0:0|0:0,0:0:0:0:
274,331,56024,1,2,0:3:0:0:
349,293,56186,1,2,0:2:0:0:
367,283,56267,1,0,0:0:0:0:
386,273,56348,1,8,0:0:0:0:
236,256,56511,1,2,0:2:0:0:
217,265,56592,1,0,0:0:0:0:
198,275,56673,6,0,L|96:263,1,85,2|0,0:3|0:0,0:0:0:0:
160,193,56997,2,0,L|119:98,1,85,8|0,0:0|0:0,0:0:0:0:
212,119,57321,2,0,L|273:36,1,85,2|0,0:3|0:0,0:0:0:0:
302,127,57646,2,0,L|404:139,1,85,8|0,0:0|0:0,0:0:0:0:
427,212,57970,6,0,L|415:314,1,85,2|0,0:3|0:0,0:0:0:0:
342,366,58294,2,0,L|333:282,1,85,8|0,0:0|0:0,0:0:0:0:
257,205,58619,2,0,L|248:290,1,85,2|0,0:3|0:0,0:0:0:0:
173,360,58943,2,0,L|163:275,1,85,8|0,0:0|0:0,0:0:0:0:
153,190,59267,6,0,P|110:208|85:243,1,85,2|0,0:3|0:0,0:0:0:0:
221,139,59592,2,0,P|184:110|141:106,1,85,8|0,0:0|0:0,0:0:0:0:
299,172,59916,2,0,P|305:125|287:86,1,85,2|0,0:3|0:0,0:0:0:0:
309,256,60240,2,0,P|352:238|377:203,1,85,8|0,0:0|0:0,0:0:0:0:
232,223,60565,5,8,0:3:0:0:
319,340,60727,1,0,3:0:0:0:
319,340,60808,1,0,3:0:0:0:
319,340,60889,2,0,L|306:383,1,42.5,8|0,3:0|3:0,3:0:0:0:
309,256,61051,2,0,L|322:213,1,42.5
242,306,61213,5,4,0:3:0:0:
210,303,61294,1,0,0:0:0:0:
182,288,61375,1,0,0:0:0:0:
161,265,61457,1,0,0:0:0:0:
150,235,61538,2,0,P|159:184|196:148,1,85,8|0,3:0|0:0,0:0:0:0:
309,256,61862,6,0,L|323:374,1,85,4|0,0:3|0:0,0:0:0:0:
376,203,62186,1,8,0:0:0:0:
232,223,62348,1,0,0:0:0:0:
232,223,62429,1,2,0:2:0:0:
232,223,62511,1,2,0:3:0:0:
242,306,62673,1,0,3:0:0:0:
298,173,62835,2,0,L|284:55,1,85,8|0,0:0|0:0,0:0:0:0:
166,273,63159,6,0,L|180:391,1,85,2|0,0:2|0:0,0:0:0:0:
309,256,63484,2,0,L|400:184,1,85,8|0,0:0|0:0,0:0:0:0:
153,190,63808,1,4,0:3:0:0:
242,306,63970,1,0,0:0:0:0:
221,139,64132,1,8,0:3:0:0:
166,273,64294,1,0,0:0:0:0:
163,294,64375,1,0,0:0:0:0:
161,315,64456,6,0,B|154:335|139:352|120:365|100:372|79:375|54:373|29:361|7:345|-3:313|-5:297|-3:269|-1:256|16:228|34:216|34:216|124:241|124:241|216:184|218:270|317:229,1,578.000011024475,6|0,2:2|2:0,2:0:0:0:
377,227,67051,6,0,L|347:336,1,85,4|0,0:2|0:0,0:0:0:0:
234,187,67375,1,8,0:0:0:0:
400,145,67538,1,2,0:2:0:0:
400,145,67619,1,0,0:0:0:0:
400,145,67700,1,2,0:3:0:0:
294,248,67862,1,4,0:3:0:0:
257,104,68024,1,8,0:0:0:0:
151,208,68186,1,2,0:3:0:0:
317,166,68348,6,0,L|347:57,1,85,2|0,0:2|0:0,0:0:0:0:
174,126,68673,1,8,0:0:0:0:
294,248,68835,1,0,0:0:0:0:
294,248,68916,1,0,0:0:0:0:
294,248,68997,1,2,0:3:0:0:
234,187,69159,1,4,0:3:0:0:
189,352,69321,1,8,0:0:0:0:
211,269,69484,1,2,3:0:0:0:
353,308,69646,6,0,P|375:269|364:200,1,85,4|0,0:2|0:0,0:0:0:0:
257,104,69970,1,8,0:0:0:0:
234,187,70132,1,2,0:2:0:0:
234,187,70213,1,0,0:0:0:0:
234,187,70294,1,2,0:3:0:0:
317,166,70457,1,4,3:0:0:0:
174,126,70619,1,8,0:0:0:0:
211,269,70781,1,2,3:0:0:0:
205,289,70862,1,0,0:0:0:0:
200,310,70942,6,0,L|90:338,2,85,2|0|8,0:2|3:0|0:0,0:0:0:0:
294,248,71429,2,0,L|351:263,2,42.5,0|0|2,0:0|0:0|0:3,0:0:0:0:
151,208,71754,1,4,0:3:0:0:
271,330,71916,1,8,0:0:0:0:
234,187,72078,1,2,0:3:0:0:
239,166,72159,1,0,0:0:0:0:
245,146,72240,6,0,L|421:99,1,170,4|8,0:2|0:0,0:0:0:0:
349,42,72727,1,0,0:0:0:0:
386,185,72889,1,2,0:2:0:0:
468,163,73051,1,0,3:0:0:0:
409,103,73213,1,8,0:0:0:0:
363,267,73375,6,0,L|393:372,1,85,4|0,0:3|0:0,0:0:0:0:
446,245,73700,1,2,3:0:0:0:
303,207,73862,1,8,0:0:0:0:
217,327,74024,1,0,0:0:0:0:
217,327,74105,1,0,0:0:0:0:
217,327,74186,1,2,0:3:0:0:
200,224,74348,1,0,0:0:0:0:
320,309,74511,1,8,0:0:0:0:
405,189,74673,1,0,0:0:0:0:
405,189,74754,1,0,0:0:0:0:
405,189,74835,6,0,L|410:84,1,85,2|0,0:3|0:0,0:0:0:0:
241,148,75159,1,8,0:0:0:0:
303,207,75321,1,2,0:2:0:0:
303,207,75402,1,0,0:0:0:0:
303,207,75484,1,2,0:3:0:0:
261,64,75646,1,8,3:0:0:0:
221,232,75808,1,8,0:0:0:0:
322,123,75970,1,0,0:0:0:0:
160,173,76132,5,8,0:3:0:0:
282,291,76294,1,0,3:0:0:0:
241,148,76457,1,8,0:0:0:0:
201,316,76619,1,2,0:2:0:0:
363,266,76781,1,4,3:3:0:0:
376,247,76862,1,0,3:0:0:0:
384,226,76943,1,0,3:0:0:0:
386,204,77024,1,0,3:0:0:0:
383,182,77105,1,8,3:0:0:0:
374,161,77186,1,0,3:0:0:0:
360,143,77267,1,0,3:0:0:0:
342,130,77348,1,0,3:0:0:0:
322,123,77429,6,0,L|229:152,1,85,4|0,0:2|0:0,0:0:0:0:
160,173,77754,1,8,0:0:0:0:
285,289,77916,2,0,L|306:193,1,85
178,90,78240,1,8,0:3:0:0:
221,232,78402,1,8,0:0:0:0:
261,64,78565,1,2,0:2:0:0:
281,57,78646,1,0,0:0:0:0:
302,52,78727,6,0,L|405:87,2,85,2|0|8,0:2|0:0|0:0,0:0:0:0:
178,90,79213,2,0,L|75:55,1,85,2|2,0:2|0:3,0:0:0:0:
221,232,79538,1,4,0:3:0:0:
241,148,79700,1,8,0:0:0:0:
138,256,79862,1,0,0:0:0:0:
142,276,79943,1,0,0:0:0:0:
147,297,80024,6,0,P|192:326|234:329,1,85,2|0,0:2|0:0,0:0:0:0:
303,207,80348,1,8,0:0:0:0:
160,173,80510,2,0,P|106:177|68:208,1,85,0|2,0:0|0:3,0:0:0:0:
285,289,80834,1,4,0:3:0:0:
241,148,80996,1,8,0:0:0:0:
138,256,81159,1,0,0:0:0:0:
322,123,81321,5,2,0:2:0:0:
221,232,81484,1,4,0:3:0:0:
178,90,81646,1,8,0:0:0:0:
303,207,81808,1,2,0:2:0:0:
318,221,81889,1,0,0:0:0:0:
334,235,81970,1,8,0:3:0:0:
361,368,82132,1,2,0:2:0:0:
418,244,82294,1,8,0:0:0:0:
299,311,82457,1,2,0:2:0:0:
435,326,82619,6,0,P|474:306|497:264,1,85,4|0,0:2|0:0,0:0:0:0:
383,166,82943,1,8,0:0:0:0:
299,311,83105,1,2,0:2:0:0:
299,311,83186,1,0,0:0:0:0:
299,311,83267,1,2,0:3:0:0:
418,244,83429,1,0,0:0:0:0:
250,242,83592,1,0,0:0:0:0:
361,368,83754,1,4,0:3:0:0:
334,235,83916,6,0,P|273:160|186:186,1,170,2|8,0:2|0:0,0:0:0:0:
89,282,84402,1,2,0:2:0:0:
249,327,84565,1,4,0:3:0:0:
133,208,84727,1,0,0:0:0:0:
87,368,84889,1,8,0:0:0:0:
207,252,85051,1,2,0:3:0:0:
46,206,85213,5,8,0:3:0:0:
163,326,85375,1,2,0:2:0:0:
163,326,85457,1,0,0:0:0:0:
163,326,85538,1,2,0:3:0:0:
208,167,85700,1,4,0:3:0:0:
89,282,85862,6,0,L|17:299,1,42.5,8|0,0:3|0:0,0:0:0:0:
207,252,86024,2,0,L|278:234,1,42.5
133,208,86186,2,0,L|115:136,1,42.5,8|0,0:3|0:0,0:0:0:0:
163,326,86348,2,0,L|180:397,1,42.5,4|0,0:3|0:0,0:0:0:0:
208,168,86511,5,2,0:2:0:0:
376,170,86673,1,0,0:0:0:0:
251,95,86835,1,4,0:3:0:0:
332,242,86997,1,2,0:2:0:0:
419,98,87159,1,2,0:3:0:0:
292,169,87321,1,4,0:3:0:0:
460,171,87484,1,2,0:2:0:0:
335,95,87646,1,8,0:3:0:0:
332,242,87807,6,0,L|329:346,2,85,6|0|8,0:2|0:0|0:3,0:0:0:0:
251,95,88294,2,0,P|214:137|261:247,1,170,2|4,0:2|0:3,0:0:0:0:
292,169,88781,1,8,0:0:0:0:
164,159,88943,6,0,L|73:152,1,85,2|0,0:3|0:0,0:0:0:0:
79,320,89267,2,0,L|164:314,1,85,0|8,0:0|0:0,0:0:0:0:
243,237,89592,1,0,0:0:0:0:
243,237,89673,1,0,0:0:0:0:
243,237,89754,1,2,0:2:0:0:
165,235,89916,1,4,0:3:0:0:
242,315,90077,2,0,P|291:299|320:247,1,85,8|0,0:0|0:0,0:0:0:0:
292,168,90402,6,0,L|229:257,2,85,2|0|8,0:2|0:0|0:0,0:0:0:0:
419,98,90889,2,0,P|458:156|390:253,1,170,2|4,0:2|0:3,0:0:0:0:
332,242,91375,1,8,0:0:0:0:
242,315,91538,6,0,L|155:314,1,85,2|0,0:3|0:0,0:0:0:0:
123,161,91862,2,0,L|165:236,1,85,0|8,0:0|0:0,0:0:0:0:
292,168,92186,1,0,0:0:0:0:
292,168,92267,1,0,0:0:0:0:
292,168,92348,1,2,0:2:0:0:
243,237,92511,1,4,0:3:0:0:
332,242,92673,2,0,L|418:242,1,85,8|0,0:0|0:0,0:0:0:0:
251,95,92996,6,0,L|166:94,2,85,2|0|8,0:2|0:0|0:0,0:0:0:0:
376,170,93483,2,0,P|342:236|230:225,1,170,2|4,0:2|0:3,0:0:0:0:
208,168,93970,1,8,0:0:0:0:
123,161,94132,6,0,L|78:235,1,85,2|0,0:3|0:0,0:0:0:0:
205,315,94457,2,0,L|164:241,1,85,0|8,0:0|0:0,0:0:0:0:
251,95,94781,1,0,0:0:0:0:
249,241,94943,1,2,0:2:0:0:
208,168,95105,1,4,0:3:0:0:
334,95,95267,1,8,0:0:0:0:
291,167,95429,1,0,0:0:0:0:
211,23,95591,5,2,0:2:0:0:
208,168,95754,1,0,0:0:0:0:
374,166,95916,1,8,0:0:0:0:
251,95,96078,1,0,0:0:0:0:
165,241,96240,1,2,0:2:0:0:
291,167,96402,1,4,0:3:0:0:
125,169,96565,1,8,0:0:0:0:
205,313,96727,6,0,P|252:325|304:304,1,85,2|0,0:2|0:0,0:0:0:0:
249,241,97051,1,2,0:3:0:0:
121,311,97213,2,0,L|71:393,1,85,8|0,0:0|0:0,0:0:0:0:
80,239,97538,1,8,0:3:0:0:
101,239,97619,1,0,0:0:0:0:
122,239,97700,1,0,0:0:0:0:
143,240,97781,1,0,0:0:0:0:
164,240,97861,2,0,L|219:340,1,85,8|0,0:3|0:0,0:0:0:0:
333,242,98186,6,0,L|249:241,1,85,2|0,0:3|0:0,0:0:0:0:
374,317,98511,2,0,P|405:287|418:243,1,85,8|0,0:0|0:0,0:0:0:0:
291,167,98835,2,0,L|206:165,2,85,2|4|8,0:3|0:3|0:0,0:0:0:0:
333,242,99321,1,0,0:0:0:0:
289,318,99483,6,0,P|225:325|192:304,1,85,2|0,0:3|0:0,0:0:0:0:
111,215,99808,1,8,0:0:0:0:
249,241,99970,2,0,L|325:230,2,42.5,0|0|2,0:0|0:0|0:2,0:0:0:0:
123,301,100294,1,4,0:3:0:0:
102,129,100456,2,0,P|141:108|204:116,1,85,8|0,0:0|0:0,0:0:0:0:
348,175,100780,6,0,P|420:157|446:69,2,170,6|8|2,0:3|0:0|0:2,0:0:0:0:
287,75,101592,1,2,0:3:0:0:
368,94,101754,1,8,0:0:0:0:
267,155,101915,6,0,L|246:245,1,85,2|0,0:3|0:0,0:0:0:0:
350,339,102240,1,4,0:3:0:0:
331,257,102402,1,8,0:0:0:0:
268,315,102564,2,0,L|220:358,2,42.5,0|0|2,0:0|0:0|0:2,0:0:0:0:
412,281,102889,1,4,0:3:0:0:
249,232,103051,2,0,L|173:300,1,85,8|0,0:0|0:0,0:0:0:0:
240,144,103375,6,0,P|315:176|331:257,1,170,2|8,0:2|0:0,0:0:0:0:
268,315,103861,1,2,0:2:0:0:
268,315,103943,1,0,0:0:0:0:
268,315,104023,2,0,L|197:379,1,85,4|0,0:3|0:0,0:0:0:0:
350,339,104348,2,0,L|441:367,1,85,8|0,0:0|0:0,0:0:0:0:
331,256,104672,6,0,P|253:230|188:278,1,170,2|8,0:2|0:0,0:0:0:0:
268,315,105159,1,2,0:2:0:0:
244,178,105321,2,0,L|230:94,1,85,4|0,0:3|0:0,0:0:0:0:
322,36,105646,2,0,L|308:120,1,85,8|2,0:0|0:2,0:0:0:0:
164,153,105970,6,0,L|66:122,1,85,2|0,0:3|0:0,0:0:0:0:
144,69,106294,1,8,0:0:0:0:
244,178,106457,1,2,0:2:0:0:
244,178,106538,1,0,0:0:0:0:
244,178,106618,2,0,L|258:261,1,85,4|8,0:3|0:3,0:0:0:0:
181,235,106942,1,8,0:0:0:0:
227,95,107105,6,0,P|279:100|313:125,1,85,8|0,0:3|0:0,0:0:0:0:
408,179,107429,1,0,2:2:0:0:
387,97,107592,1,2,2:0:0:0:
326,200,107754,1,0,2:0:0:0:
429,261,107916,1,2,2:0:0:0:
408,179,108078,1,0,2:0:0:0:
347,282,108240,2,0,L|322:380,1,85,2|0,2:0|2:0,2:0:0:0:
181,235,108565,6,0,L|202:317,1,85,4|0,0:2|0:0,0:0:0:0:
287,177,108889,2,0,L|266:259,1,85,8|0,0:0|0:0,0:0:0:0:
349,112,109213,2,0,L|391:276,1,170,4|8,0:3|0:0,0:0:0:0:
456,222,109699,1,2,0:3:0:0:
308,258,109861,6,0,L|144:300,1,170,2|8,0:2|0:0,0:0:0:0:
162,217,110348,1,2,0:2:0:0:
289,341,110510,2,0,L|371:362,2,85,4|0|8,0:3|0:0|0:0,0:0:0:0:
226,283,110997,1,0,0:0:0:0:
226,283,111078,1,0,0:0:0:0:
226,283,111159,6,0,L|203:201,1,85,4|0,0:2|0:0,0:0:0:0:
310,95,111484,2,0,L|287:176,1,85,8|0,0:0|0:0,0:0:0:0:
292,196,111727,1,0,0:0:0:0:
298,216,111807,1,4,0:3:0:0:
322,297,111970,1,0,0:0:0:0:
379,192,112132,1,8,0:0:0:0:
403,274,112294,6,0,P|398:330|360:375,2,85,2|0|2,0:2|0:0|0:2,0:0:0:0:
319,133,112781,1,8,0:0:0:0:
239,277,112942,2,0,P|248:341|282:373,2,85,2|4|0,0:2|0:3|0:0,0:0:0:0:
379,192,113429,1,8,0:0:0:0:
322,297,113592,1,0,0:0:0:0:
322,297,113673,1,0,0:0:0:0:
322,297,113754,5,2,0:2:0:0:
298,216,113916,1,0,0:0:0:0:
403,274,114078,1,8,0:0:0:0:
461,169,114240,1,2,0:2:0:0:
466,148,114321,1,0,0:0:0:0:
471,127,114402,1,4,0:3:0:0:
379,192,114565,1,0,0:0:0:0:
484,250,114726,2,0,P|484:299|456:340,1,85,8|2,0:0|0:2,0:0:0:0:
298,216,115051,5,4,0:2:0:0:
379,192,115213,1,0,0:0:0:0:
322,297,115375,1,8,0:0:0:0:
319,133,115538,1,2,0:2:0:0:
319,133,115618,1,0,0:0:0:0:
319,133,115700,1,4,0:3:0:0:
298,216,115862,1,0,0:0:0:0:
236,112,116024,1,8,0:0:0:0:
215,195,116186,1,2,0:2:0:0:
379,192,116348,6,0,P|402:144|343:51,1,170,2|8,0:3|0:0,0:0:0:0:
236,111,116835,1,2,0:2:0:0:
236,111,116916,1,0,0:0:0:0:
236,111,116997,1,4,0:3:0:0:
298,216,117159,1,0,0:0:0:0:
319,133,117321,1,8,0:0:0:0:
215,195,117484,1,0,0:0:0:0:
194,200,117565,1,0,0:0:0:0:
174,206,117646,5,8,0:3:0:0:
127,333,117808,1,0,0:0:0:0:
91,200,117969,1,8,0:3:0:0:
197,287,118132,1,0,0:0:0:0:
244,160,118294,1,12,0:3:0:0:
280,293,118457,1,0,0:0:0:0:
174,206,118619,1,2,3:2:0:0:
233,361,118781,1,0,3:0:0:0:
310,213,118942,6,0,P|327:157|274:82,2,144.500002756119,2|8|2,0:2|0:3|0:2,0:0:0:0:
231,243,119754,1,0,0:0:0:0:
166,191,119916,2,0,L|73:227,1,72.2500013780594
96,235,120159,1,0,0:0:0:0:
93,253,120240,6,0,B|87:297|87:297|111:344,1,72.2500013780594,2|0,0:3|0:0,0:0:0:0:
181,312,120565,2,0,B|201:351|201:351|247:376,1,72.2500013780594,8|0,0:3|0:0,0:0:0:0:
286,310,120888,2,0,B|324:331|324:331|377:325,2,72.2500013780594,4|0|2,0:3|0:0|0:2,0:0:0:0:
231,243,121375,1,0,0:0:0:0:
231,243,121457,1,0,0:0:0:0:
231,243,121537,6,0,B|196:176|256:176|224:104,2,144.500002756119,2|8|0,0:3|0:3|0:0,0:0:0:0:
286,310,122348,1,0,0:0:0:0:
371,295,122511,2,0,L|467:278,1,72.2500013780594,2|0,0:3|0:0,0:0:0:0:
448,265,122754,1,0,0:0:0:0:
454,247,122835,6,0,L|524:235,1,72.2500013780594,4|0,0:3|0:0,0:0:0:0:
482,164,123159,2,0,L|411:176,1,72.2500013780594,4|0,0:3|0:0,0:0:0:0:
367,104,123483,6,0,L|438:92,2,59.4999981842042,2|0|2,0:2|0:0|2:0,0:0:0:0:
144,104,124132,6,0,L|74:92,1,72.2500013780594,2|0,0:2|0:0,0:0:0:0:
30,164,124457,2,0,L|100:176,1,72.2500013780594,2|0,0:3|0:0,0:0:0:0:
167,271,124781,1,4,0:3:0:0:
182,191,124943,1,0,0:0:0:0:
86,256,125105,2,0,P|88:293|114:331,1,72.2500013780594,2|0,0:2|0:0,0:0:0:0:
118,335,125348,1,0,0:0:0:0:
131,347,125429,6,0,L|226:339,1,72.2500013780594,4|0,0:3|0:0,0:0:0:0:
252,274,125753,2,0,L|346:265,1,72.2500013780594,2|0,3:0|0:0,0:0:0:0:
396,175,126078,1,8,0:3:0:0:
406,258,126240,1,0,0:0:0:0:
313,185,126402,2,0,P|325:130|352:104,1,72.2500013780594,2|0,0:2|0:0,0:0:0:0:
329,101,126646,1,0,0:0:0:0:
324,83,126727,5,0,0:0:0:0:
298,5,126889,1,8,0:3:0:0:
245,110,127051,1,0,0:0:0:0:
219,31,127213,1,4,0:3:0:0:
177,159,127375,1,0,0:0:0:0:
135,28,127538,1,8,0:3:0:0:
109,109,127700,1,0,0:0:0:0:
51,45,127862,1,4,0:3:0:0:
99,192,128024,5,12,0:3:0:0:
177,88,128186,1,0,0:0:0:0:
226,227,128348,2,0,L|209:324,1,72.2500013780594,4|0,0:3|0:0,0:0:0:0:
177,159,128673,1,2,0:2:0:0:
294,178,128835,1,0,0:0:0:0:
311,180,128916,1,0,0:0:0:0:
329,183,128996,1,2,0:3:0:0:
354,262,129159,1,2,0:2:0:0:
371,264,129240,1,0,0:0:0:0:
389,267,129321,6,0,L|410:349,1,85,4|0,0:2|0:0,0:0:0:0:
417,186,129646,2,0,L|483:252,1,85,8|0,0:0|0:0,0:0:0:0:
400,101,129969,2,0,L|490:125,1,85,2|0,0:3|0:0,0:0:0:0:
342,35,130294,2,0,L|424:13,1,85,8|0,0:0|0:0,0:0:0:0:
314,115,130619,6,0,L|231:93,1,85,2|0,0:3|0:0,0:0:0:0:
148,71,130942,2,0,P|164:125|146:175,1,85,8|0,0:0|0:0,0:0:0:0:
14,170,131267,2,0,P|52:130|105:120,1,85,2|0,0:2|0:0,0:0:0:0:
181,234,131592,2,0,L|263:255,1,85,8|0,0:0|0:0,0:0:0:0:
358,117,131916,6,0,L|299:178,1,85,2|0,0:3|0:0,0:0:0:0:
370,330,132240,2,0,L|347:247,1,85,8|0,0:0|0:0,0:0:0:0:
164,247,132564,2,0,L|142:330,1,85,2|0,0:2|0:0,0:0:0:0:
213,178,132889,2,0,L|153:117,1,85,8|0,0:0|0:0,0:0:0:0:
80,240,133213,5,4,0:3:0:0:
248,254,133375,2,0,L|292:257,2,42.5,0|0|8,0:0|0:0|0:3,0:0:0:0:
128,170,133699,1,2,0:3:0:0:
134,142,133781,1,0,0:0:0:0:
149,118,133862,1,8,0:3:0:0:
171,101,133943,1,0,0:0:0:0:
197,91,134024,1,0,0:0:0:0:
226,91,134105,1,0,0:0:0:0:
252,101,134186,1,12,0:3:0:0:
344,246,134348,1,2,0:2:0:0:
213,178,134511,5,2,0:3:0:0:
298,174,134673,1,0,0:0:0:0:
220,325,134835,1,8,0:0:0:0:
174,253,134996,2,0,L|133:232,2,42.5,8|0|8,0:3|0:0|0:3,0:0:0:0:
305,321,135321,1,2,0:3:0:0:
383,170,135483,1,4,0:3:0:0:
259,250,135646,1,8,0:3:0:0:
260,292,135727,1,0,0:0:0:0:
262,334,135808,5,8,0:3:0:0:
344,246,135970,1,0,0:0:0:0:
252,101,136132,1,8,0:0:0:0:
259,250,136294,1,0,0:0:0:0:
338,98,136457,1,0,0:0:0:0:
212,177,136619,1,8,0:3:0:0:
292,25,136780,1,8,0:3:0:0:
383,170,136943,1,0,0:0:0:0:
373,188,137024,1,0,0:0:0:0:
364,208,137105,6,0,B|471:264|521:175|530:102|456:57|414:64|414:64|403:64|376:70|332:107|262:61,1,467.287514046576
202,4,138402,5,0,3:0:0:0:
206,84,138565,1,0,3:0:0:0:
208,97,138646,1,0,3:0:0:0:
211,111,138727,1,0,3:0:0:0:
214,125,138808,1,0,3:0:0:0:
217,139,138889,1,0,3:0:0:0:
220,153,138970,1,0,3:0:0:0:
222,167,139051,5,0,3:0:0:0:
216,193,139132,1,0,3:0:0:0:
211,219,139213,1,0,3:0:0:0:
205,245,139294,1,0,3:0:0:0:
200,271,139375,6,0,B|180:320|272:355|293:323|232:296|216:280,1,127.500004863739,2|0,3:0|3:0,3:0:0:0:
33,232,139699,5,4,0:0:0:0:
143,334,139862,1,0,0:0:0:0:
91,170,140024,1,8,0:0:0:0:
61,314,140186,1,0,0:0:0:0:
61,314,140267,1,0,0:0:0:0:
61,314,140348,1,2,0:3:0:0:
173,190,140511,1,4,0:3:0:0:
33,232,140672,1,8,0:0:0:0:
146,107,140835,1,0,0:0:0:0:
200,273,140997,6,0,P|234:252|262:193,1,85,2|0,0:2|0:0,0:0:0:0:
206,45,141321,1,8,0:0:0:0:
173,190,141484,1,2,0:2:0:0:
173,190,141565,1,0,0:0:0:0:
173,190,141645,1,2,0:3:0:0:
340,225,141807,1,4,0:3:0:0:
231,126,141970,1,8,0:0:0:0:
200,273,142132,1,0,0:0:0:0:
314,142,142294,6,0,P|309:93|281:56,1,85,4|0,0:2|0:0,0:0:0:0:
173,190,142619,1,8,0:0:0:0:
283,289,142781,1,2,0:2:0:0:
283,289,142862,1,0,0:0:0:0:
283,289,142943,1,2,0:3:0:0:
231,126,143105,1,4,0:3:0:0:
115,254,143267,1,8,0:0:0:0:
146,107,143429,1,0,0:0:0:0:
200,271,143592,6,0,L|169:365,2,85,2|0|8,0:2|0:0|0:0,0:0:0:0:
231,126,144077,2,0,L|211:66,2,42.5,2|0|2,0:2|0:0|0:3,0:0:0:0:
339,182,144402,1,4,0:3:0:0:
313,100,144565,1,8,0:0:0:0:
257,208,144727,1,0,0:0:0:0:
352,23,144889,6,0,L|455:-11,1,85,4|0,0:2|0:0,0:0:0:0:
231,126,145213,2,0,L|128:92,1,85,8|0,0:0|0:0,0:0:0:0:
320,266,145537,1,2,0:3:0:0:
339,182,145700,1,4,0:3:0:0:
404,285,145862,1,0,0:0:0:0:
423,201,146024,6,0,P|418:151|385:109,1,85,2|0,0:3|0:0,0:0:0:0:
257,208,146348,1,2,0:2:0:0:
404,285,146511,1,8,0:0:0:0:
339,182,146673,1,0,0:0:0:0:
345,348,146834,2,0,P|401:370|455:357,1,85,2|4,0:3|0:3,0:0:0:0:
423,201,147159,1,8,0:0:0:0:
320,266,147321,1,0,0:0:0:0:
486,259,147484,6,0,P|508:203|495:149,1,85,4|0,0:2|0:0,0:0:0:0:
318,102,147807,2,0,P|319:144|338:181,1,85,8|0,0:0|0:0,0:0:0:0:
404,285,148132,1,2,0:3:0:0:
423,201,148294,1,4,0:3:0:0:
320,266,148457,1,8,0:0:0:0:
255,163,148619,6,0,L|152:129,1,85,2|0,0:3|0:0,0:0:0:0:
145,7,148943,1,2,0:2:0:0:
145,7,149024,1,0,0:0:0:0:
145,7,149105,2,0,L|248:41,1,85,8|2,0:0|0:2,0:0:0:0:
315,8,149348,1,0,0:0:0:0:
315,8,149429,2,0,L|363:104,1,85,2|4,0:3|0:3,0:0:0:0:
434,128,149672,1,0,0:0:0:0:
434,128,149753,2,0,L|400:230,1,85,8|0,0:0|0:0,0:0:0:0:
345,348,150078,6,0,L|242:314,1,85,4|0,0:2|0:0,0:0:0:0:
246,237,150402,1,8,0:0:0:0:
408,291,150565,2,0,P|429:340|423:380,1,85,0|2,0:0|0:3,0:0:0:0:
327,264,150888,1,4,0:3:0:0:
472,234,151051,1,8,0:0:0:0:
345,348,151213,1,0,0:0:0:0:
345,348,151294,1,0,0:0:0:0:
345,348,151375,6,0,L|242:314,1,85,2|0,0:2|0:0,0:0:0:0:
183,294,151700,1,8,0:0:0:0:
227,157,151862,2,0,P|246:194|246:236,1,85,0|2,0:0|0:3,0:0:0:0:
163,214,152186,1,4,0:3:0:0:
291,100,152348,1,8,0:0:0:0:
327,264,152511,1,0,0:0:0:0:
327,264,152592,1,0,0:0:0:0:
327,264,152673,6,0,L|430:298,1,85,4|0,0:2|0:0,0:0:0:0:
472,234,152997,1,8,0:0:0:0:
309,182,153159,2,0,L|206:216,1,85,2|2,0:2|0:3,0:0:0:0:
164,152,153484,1,4,0:3:0:0:
326,98,153646,1,8,0:0:0:0:
383,222,153808,1,0,0:0:0:0:
411,88,153970,5,2,0:3:0:0:
309,182,154132,1,0,0:0:0:0:
359,19,154294,1,8,0:0:0:0:
446,165,154457,1,0,0:0:0:0:
446,165,154537,1,0,0:0:0:0:
446,165,154619,1,8,0:3:0:0:
326,98,154781,1,4,0:3:0:0:
495,96,154942,1,8,0:0:0:0:
463,248,155105,1,0,0:0:0:0:
463,248,155186,1,0,0:0:0:0:
463,248,155267,6,0,P|427:293|317:274,1,170,4|8,0:2|0:0,0:0:0:0:
209,197,155753,1,2,0:2:0:0:
209,197,155835,1,0,0:0:0:0:
209,197,155915,1,2,0:3:0:0:
309,182,156078,1,4,0:3:0:0:
224,297,156240,1,8,0:0:0:0:
248,121,156402,1,4,0:3:0:0:
324,281,156565,6,0,P|402:303|463:248,1,170,2|8,0:2|0:0,0:0:0:0:
326,98,157051,1,2,0:2:0:0:
326,98,157132,1,0,0:0:0:0:
326,98,157213,1,2,0:3:0:0:
383,222,157375,1,4,0:3:0:0:
444,8,157538,1,8,0:0:0:0:
252,58,157700,1,0,0:0:0:0:
309,182,157862,5,8,3:0:0:0:
304,202,157943,1,0,3:0:0:0:
300,223,158024,1,0,3:0:0:0:
295,244,158105,1,0,3:0:0:0:
291,265,158186,1,0,3:0:0:0:
401,305,158348,5,8,3:0:0:0:
397,285,158429,1,0,3:0:0:0:
392,264,158511,1,0,3:0:0:0:
388,243,158592,1,0,3:0:0:0:
383,222,158673,1,0,3:0:0:0:
338,362,158835,5,8,0:3:0:0:
464,248,158997,1,4,0:3:0:0:
309,182,159159,6,0,P|281:177|254:189,2,56.6666666666667,8|0|0,3:0|3:0|3:0,3:0:0:0:
252,58,159483,2,0,P|234:79|230:109,2,56.6666666666667,4|0|0,3:0|3:0|3:0,3:0:0:0:
116,45,159807,2,0,P|126:71|149:89,2,56.6666666666667,8|0|0,3:0|3:0|3:0,3:0:0:0:
36,156,160132,2,0,P|63:160|91:149,2,56.6666666666667,4|0|0,3:0|3:0|3:0,3:0:0:0:
92,280,160456,5,2,3:2:0:0:
132,317,170835,6,0,P|105:368|61:391,1,85,2|0,0:3|0:0,0:0:0:0:
49,305,171159,2,0,P|18:256|20:206,1,85
100,239,171484,2,0,P|157:236|199:263,1,85,2|0,0:0|0:0,0:0:0:0:
214,324,171808,2,0,B|302:324,1,85
348,254,172132,6,0,P|375:203|419:180,1,85,2|0,0:0|0:0,0:0:0:0:
431,266,172457,2,0,P|461:314|459:364,1,85
380,332,172781,2,0,P|322:334|280:307,1,85,2|0,0:0|0:0,0:0:0:0:
266,247,173105,2,0,B|178:247,1,85
181,99,173429,6,0,B|223:172,1,85,4|0,0:2|0:0,0:0:0:0:
266,99,173754,1,0,0:0:0:0:
138,25,173915,2,0,P|105:57|100:118,1,85,2|0,0:0|0:0,0:0:0:0:
181,99,174240,1,0,0:0:0:0:
308,25,174402,1,0,0:0:0:0:
325,37,174484,1,0,0:0:0:0:
338,53,174565,1,0,0:0:0:0:
347,72,174646,1,0,0:0:0:0:
350,95,174726,6,0,B|352:157|296:176|296:176|222:141|220:208|137:172,1,255.000009727478,2|0,0:2|0:0,0:0:0:0:
266,306,175700,2,0,P|270:275|258:246,1,63.7500024318696,2|0,0:2|0:0,0:0:0:0:
183,288,176023,6,0,B|381:333,1,170,2|8,0:2|0:0,0:0:0:0:
400,187,176510,2,0,B|343:223|343:223|348:325,1,170,2|4,0:3|0:3,0:3:0:0:
426,268,176996,2,0,B|508:216,1,85,8|0,0:0|0:0,0:0:0:0:
374,106,177321,6,0,B|354:100|340:86|340:86|333:103|333:103|283:72|224:106,1,170,2|8,0:2|0:0,0:0:0:0:
139,60,177807,2,0,P|197:116|184:197,1,170,2|4,0:2|0:3,0:0:0:0:
32,163,178294,2,0,L|115:143,1,85,8|0,0:0|0:0,0:0:0:0:
253,251,178619,6,0,L|335:271,1,85,2|0,0:2|0:0,0:0:0:0:
422,177,178943,1,8,0:0:0:0:
331,181,179105,1,0,0:0:0:0:
426,268,179267,2,0,P|467:256|507:209,1,85,2|4,0:3|0:3,0:0:0:0:
373,100,179592,2,0,L|290:79,1,85,8|0,0:0|0:0,0:0:0:0:
164,173,179916,6,0,L|247:153,1,85,2|0,0:2|0:0,0:0:0:0:
91,129,180240,2,0,L|28:186,1,85,8|0,0:0|0:0,0:0:0:0:
52,301,180565,1,2,0:3:0:0:
98,232,180726,1,4,0:3:0:0:
167,278,180889,2,0,L|249:257,1,85,8|0,0:0|0:0,0:0:0:0:
331,181,181213,6,0,L|413:202,2,85,2|0|8,0:2|0:0|0:0,0:0:0:0:
308,99,181699,2,0,L|285:17,1,85,2|2,0:2|0:3,0:0:0:0:
390,120,182024,1,4,0:3:0:0:
250,160,182186,2,0,L|190:220,1,85,8|0,0:0|0:0,0:0:0:0:
214,302,182511,6,0,L|154:362,2,85,2|0|8,0:2|0:0|0:0,0:0:0:0:
296,323,182997,2,0,L|378:344,1,85,2|2,0:2|0:3,0:0:0:0:
238,383,183321,1,4,0:3:0:0:
273,242,183484,2,0,L|250:160,1,85,8|0,0:0|0:0,0:0:0:0:
145,57,183808,6,0,P|110:36|62:35,1,85,2|4,0:2|0:3,0:0:0:0:
84,118,184132,1,4,0:3:0:0:
228,79,184294,2,0,P|229:39|205:-2,1,85,4|4,0:2|0:3,0:0:0:0:
84,118,184619,1,4,0:3:0:0:
251,161,184781,6,0,P|286:141|310:100,1,85,2|4,0:2|0:3,0:0:0:0:
145,57,185105,1,4,0:3:0:0:
191,221,185267,2,0,L|219:325,1,85,4|4,0:2|0:3,0:0:0:0:
354,265,185591,1,4,0:3:0:0:
251,161,185754,5,8,0:3:0:0:
293,324,185916,1,0,0:0:0:0:
415,206,186077,1,8,0:3:0:0:
84,118,186402,5,4,0:3:0:0:
272,242,186565,2,0,P|308:219|331:184,1,85,0|8,0:0|0:0,0:0:0:0:
228,79,186889,1,2,0:2:0:0:
107,199,187051,1,8,0:0:0:0:
211,300,187213,1,0,0:0:0:0:
251,161,187375,1,8,0:0:0:0:
130,280,187537,6,0,P|138:339|165:368,1,85,2|0,0:3|0:0,0:0:0:0:
293,324,187862,1,8,3:0:0:0:
299,308,187943,1,0,3:0:0:0:
304,292,188024,1,8,3:0:0:0:
305,275,188105,1,0,3:0:0:0:
302,258,188186,1,0,3:0:0:0:
295,242,188267,1,0,3:0:0:0:
288,227,188348,1,8,3:0:0:0:
283,211,188429,1,0,3:0:0:0:
283,194,188511,1,0,3:0:0:0:
287,177,188592,1,0,3:0:0:0:
295,162,188673,2,0,L|379:150,1,85,8|0,3:0|3:0,3:0:0:0:
242,94,188997,6,0,L|158:106,1,85,2|0,0:3|0:0,0:0:0:0:
73,117,189321,1,8,0:0:0:0:
178,252,189484,2,0,L|250:76,1,170,2|4,0:2|0:3,0:0:0:0:
189,26,189969,1,8,0:0:0:0:
125,185,190132,6,0,B|96:259|96:259|99:321|170:337,1,170
261,242,190619,1,8,0:0:0:0:
178,252,190781,1,0,0:0:0:0:
311,308,190943,1,2,0:3:0:0:
211,176,191105,1,4,0:3:0:0:
228,318,191267,2,0,P|245:360|291:389,1,85,8|0,0:0|0:0,0:0:0:0:
344,232,191591,6,0,P|327:190|281:161,1,85,2|0,0:3|0:0,0:0:0:0:
211,176,191916,1,8,0:0:0:0:
311,308,192077,2,0,P|374:309|419:198,1,170,2|4,0:2|0:3,0:0:0:0:
261,242,192565,1,8,0:0:0:0:
145,327,192727,6,0,L|42:338,1,85,2|0,0:3|0:0,0:0:0:0:
126,185,193050,2,0,L|228:173,1,85,0|8,0:0|0:0,0:0:0:0:
93,263,193375,1,0,0:0:0:0:
75,118,193537,1,8,3:0:0:0:
93,107,193619,1,0,3:0:0:0:
113,101,193700,1,0,3:0:0:0:
134,100,193781,1,0,3:0:0:0:
155,106,193862,2,0,L|257:88,1,85,8|0,3:0|3:0,3:0:0:0:
335,161,194186,5,0,0:0:0:0:
350,244,194348,1,4,0:3:0:0:
252,175,194510,1,0,0:0:0:0:
266,259,194673,1,4,0:2:0:0:
169,189,194835,5,4,0:3:0:0:
148,315,194997,1,0,0:0:0:0:
44,167,195159,1,8,0:3:0:0:
22,292,195321,1,0,0:0:0:0:
116,119,195483,5,0,0:0:0:0:
148,315,195645,1,4,0:2:0:0:
335,161,195807,1,4,0:3:0:0:
169,189,195970,1,0,0:0:0:0:
365,327,196132,5,8,0:3:0:0:
238,91,196294,1,0,0:0:0:0:
148,315,196457,1,0,0:0:0:0:
413,190,196618,1,4,0:3:0:0:
0,28,198077,5,4,0:2:0:0:
256,384,199375,5,4,0:2:0:0:
512,28,200672,5,4,0:2:0:0:
95,149,201970,6,0,L|99:259,1,85,4|0,0:2|0:0,0:0:0:0:
101,317,202457,1,0,0:0:0:0:
101,317,202538,1,0,0:0:0:0:
101,317,202618,2,0,L|35:358,2,63.75,8|8|0,0:3|0:3|0:0,0:0:0:0:
171,273,203267,6,0,L|247:312,1,63.7500024318696,2|0,0:2|0:0,0:0:0:0:
241,229,203591,2,0,L|313:183,1,63.7500024318696
235,146,203916,2,0,L|289:112,1,63.7500024318696,4|0,0:3|0:0,0:0:0:0:
301,38,204240,2,0,L|357:67,1,63.7500024318696
426,101,204565,6,0,P|433:61|413:16,1,74.3750007092953,4|0,0:3|0:0,0:0:0:0:
430,176,204889,2,0,P|468:162|497:122,1,74.3750007092953
367,216,205213,2,0,P|398:242|447:247,1,74.3750007092953,4|0,0:3|0:0,0:0:0:0:
300,181,205538,2,0,P|292:220|312:265,1,74.3750007092953
296,105,205862,6,0,B|269:109|249:119|235:143|235:143|161:158,1,148.750001418591,4|0,0:3|0:0,0:0:0:0:
107,214,206348,1,0,0:0:0:0:
107,214,206429,1,0,0:0:0:0:
107,214,206510,2,0,L|65:222,1,42.5,4|0,0:2|0:0,0:0:0:0:
186,245,206673,2,0,L|227:253,1,42.5
130,301,206834,2,0,L|88:309,1,42.5,2|0,0:2|0:0,0:0:0:0:
209,332,206997,1,0,0:0:0:0:
229,336,207078,1,0,0:0:0:0:
250,340,207159,5,0,0:0:0:0:
307,276,207321,1,2,3:3:0:0:
327,271,207402,1,0,3:0:0:0:
348,267,207484,1,0,3:0:0:0:
364,183,207646,1,0,3:0:0:0:
377,180,207727,1,0,3:0:0:0:
391,177,207808,1,0,3:0:0:0:
405,174,207889,1,0,3:0:0:0:
419,172,207970,1,0,3:0:0:0:
433,169,208051,1,0,3:0:0:0:
447,166,208132,6,0,B|511:153|507:100|460:110,1,106.25,2|0,3:0|2:0,3:0:0:0:
148,101,208780,6,0,L|161:186,1,85,8|0,0:3|0:0,0:0:0:0:
351,186,209105,2,0,L|363:101,1,85,0|4,0:0|0:3,0:0:0:0:
271,217,209429,1,8,0:0:0:0:
417,239,209592,1,0,0:0:0:0:
285,133,209753,6,0,P|240:138|198:175,1,85,2|0,0:2|0:0,0:0:0:0:
337,270,210078,1,8,0:0:0:0:
365,102,210240,1,2,0:2:0:0:
356,82,210321,1,0,0:0:0:0:
347,63,210402,1,2,0:3:0:0:
271,217,210565,1,4,0:3:0:0:
417,239,210727,1,8,0:0:0:0:
285,133,210889,1,0,0:0:0:0:
257,301,211051,6,0,L|141:345,1,85,4|0,0:2|0:0,0:0:0:0:
121,148,211375,1,8,0:0:0:0:
285,133,211537,1,2,0:2:0:0:
285,133,211619,1,0,0:0:0:0:
285,133,211700,1,2,0:3:0:0:
187,203,211862,1,4,0:3:0:0:
255,53,212024,1,8,0:0:0:0:
271,217,212186,1,0,0:0:0:0:
170,39,212348,5,2,0:2:0:0:
339,67,212511,1,0,0:0:0:0:
218,281,212673,1,8,0:0:0:0:
255,53,212835,1,0,0:0:0:0:
355,231,212997,1,8,0:3:0:0:
348,251,213078,1,0,0:0:0:0:
336,269,213159,1,0,0:0:0:0:
322,284,213240,1,0,0:0:0:0:
304,295,213321,1,8,0:0:0:0:
325,151,213484,1,0,0:0:0:0:
345,154,213565,1,0,0:0:0:0:
366,158,213646,6,0,L|468:136,1,85,4|0,0:2|0:0,0:0:0:0:
255,53,213970,2,0,L|153:75,1,85,8|0,0:0|0:0,0:0:0:0:
114,231,214294,1,2,0:3:0:0:
225,135,214457,1,4,0:3:0:0:
59,167,214619,1,8,0:0:0:0:
169,295,214781,1,2,0:2:0:0:
171,70,214942,6,0,P|119:69|83:91,1,85,4|0,0:2|0:0,0:0:0:0:
114,231,215267,1,8,0:0:0:0:
146,150,215429,1,2,0:2:0:0:
281,199,215592,1,8,3:0:0:0:
294,183,215673,1,0,3:0:0:0:
304,164,215754,1,0,3:0:0:0:
309,143,215835,1,0,3:0:0:0:
308,122,215916,1,8,3:0:0:0:
321,106,215997,1,0,3:0:0:0:
331,87,216078,1,0,3:0:0:0:
336,66,216159,1,0,3:0:0:0:
335,45,216240,6,0,L|285:1,1,63.7500024318696,4|0,0:3|0:0,0:0:0:0:
225,135,216565,2,0,L|203:71,1,63.7500024318696,2|0,0:2|0:0,0:0:0:0:
83,157,216889,2,0,L|96:91,1,63.7500024318696,2|0,0:2|0:0,0:0:0:0:
197,216,217213,1,0,0:0:0:0:
305,146,217375,6,0,P|343:171|363:225,1,85,4|0,0:3|0:0,0:0:0:0:
256,308,217700,1,0,0:0:0:0:
116,224,217862,1,8,0:0:0:0:
279,227,218024,1,4,0:3:0:0:
195,366,218186,1,0,0:0:0:0:
198,204,218348,1,4,0:3:0:0:
337,287,218510,1,8,0:3:0:0:
175,285,218672,1,4,0:3:0:0:
258,145,218834,6,0,L|331:74,1,85,4|0,0:2|0:0,0:0:0:0:
176,122,219159,2,0,L|78:94,1,85,8|0,0:0|0:0,0:0:0:0:
195,366,219484,1,2,0:2:0:0:
198,204,219646,1,4,0:3:0:0:
96,307,219807,1,8,0:0:0:0:
257,265,219970,6,0,L|354:292,1,85,2|0,0:2|0:0,0:0:0:0:
398,228,220294,1,0,0:0:0:0:
258,145,220457,1,8,0:0:0:0:
338,288,220619,1,0,0:0:0:0:
480,250,220781,1,2,0:2:0:0:
376,146,220943,1,4,0:3:0:0:
420,310,221105,2,0,P|471:333|507:331,1,85,8|0,0:0|0:0,0:0:0:0:
376,146,221429,6,0,P|325:123|289:125,1,85,4|0,0:2|0:0,0:0:0:0:
257,265,221753,1,8,0:0:0:0:
398,228,221915,2,0,P|453:178|437:88,1,170,2|4,0:2|0:3,0:0:0:0:
316,206,222402,1,8,0:0:0:0:
420,310,222565,6,0,L|529:339,1,85,2|0,0:3|0:0,0:0:0:0:
376,146,222888,2,0,L|266:175,1,85,0|8,0:0|0:0,0:0:0:0:
176,199,223213,1,2,0:2:0:0:
176,199,223294,1,0,0:0:0:0:
176,199,223375,1,2,0:3:0:0:
219,125,223538,1,4,0:3:0:0:
250,242,223700,2,0,L|279:351,1,85,8|0,0:0|0:0,0:0:0:0:
102,242,224024,6,0,P|91:192|111:143,1,85,4|0,0:2|0:0,0:0:0:0:
219,125,224348,1,8,0:0:0:0:
176,284,224510,2,0,L|3:261,1,170,2|4,0:2|0:3,0:0:0:0:
176,199,224997,1,8,0:0:0:0:
249,325,225159,6,0,L|335:336,1,85,2|0,0:3|0:0,0:0:0:0:
384,268,225484,1,2,0:2:0:0:
265,177,225646,1,8,0:0:0:0:
176,284,225808,1,2,0:2:0:0:
298,256,225970,1,2,0:3:0:0:
180,165,226132,1,4,0:3:0:0:
249,325,226294,2,0,P|289:342|335:334,1,85,8|0,0:0|0:0,0:0:0:0:
368,41,226619,5,4,0:2:0:0:
265,177,226780,1,2,0:2:0:0:
384,268,226943,1,8,0:0:0:0:
316,107,227105,1,2,0:2:0:0:
159,312,227267,1,4,0:3:0:0:
351,188,227429,1,2,0:2:0:0:
141,83,227592,1,8,0:3:0:0:
298,256,227754,6,0,L|384:268,1,85,4|0,0:3|0:0,0:0:0:0:
401,119,228078,1,8,0:3:0:0:
265,177,228240,1,8,0:3:0:0:
435,198,228402,1,4,0:3:0:0:
316,107,228565,2,0,L|214:93,1,85,0|0,3:0|0:0,0:0:0:0:
181,189,228889,2,0,L|283:175,1,85,0|0,3:0|0:0,0:0:0:0:
141,83,229213,5,2,0:2:0:0:
256,192,229294,12,0,231807,2:0:0:0:
