osu file format v14

[General]
AudioFilename: omg it is CHiCO with HoneyWorks OMG OMG OMG OMG.mp3
AudioLeadIn: 0
PreviewTime: 45098
Countdown: 0
SampleSet: Soft
StackLeniency: 0.7
Mode: 0
LetterboxInBreaks: 0
WidescreenStoryboard: 0

[Editor]
Bookmarks: 47449
DistanceSpacing: 1.3
BeatDivisor: 4
GridSize: 4
TimelineZoom: 1.6

[Metadata]
Title:Pride Kakumei
TitleUnicode:プライド革命
Artist:CHiCO with HoneyWorks
ArtistUnicode:CHiCO with HoneyWorks
Creator:HabiHolic
Version:Insane
Source:銀魂°
Tags:TV Size Gintama° Opening 2 2015 koreapenguin xChippy KantoKun Chaoslitz
BeatmapID:757272
BeatmapSetID:342605

[Difficulty]
HPDrainRate:7
CircleSize:4
OverallDifficulty:7
ApproachRate:9
SliderMultiplier:1.76
SliderTickRate:1

[Events]
//Background and Video events
0,0,"BG.jpg",0,0
//Break Periods
//Storyboard Layer 0 (Background)
//Storyboard Layer 1 (Fail)
//Storyboard Layer 2 (Pass)
//Storyboard Layer 3 (Foreground)
//Storyboard Sound Samples

[TimingPoints]
747,324.324324324324,4,2,0,50,1,0
747,-133.333333333333,4,2,0,50,0,0
10314,-200,4,2,0,30,0,0
11125,-133.333333333333,4,2,0,30,0,0
12422,-100,4,2,69,80,0,0
46152,-200,4,2,69,40,0,0
47449,-200,4,2,0,40,0,0
48746,-100,4,2,69,80,0,1
58963,-100,4,2,69,80,0,0
59125,-100,4,2,69,80,0,1
69503,-100,4,2,69,80,0,0
74692,-133.333333333333,4,2,69,80,0,0
78909,-100,4,2,69,80,0,0
79882,-200,4,2,69,80,0,0
80206,-100,4,2,69,80,0,1
87665,-100,4,2,69,80,0,0

[Colours]
Combo1 : 255,192,130
Combo2 : 255,128,255
Combo3 : 0,128,255
Combo4 : 0,193,49

[HitObjects]
64,96,747,5,2,0:0:0:0:
144,192,909,2,0,L|220:184,1,66.0000025177003,0|8,0:0|0:0,0:0:0:0:
64,96,1233,1,0,0:0:0:0:
168,288,1395,1,0,0:0:0:0:
168,288,1557,2,0,L|36:308,1,132.000005035401
252,351,2044,6,0,P|270:324|276:292,1,66.0000025177003,2|0,0:0|0:0,0:0:0:0:
216,132,2368,2,0,L|224:200,1,66.0000025177003,8|0,0:0|0:0,0:0:0:0:
456,188,2692,2,0,P|392:168|332:196,1,132.000005035401,0|2,0:0|0:0,0:0:0:0:
335,193,3179,1,0,0:0:0:0:
132,312,3341,2,0,P|196:332|256:304,1,132.000005035401,0|8,0:0|0:0,0:0:0:0:
192,232,3828,1,0,0:0:0:0:
56,244,3990,2,0,P|36:272|32:304,1,66.0000025177003
124,160,4314,2,0,P|96:136|68:132,1,66.0000025177003,2|0,0:0|0:0,0:0:0:0:
192,232,4638,2,0,L|208:96,1,132.000005035401,2|8,0:0|0:0,0:0:0:0:
208,88,5287,5,2,0:0:0:0:
312,72,5449,1,0,0:0:0:0:
412,56,5611,1,2,0:0:0:0:
424,64,5936,5,2,0:0:0:0:
480,196,6098,2,0,L|492:132,1,66.0000025177003,0|8,0:0|0:0,0:0:0:0:
360,172,6422,2,0,L|380:304,1,132.000005035401,2|0,0:0|0:0,0:0:0:0:
292,364,6909,1,8,0:0:0:0:
292,352,7233,5,2,0:0:0:0:
216,288,7395,2,0,P|184:280|148:288,1,66.0000025177003,0|8,0:0|0:0,0:0:0:0:
60,336,7719,2,0,L|44:204,1,132.000005035401,2|0,0:0|0:0,0:0:0:0:
144,104,8206,1,2,0:0:0:0:
32,188,8368,1,0,0:0:0:0:
228,160,8530,5,8,0:0:0:0:
228,160,8692,2,0,L|236:28,1,132.000005035401,2|0,0:0|0:0,0:0:0:0:
128,92,9179,1,8,0:0:0:0:
164,228,9341,2,0,P|189:248|221:253,1,66.0000025177003,2|0,0:0|0:0,0:0:0:0:
444,216,9665,2,0,L|304:208,1,132.000005035401,2|0,0:0|0:0,0:0:0:0:
127,91,10314,6,0,P|52:96|76:168,1,176,2|0,0:0|0:0,0:0:0:0:
256,192,11125,12,0,12098,0:0:0:0:
224,132,12422,5,12,0:0:0:0:
64,220,12584,1,2,0:0:0:0:
80,52,12746,1,8,0:0:0:0:
180,244,12909,1,2,0:0:0:0:
180,244,12990,1,2,0:0:0:0:
180,244,13071,2,0,L|280:240,1,88,2|2,0:0|0:0,0:0:0:0:
376,236,13395,1,8,0:0:0:0:
232,344,13557,6,0,P|148:348|80:288,1,176,4|2,0:0|0:0,0:0:0:0:
96,144,14044,1,8,0:0:0:0:
288,172,14206,1,2,0:0:0:0:
288,172,14287,1,2,0:0:0:0:
288,172,14368,2,0,L|296:264,1,88,2|2,0:0|0:0,0:0:0:0:
480,184,14692,2,0,L|487:96,1,88,8|0,0:0|0:0,0:0:0:0:
408,20,15017,5,4,0:0:0:0:
256,80,15179,1,2,0:0:0:0:
384,172,15341,1,8,0:0:0:0:
320,12,15503,1,2,0:0:0:0:
320,12,15584,1,2,0:0:0:0:
320,12,15665,1,2,0:0:0:0:
476,128,15828,2,0,L|492:32,1,88,2|8,0:0|0:0,0:0:0:0:
240,116,16152,6,0,P|156:124|96:60,1,176,4|2,0:0|0:0,0:0:0:0:
16,152,16638,2,0,L|24:248,1,88,8|0,0:0|0:0,0:0:0:0:
96,340,16963,1,8,0:0:0:0:
121,356,17044,1,2,0:0:0:0:
150,366,17125,1,2,0:0:0:0:
181,367,17206,1,2,0:0:0:0:
211,360,17287,1,8,0:0:0:0:
238,345,17368,1,2,0:0:0:0:
260,323,17449,1,2,0:0:0:0:
275,297,17530,1,2,0:0:0:0:
283,267,17611,6,0,L|276:176,1,88,4|0,0:0|0:0,0:0:0:0:
456,108,17936,2,0,L|449:195,1,88,8|0,0:0|0:0,0:0:0:0:
368,40,18260,1,2,0:0:0:0:
264,160,18422,1,2,0:0:0:0:
156,64,18584,2,0,L|252:60,1,88,8|0,0:0|0:0,0:0:0:0:
144,224,18909,6,0,P|52:216|12:140,1,176,2|8,0:0|0:0,0:0:0:0:
232,160,19395,1,2,0:0:0:0:
232,160,19476,1,2,0:0:0:0:
232,160,19557,2,0,L|244:252,1,88,2|2,0:0|0:0,0:0:0:0:
400,304,19882,2,0,L|411:216,1,88,8|0,0:0|0:0,0:0:0:0:
280,48,20206,6,0,B|216:56|216:56|172:40|172:40|104:52,1,176,2|8,0:0|0:0,0:0:0:0:
32,172,20692,1,2,0:0:0:0:
32,172,20774,1,2,0:0:0:0:
32,172,20855,1,2,0:0:0:0:
180,128,21017,1,2,0:0:0:0:
140,272,21179,1,8,0:0:0:0:
88,88,21341,1,0,0:0:0:0:
236,220,21503,6,0,L|328:212,1,88,2|2,0:0|0:0,0:0:0:0:
480,148,21828,2,0,L|388:140,1,88,8|0,0:0|0:0,0:0:0:0:
292,128,22152,1,2,0:0:0:0:
340,304,22314,1,2,0:0:0:0:
468,188,22476,1,8,0:0:0:0:
292,128,22638,1,0,0:0:0:0:
368,204,22801,5,2,0:0:0:0:
204,192,22963,2,0,L|112:188,1,88,2|8,0:0|0:0,0:0:0:0:
4,136,23287,1,2,0:0:0:0:
4,136,23368,1,2,0:0:0:0:
4,136,23449,2,0,P|12:184|8:224,1,88,2|2,0:0|0:0,0:0:0:0:
148,336,23774,2,0,P|144:292|152:249,1,88,8|0,0:0|0:0,0:0:0:0:
216,136,24098,6,0,L|128:132,1,88,2|2,0:0|0:0,0:0:0:0:
280,232,24422,1,8,0:0:0:0:
280,232,24584,2,0,P|360:256|424:200,1,176,2|2,0:0|0:0,0:0:0:0:
412,36,25071,1,8,0:0:0:0:
504,196,25233,1,0,0:0:0:0:
412,36,25395,6,0,L|324:44,1,88,2|2,0:0|0:0,0:0:0:0:
156,112,25719,2,0,L|244:120,1,88,8|0,0:0|0:0,0:0:0:0:
328,176,26044,1,2,0:0:0:0:
80,272,26206,2,0,L|68:184,1,88,0|8,0:0|0:0,0:0:0:0:
52,60,26530,1,2,0:0:0:0:
228,224,27179,5,2,0:0:0:0:
228,224,27260,1,2,0:0:0:0:
228,224,27341,1,8,0:0:0:0:
248,52,27503,1,8,3:0:0:0:
96,116,27665,1,8,3:0:0:0:
228,224,27828,1,8,3:0:0:0:
352,108,27990,6,0,L|360:16,1,88,6|0,0:0|0:0,0:0:0:0:
228,48,28314,1,2,0:0:0:0:
464,72,28476,1,2,0:0:0:0:
380,216,28638,2,0,P|336:208|292:204,1,88,8|0,0:0|0:0,0:0:0:0:
192,260,28963,1,2,0:0:0:0:
476,300,29125,1,2,0:0:0:0:
476,300,29206,1,8,0:0:0:0:
476,300,29287,6,0,L|488:208,1,88,2|2,0:0|0:0,0:0:0:0:
344,128,29611,2,0,L|355:215,1,88,2|0,0:0|0:0,0:0:0:0:
304,340,29936,1,8,0:0:0:0:
172,260,30098,2,0,P|128:252|80:252,1,88,2|2,0:0|0:0,0:0:0:0:
16,104,30422,5,2,0:0:0:0:
16,104,30503,1,8,0:0:0:0:
16,104,30584,2,0,P|96:120|184:84,1,176,2|2,0:0|0:0,0:0:0:0:
292,24,31071,1,0,0:0:0:0:
292,24,31233,2,0,L|304:116,1,88,8|0,0:0|0:0,0:0:0:0:
468,208,31557,2,0,L|479:120,1,88,2|2,0:0|0:0,0:0:0:0:
479,120,31801,1,2,0:0:0:0:
479,120,31882,1,2,0:0:0:0:
312,184,32044,1,2,0:0:0:0:
420,12,32206,1,2,0:0:0:0:
420,12,32530,5,0,0:0:0:0:
300,40,32692,1,0,0:0:0:0:
380,112,32855,1,2,0:0:0:0:
379,112,33179,6,0,P|296:137|216:104,1,176,4|2,0:0|0:0,0:0:0:0:
128,32,33665,1,0,0:0:0:0:
28,96,33828,2,0,P|20:140|32:184,1,88,8|0,0:0|0:0,0:0:0:0:
176,256,34152,2,0,P|186:213|178:170,1,88,2|0,0:0|0:0,0:0:0:0:
80,304,34476,6,0,P|148:355|231:339,1,176,2|2,0:0|0:0,0:0:0:0:
292,208,34963,1,2,0:0:0:0:
396,300,35125,2,0,L|488:296,1,88,8|0,0:0|0:0,0:0:0:0:
292,208,35449,2,0,L|200:204,1,88,2|2,0:0|0:0,0:0:0:0:
136,244,35692,1,8,0:0:0:0:
136,244,35774,2,0,P|56:264|0:196,1,176,2|2,0:0|0:0,0:0:0:0:
96,108,36260,1,2,0:0:0:0:
260,200,36422,2,0,L|252:296,1,88,8|2,0:0|0:0,0:0:0:0:
444,356,36746,2,0,L|436:268,1,88,2|0,0:0|0:0,0:0:0:0:
308,116,37071,6,0,P|264:100|224:108,1,88,8|2,0:0|0:0,0:0:0:0:
128,192,37395,2,0,P|85:199|44:183,1,88,8|2,0:0|0:0,0:0:0:0:
104,92,37719,1,2,0:0:0:0:
240,216,37882,1,2,0:0:0:0:
240,216,37963,1,2,0:0:0:0:
240,216,38044,2,0,L|232:308,1,88,8|0,0:0|0:0,0:0:0:0:
296,360,38287,5,0,0:0:0:0:
296,360,38368,2,0,B|352:360|380:304|380:304|404:332|448:332,1,176,6|8,0:0|0:0,0:0:0:0:
456,240,38855,1,0,0:0:0:0:
292,168,39017,2,0,L|300:260,1,88,2|2,0:0|0:0,0:0:0:0:
488,152,39341,2,0,L|495:64,1,88,8|0,0:0|0:0,0:0:0:0:
351,83,39665,6,0,P|270:60|199:108,1,176,2|8,0:0|0:0,0:0:0:0:
116,216,40152,1,0,0:0:0:0:
212,288,40314,2,0,L|304:284,1,88,2|2,0:0|0:0,0:0:0:0:
484,192,40638,2,0,L|396:188,1,88,8|0,0:0|0:0,0:0:0:0:
164,120,40963,2,0,P|244:136|328:88,1,176,2|8,0:0|0:0,0:0:0:0:
232,28,41449,1,0,0:0:0:0:
52,80,41611,2,0,L|60:176,1,88,2|2,0:0|0:0,0:0:0:0:
272,256,41936,2,0,L|279:168,1,88,8|0,0:0|0:0,0:0:0:0:
168,204,42260,5,2,0:0:0:0:
380,224,42422,1,2,0:0:0:0:
380,224,42503,1,2,0:0:0:0:
380,224,42584,1,8,0:0:0:0:
175,320,42746,2,0,P|94:343|23:295,1,176,2|2,0:0|0:0,0:0:0:0:
8,144,43233,1,8,0:0:0:0:
168,204,43395,1,0,0:0:0:0:
128,36,43557,6,0,L|216:40,1,88,6|2,0:0|0:0,0:0:0:0:
464,92,43882,2,0,L|376:96,1,88,8|0,0:0|0:0,0:0:0:0:
376,95,44125,1,2,0:0:0:0:
376,95,44206,1,2,0:0:0:0:
220,172,44368,1,2,0:0:0:0:
240,24,44530,1,8,0:0:0:0:
332,196,44692,1,2,0:0:0:0:
332,196,44774,1,2,0:0:0:0:
332,196,44855,6,0,L|428:192,1,88,2|2,0:0|0:0,0:0:0:0:
188,264,45179,2,0,L|92:260,1,88,8|2,0:0|0:0,0:0:0:0:
36,296,45422,1,2,0:0:0:0:
36,296,45503,2,0,P|52:208|32:124,1,176,2|8,0:0|0:0,0:0:0:0:
184,28,45990,5,2,0:0:0:0:
184,28,46071,1,2,0:0:0:0:
184,28,46152,2,0,B|176:76|208:108|208:108|252:88|248:36|248:36|280:84|320:88|320:88|352:52|396:72,1,352,12|2,0:0|0:0,0:0:0:0:
396,72,48746,5,4,0:0:0:0:
300,136,48909,2,0,L|204:132,1,88,2|8,0:0|0:0,0:0:0:0:
24,204,49233,1,2,0:0:0:0:
24,204,49314,1,2,0:0:0:0:
24,204,49395,2,0,L|120:200,1,88,2|2,0:0|0:0,0:0:0:0:
216,240,49719,1,8,0:0:0:0:
184,40,49882,1,0,0:0:0:0:
296,160,50044,5,2,0:0:0:0:
412,212,50206,2,0,L|416:120,1,88,2|8,0:0|0:0,0:0:0:0:
376,20,50530,1,2,0:0:0:0:
376,20,50611,1,2,0:0:0:0:
376,20,50692,1,2,0:0:0:0:
168,76,50855,2,0,L|264:72,1,88,2|8,0:0|0:0,0:0:0:0:
308,176,51179,1,0,0:0:0:0:
52,128,51341,6,0,L|44:40,1,88,2|2,0:0|0:0,0:0:0:0:
152,192,51665,1,8,0:0:0:0:
40,328,51828,1,2,0:0:0:0:
40,328,51909,1,2,0:0:0:0:
40,328,51990,1,2,0:0:0:0:
52,128,52152,1,2,0:0:0:0:
140,296,52314,2,0,L|232:292,1,88,8|0,0:0|0:0,0:0:0:0:
464,224,52638,6,0,L|376:220,1,88,2|2,0:0|0:0,0:0:0:0:
268,216,52963,1,8,0:0:0:0:
184,112,53125,1,2,0:0:0:0:
184,112,53206,1,2,0:0:0:0:
184,112,53287,1,2,0:0:0:0:
140,296,53449,2,0,L|128:204,1,88,2|8,0:0|0:0,0:0:0:0:
32,260,53774,1,0,0:0:0:0:
240,240,53936,6,0,P|320:264|396:208,1,176,4|8,0:0|0:0,0:0:0:0:
420,56,54422,1,2,0:0:0:0:
420,56,54503,1,2,0:0:0:0:
420,56,54584,2,0,L|512:60,1,88,2|2,0:0|0:0,0:0:0:0:
280,148,54909,2,0,L|192:151,1,88,8|0,0:0|0:0,0:0:0:0:
72,160,55233,5,2,0:0:0:0:
44,328,55395,1,2,0:0:0:0:
204,264,55557,1,8,0:0:0:0:
72,160,55719,1,0,0:0:0:0:
72,160,55801,1,0,0:0:0:0:
72,160,55882,2,0,L|164:156,1,88,2|2,0:0|0:0,0:0:0:0:
400,88,56206,2,0,L|308:84,1,88,8|2,0:0|0:0,0:0:0:0:
256,36,56449,1,2,0:0:0:0:
256,36,56530,6,0,P|284:116|256:204,1,176,2|8,0:0|0:0,0:0:0:0:
164,264,57017,1,2,0:0:0:0:
164,264,57098,1,2,0:0:0:0:
164,264,57179,2,0,L|72:260,1,88,2|2,0:0|0:0,0:0:0:0:
300,320,57503,2,0,L|392:316,1,88,8|0,0:0|0:0,0:0:0:0:
496,312,57828,5,8,0:0:0:0:
472,144,57990,1,2,0:0:0:0:
252,232,58152,2,0,L|396:224,1,132,8|0,0:0|0:0,0:0:0:0:
396,228,58476,1,2,0:0:0:0:
156,280,58638,1,2,0:0:0:0:
156,280,58719,1,2,0:0:0:0:
156,280,58801,2,0,L|148:184,1,88,8|2,0:0|0:0,0:0:0:0:
140,124,59044,1,2,0:0:0:0:
140,124,59125,5,4,0:0:0:0:
264,188,59287,2,0,P|308:192|352:184,1,88,2|8,0:0|0:0,0:0:0:0:
432,92,59611,1,2,0:0:0:0:
432,92,59692,1,2,0:0:0:0:
432,92,59774,1,2,0:0:0:0:
500,220,59936,1,2,0:0:0:0:
280,232,60098,2,0,L|368:228,1,88,8|0,0:0|0:0,0:0:0:0:
136,288,60422,6,0,L|48:284,1,88,2|2,0:0|0:0,0:0:0:0:
220,356,60746,1,8,0:0:0:0:
268,200,60909,1,2,0:0:0:0:
268,200,60990,1,2,0:0:0:0:
268,200,61071,2,0,L|264:112,1,88,2|2,0:0|0:0,0:0:0:0:
484,192,61395,2,0,L|480:280,1,88,8|2,0:0|0:0,0:0:0:0:
436,340,61638,1,2,0:0:0:0:
436,340,61719,6,0,P|356:360|276:316,1,176,2|8,0:0|0:0,0:0:0:0:
124,240,62206,2,0,L|116:336,1,88,2|2,0:0|0:0,0:0:0:0:
304,208,62530,1,2,0:0:0:0:
304,208,62611,1,2,0:0:0:0:
304,208,62692,2,0,L|296:120,1,88,8|0,0:0|0:0,0:0:0:0:
284,20,63017,1,2,0:0:0:0:
184,96,63179,1,2,0:0:0:0:
400,72,63341,1,8,0:0:0:0:
168,112,63503,5,2,0:0:0:0:
168,112,63584,1,2,0:0:0:0:
168,112,63665,2,0,L|80:108,1,88,2|2,0:0|0:0,0:0:0:0:
304,208,63990,2,0,L|392:204,1,88,8|2,0:0|0:0,0:0:0:0:
456,156,64233,1,2,0:0:0:0:
455,156,64314,6,0,P|440:241|468:323,1,176,6|8,0:0|0:0,0:0:0:0:
368,360,64801,1,2,0:0:0:0:
368,360,64882,1,2,0:0:0:0:
368,360,64963,2,0,L|268:356,1,88,2|2,0:0|0:0,0:0:0:0:
44,288,65287,2,0,L|144:284,1,88,8|0,0:0|0:0,0:0:0:0:
348,220,65611,6,0,P|264:236|192:184,1,176,2|8,0:0|0:0,0:0:0:0:
164,92,66098,1,2,0:0:0:0:
164,92,66179,1,2,0:0:0:0:
164,92,66260,2,0,L|172:-4,1,88,2|2,0:0|0:0,0:0:0:0:
364,96,66584,2,0,L|371:183,1,88,8|0,0:0|0:0,0:0:0:0:
312,320,66909,5,8,0:0:0:0:
350,340,66990,1,2,0:0:0:0:
393,343,67071,1,2,0:0:0:0:
434,327,67152,1,2,0:0:0:0:
464,295,67233,1,2,0:0:0:0:
376,212,67395,1,0,0:0:0:0:
204,256,67557,6,0,L|208:304,1,44,8|2,0:0|0:0,0:0:0:0:
292,196,67719,2,0,L|295:152,1,44,2|2,0:0|0:0,0:0:0:0:
196,148,67882,2,0,L|104:156,1,88,8|2,0:0|0:0,0:0:0:0:
19,194,68206,6,0,L|12:136,2,58.6666666666667,8|2|2,0:0|0:0|0:0,0:0:0:0:
88,280,68530,2,0,L|80:338,2,58.6666666666667,2|2|2,0:0|0:0|0:0,0:0:0:0:
184,212,68855,2,0,L|176:153,2,58.6666666666667,8|8|8,3:0|3:0|3:0,0:0:0:0:
252,296,69179,2,0,L|244:354,2,58.6666666666667,4|4|4,3:0|3:0|3:0,0:0:0:0:
252,296,69503,5,6,0:0:0:0:
260,280,70801,5,6,0:0:0:0:
276,236,72098,5,6,0:0:0:0:
296,168,73395,5,6,0:0:0:0:
368,344,73882,5,8,0:0:0:0:
368,344,73963,1,2,0:0:0:0:
368,344,74044,2,0,L|512:336,2,132,8|8|4,3:0|3:0|3:0,0:0:0:0:
272,287,74692,6,0,P|256:316|257:349,1,66.0000025177003,6|0,0:0|0:0,0:0:0:0:
368,240,75017,2,0,P|352:211|325:192,1,66.0000025177003,2|0,0:0|0:0,0:0:0:0:
140,273,75341,2,0,L|272:288,1,132.000005035401,2|2,0:0|0:0,0:0:0:0:
368,240,75828,1,0,0:0:0:0:
472,268,75990,6,0,L|476:200,1,66.0000025177003,2|0,0:0|0:0,0:0:0:0:
448,100,76314,2,0,P|488:100|520:96,1,66.0000025177003,2|0,0:0|0:0,0:0:0:0:
360,148,76638,2,0,P|327:144|294:145,1,66.0000025177003,2|0,0:0|0:0,0:0:0:0:
196,176,76963,2,0,L|192:108,1,66.0000025177003,2|0,0:0|0:0,0:0:0:0:
264,260,77287,1,2,0:0:0:0:
156,280,77449,6,0,L|88:276,1,66.0000025177003,2|8,0:0|0:0,0:0:0:0:
324,348,77774,1,2,0:0:0:0:
324,348,77855,1,2,0:0:0:0:
324,348,77936,2,0,L|392:344,1,66.0000025177003,2|2,0:0|0:0,0:0:0:0:
452,340,78179,1,2,0:0:0:0:
452,340,78260,1,8,0:0:0:0:
500,244,78422,2,0,L|496:204,2,33.0000012588501,2|2|2,0:0|0:0|0:0,0:0:0:0:
284,200,78909,6,0,L|148:192,1,132
92,188,79233,2,0,P|16:160|8:68,1,176
372,136,79882,6,0,L|384:208,1,66
392,272,80206,6,0,L|496:268,1,88,4|0,0:0|0:0,0:0:0:0:
240,332,80530,2,0,L|136:328,1,88,2|2,0:0|0:0,0:0:0:0:
64,168,80855,1,8,0:0:0:0:
120,344,81017,1,0,0:0:0:0:
0,280,81179,5,2,0:0:0:0:
184,220,81341,2,0,L|192:128,1,88,2|8,0:0|0:0,0:0:0:0:
192,32,81665,1,2,0:0:0:0:
192,32,81746,1,8,0:0:0:0:
192,32,81828,1,2,0:0:0:0:
80,96,81990,1,2,0:0:0:0:
300,100,82152,2,0,L|396:96,1,88,8|0,0:0|0:0,0:0:0:0:
504,252,82476,6,0,P|424:272|344:224,1,176,2|8,0:0|0:0,0:0:0:0:
208,184,82963,1,2,0:0:0:0:
208,184,83044,1,2,0:0:0:0:
208,184,83125,2,0,L|216:276,1,88,2|2,0:0|0:0,0:0:0:0:
432,200,83449,2,0,L|439:112,1,88,8|0,0:0|0:0,0:0:0:0:
448,16,83774,5,8,0:0:0:0:
336,56,83936,1,2,0:0:0:0:
64,16,84098,1,8,0:0:0:0:
176,56,84260,1,2,0:0:0:0:
128,280,84422,1,8,0:0:0:0:
89,300,84503,1,2,0:0:0:0:
46,298,84584,1,2,0:0:0:0:
10,273,84665,1,2,0:0:0:0:
0,234,84746,1,8,0:0:0:0:
88,168,84909,5,2,0:0:0:0:
88,168,84990,1,2,0:0:0:0:
88,168,85071,2,0,L|176:172,1,88,6|2,0:0|0:0,0:0:0:0:
440,244,85395,2,0,L|352:248,1,88,8|0,0:0|0:0,0:0:0:0:
267,312,85719,2,0,P|186:339|109:303,1,176,2|8,0:0|0:0,0:0:0:0:
88,140,86206,1,0,0:0:0:0:
192,72,86368,6,0,L|200:164,1,88,2|2,0:0|0:0,0:0:0:0:
424,232,86692,2,0,L|431:144,1,88,8|0,0:0|0:0,0:0:0:0:
332,44,87017,2,0,L|284:48,1,44,8|2,0:0|0:0,0:0:0:0:
208,84,87179,2,0,L|164:80,1,44,8|8,3:0|3:0,0:0:0:0:
80,32,87341,1,8,0:0:0:0:
40,216,87503,1,8,0:0:0:0:
40,216,87584,1,2,0:0:0:0:
40,216,87665,1,8,0:0:0:0:
40,216,88801,6,0,P|124:240|204:200,1,176,6|2,0:0|0:0,0:0:0:0:
252,108,89287,2,0,L|248:20,1,88,8|0,0:0|0:0,0:0:0:0:
472,116,89611,2,0,L|468:204,1,88,2|8,0:0|0:0,0:0:0:0:
464,312,89936,1,8,0:0:0:0:
464,312,90098,1,12,0:0:0:0:
