osu file format v14

[General]
AudioFilename: omg it is CHiCO with HoneyWorks OMG OMG OMG OMG.mp3
AudioLeadIn: 0
PreviewTime: 45098
Countdown: 0
SampleSet: None
StackLeniency: 0.7
Mode: 0
LetterboxInBreaks: 0
WidescreenStoryboard: 1

[Editor]
Bookmarks: 47449,54584
DistanceSpacing: 1.1
BeatDivisor: 4
GridSize: 4
TimelineZoom: 1.6

[Metadata]
Title:Pride Kakumei
TitleUnicode:プライド革命
Artist:CHiCO with HoneyWorks
ArtistUnicode:CHiCO with HoneyWorks
Creator:HabiHolic
Version:Easy
Source:銀魂°
Tags:TV Size Gintama° Opening 2 2015 koreapenguin xChippy KantoKun Chaoslitz
BeatmapID:762779
BeatmapSetID:342605

[Difficulty]
HPDrainRate:2
CircleSize:3
OverallDifficulty:2
ApproachRate:3
SliderMultiplier:0.899999999999999
SliderTickRate:1

[Events]
//Background and Video events
0,0,"BG.jpg",0,0
//Break Periods
//Storyboard Layer 0 (Background)
//Storyboard Layer 1 (Fail)
//Storyboard Layer 2 (Pass)
//Storyboard Layer 3 (Foreground)
//Storyboard Sound Samples

[TimingPoints]
747,324.324324324324,4,2,0,50,1,0
12422,-100,4,2,69,80,0,0
46152,-100,4,2,69,40,0,0
47449,-100,4,2,0,40,0,0
48746,-100,4,2,69,80,0,1
58963,-100,4,2,69,80,0,0
59125,-100,4,2,69,80,0,1
69503,-100,4,2,69,80,0,0
80206,-100,4,2,69,80,0,1
87665,-100,4,2,69,80,0,0

[Colours]
Combo1 : 255,192,130
Combo2 : 255,128,255
Combo3 : 0,128,255
Combo4 : 0,193,49

[HitObjects]
68,208,747,6,0,B|112:220|148:196|148:196|156:148|156:148|196:108,1,180,2|2,0:0|0:0,0:0:0:0:
256,44,1719,1,8,0:0:0:0:
322,114,2044,2,0,B|356:148|356:148|364:196|364:196|400:220|444:208,1,180,2|2,0:0|0:0,0:0:0:0:
488,296,3017,1,8,0:0:0:0:
404,344,3341,6,0,P|360:356|316:344,1,89.9999999999999,0|8,0:0|0:0,0:0:0:0:
220,348,3990,2,0,P|176:358|133:346,1,89.9999999999999,0|8,0:0|0:0,0:0:0:0:
48,296,4638,2,0,P|68:209|48:121,1,180,2|0,0:0|0:0,0:0:0:0:
108,40,5611,1,8,0:0:0:0:
196,88,5936,6,0,L|336:80,2,135,2|0|8,0:0|0:0|0:0,0:0:0:0:
168,184,7233,2,0,L|28:176,2,135,2|0|8,0:0|0:0|0:0,0:0:0:0:
236,256,8530,2,0,P|280:264|324:248,1,89.9999999999999,2|0,0:0|0:0,0:0:0:0:
408,204,9179,2,0,P|441:174|456:132,1,89.9999999999999,2|0,0:0|0:0,0:0:0:0:
356,124,9828,6,0,L|220:132,1,135,2|2,0:0|0:0,0:0:0:0:
44,304,11125,5,2,0:0:0:0:
328,28,12422,6,0,P|336:68|328:120,1,89.9999999999999,4|8,0:0|0:0,0:0:0:0:
240,160,13071,2,0,L|96:140,2,135,2|4|8,0:0|0:0|0:0,0:0:0:0:
284,248,14368,2,0,P|328:256|368:236,1,89.9999999999999,2|8,0:0|0:0,0:0:0:0:
432,160,15017,6,0,P|447:118|434:75,1,89.9999999999999,4|8,0:0|0:0,0:0:0:0:
348,32,15665,2,0,L|212:36,2,135,2|4|8,0:0|0:0|0:0,0:0:0:0:
408,112,16963,1,8,0:0:0:0:
392,308,17611,6,0,L|292:316,1,89.9999999999999,4|8,0:0|0:0,0:0:0:0:
212,356,18260,2,0,P|168:356|124:324,1,89.9999999999999,2|8,0:0|0:0,0:0:0:0:
52,272,18909,2,0,P|76:186|49:101,1,180,2|2,0:0|0:0,0:0:0:0:
116,28,19882,1,8,0:0:0:0:
196,88,20206,6,0,P|240:96|288:88,1,89.9999999999999,2|8,0:0|0:0,0:0:0:0:
372,40,20855,2,0,L|508:56,2,135,2|2|8,0:0|0:0|0:0,0:0:0:0:
307,124,22152,2,0,P|299:167|309:211,1,89.9999999999999,2|8,0:0|0:0,0:0:0:0:
332,308,22801,6,0,B|368:336|424:324|424:324|456:360,2,135,2|2|8,0:0|0:0|0:0,0:0:0:0:
232,308,24098,2,0,B|196:336|140:324|140:324|108:360,2,135,2|2|8,0:0|0:0|0:0,0:0:0:0:
172,228,25395,2,0,L|156:84,1,135,2|2,0:0|0:0,0:0:0:0:
248,44,26206,2,0,P|290:56|333:45,1,89.9999999999999,2|2,0:0|0:0,0:0:0:0:
464,256,27341,5,8,0:0:0:0:
380,308,27665,1,8,3:0:0:0:
296,256,27990,6,0,P|213:228|143:280,1,180,4|8,0:0|0:0,0:0:0:0:
72,348,28963,1,2,0:0:0:0:
12,268,29287,2,0,L|4:168,1,89.9999999999999,2|2,0:0|0:0,0:0:0:0:
64,100,29936,2,0,P|105:84|147:96,1,89.9999999999999,8|2,0:0|0:0,0:0:0:0:
224,160,30584,6,0,P|307:184|383:139,1,180,2|8,0:0|0:0,0:0:0:0:
424,48,31557,1,2,0:0:0:0:
496,116,31882,2,0,L|488:208,1,89.9999999999999,2|8,0:0|0:0,0:0:0:0:
476,304,32530,1,2,0:0:0:0:
296,224,33179,6,0,P|213:194|139:239,1,180,2|8,0:0|0:0,0:0:0:0:
88,324,34152,1,2,0:0:0:0:
20,252,34476,2,0,L|8:72,1,180,2|8,0:0|0:0,0:0:0:0:
96,24,35449,1,2,0:0:0:0:
160,100,35774,6,0,P|204:112|248:96,1,89.9999999999999,2|2,0:0|0:0,0:0:0:0:
344,100,36422,2,0,P|386:113|428:101,1,89.9999999999999,8|0,0:0|0:0,0:0:0:0:
492,24,37071,2,0,L|476:208,1,180,8|2,0:0|0:0,0:0:0:0:
412,280,38044,1,8,0:0:0:0:
335,219,38368,6,0,P|293:208|249:218,1,89.9999999999999,2|8,0:0|0:0,0:0:0:0:
164,268,39017,2,0,P|120:278|77:266,1,89.9999999999999,2|8,0:0|0:0,0:0:0:0:
16,192,39665,2,0,L|8:96,1,89.9999999999999,2|8,0:0|0:0,0:0:0:0:
84,40,40314,2,0,P|127:29|170:41,1,89.9999999999999,2|8,0:0|0:0,0:0:0:0:
232,120,40963,6,0,P|318:136|394:91,1,180,2|2,0:0|0:0,0:0:0:0:
480,44,41936,1,8,0:0:0:0:
480,44,42260,2,0,L|492:184,2,135,2|2|8,0:0|0:0|0:0,0:0:0:0:
392,91,43557,6,0,P|350:108|309:93,1,89.9999999999999,2|8,0:0|0:0,0:0:0:0:
212,96,44206,2,0,P|170:110|129:94,1,89.9999999999999,2|8,0:0|0:0,0:0:0:0:
72,16,44855,2,0,L|96:204,1,180,2|2,0:0|0:0,0:0:0:0:
112,292,45828,1,8,0:0:0:0:
256,192,46152,12,2,47449,0:0:0:0:
72,256,48746,6,0,B|120:268|152:240|152:240|160:192|160:192|196:156,1,180,4|2,0:0|0:0,0:0:0:0:
256,84,49719,1,8,0:0:0:0:
319,159,50044,2,0,B|352:192|352:192|360:240|360:240|392:268|440:256,1,180,2|2,0:0|0:0,0:0:0:0:
496,176,51017,1,8,0:0:0:0:
464,84,51341,6,0,P|420:72|376:84,1,89.9999999999999,2|8,0:0|0:0,0:0:0:0:
288,124,51990,2,0,P|244:134|201:122,1,89.9999999999999,2|8,0:0|0:0,0:0:0:0:
116,72,52638,2,0,P|50:67|0:111,2,135,2|2|8,0:0|0:0|0:0,0:0:0:0:
80,164,53936,6,0,L|88:256,1,89.9999999999999,4|8,0:0|0:0,0:0:0:0:
188,256,54584,2,0,L|195:166,1,89.9999999999999,2|8,0:0|0:0,0:0:0:0:
260,92,55233,2,0,P|343:116|414:66,1,180,2|2,0:0|0:0,0:0:0:0:
328,20,56206,1,8,0:0:0:0:
260,92,56530,6,0,L|272:184,1,89.9999999999999,2|8,0:0|0:0,0:0:0:0:
212,260,57179,2,0,P|168:272|124:260,1,89.9999999999999,2|8,0:0|0:0,0:0:0:0:
52,192,57828,2,0,P|40:148|52:104,1,89.9999999999999,8|2,0:0|0:0,0:0:0:0:
116,32,58476,2,0,P|160:20|204:32,1,89.9999999999999,2|8,0:0|0:0,0:0:0:0:
280,96,59125,6,0,L|424:84,2,135,4|2|8,0:0|0:0|0:0,0:0:0:0:
216,172,60422,2,0,L|72:160,2,135,2|2|8,0:0|0:0|0:0,0:0:0:0:
284,244,61719,2,0,L|428:232,2,135,2|2|8,0:0|0:0|0:0,0:0:0:0:
216,316,63017,2,0,L|72:304,2,135,2|2|8,0:0|0:0|0:0,0:0:0:0:
304,356,64314,6,0,L|396:348,1,89.9999999999999,4|8,0:0|0:0,0:0:0:0:
428,256,64963,2,0,L|336:248,1,89.9999999999999,2|8,0:0|0:0,0:0:0:0:
240,264,65611,2,0,P|154:281|85:228,1,180,2|2,0:0|0:0,0:0:0:0:
56,136,66584,1,8,0:0:0:0:
256,192,66909,12,4,69503,0:0:0:0:
64,288,70801,5,4,0:0:0:0:
448,288,72098,1,4,0:0:0:0:
256,32,73395,1,4,0:0:0:0:
80,124,74044,2,0,L|96:216,1,89.9999999999999,8|4,3:0|3:0,0:0:0:0:
40,296,74692,6,0,P|125:308|185:246,1,180,2|2,0:0|0:0,0:0:0:0:
256,176,75665,1,2,0:0:0:0:
324,248,75990,2,0,P|383:310|469:297,1,180,2|2,0:0|0:0,0:0:0:0:
420,212,76963,1,2,0:0:0:0:
256,192,77287,12,2,78584,0:0:0:0:
40,160,80206,6,0,L|32:68,2,89.9999999999999,4|2|8,0:0|0:0|0:0,0:0:0:0:
124,216,81179,2,0,L|116:305,2,89.9999999999999,2|8|2,0:0|0:0|0:0,0:0:0:0:
188,140,82152,1,8,0:0:0:0:
252,220,82476,6,0,P|336:239|406:186,1,180,2|2,0:0|0:0,0:0:0:0:
432,92,83449,1,8,0:0:0:0:
344,40,83774,2,0,L|252:32,1,89.9999999999999,8|2,0:0|0:0,0:0:0:0:
180,100,84422,2,0,P|136:108|92:100,1,89.9999999999999,2|8,0:0|0:0,0:0:0:0:
20,32,85071,6,0,L|60:216,1,180,4|2,0:0|0:0,0:0:0:0:
88,304,86044,1,8,0:0:0:0:
164,240,86368,2,0,P|208:228|252:240,1,89.9999999999999,2|8,0:0|0:0,0:0:0:0:
320,308,87017,2,0,P|405:325|476:274,1,180,2|2,0:0|0:0,0:0:0:0:
192,76,88801,6,0,L|204:216,1,135,6|8,0:0|0:0,0:0:0:0:
304,212,89611,2,0,L|315:77,1,135,2|12,0:0|0:0,0:0:0:0:
