osu file format v14

[General]
AudioFilename: Pride Revolution.mp3
AudioLeadIn: 0
PreviewTime: 45179
Countdown: 0
SampleSet: Soft
StackLeniency: 0.7
Mode: 0
LetterboxInBreaks: 0
WidescreenStoryboard: 0

[Editor]
Bookmarks: 828,11125,12422,47449
DistanceSpacing: 0.8
BeatDivisor: 4
GridSize: 4
TimelineZoom: 1.9

[Metadata]
Title:Pride Kakumei
TitleUnicode:プライド革命
Artist:CHiCO with HoneyWorks
ArtistUnicode:CHiCO with HoneyWorks
Creator:Aerous
Version:iMage's Insane
Source:銀魂゜
Tags:tv size gintama゜ opening 2 2015 Guy Meg Natsu iMage--
BeatmapID:743688
BeatmapSetID:335534

[Difficulty]
HPDrainRate:6
CircleSize:4
OverallDifficulty:7
ApproachRate:9
SliderMultiplier:1.6
SliderTickRate:1

[Events]
//Background and Video events
0,0,"BG+Aerous+Coke.jpg",0,0
Video,50,"video.flv"
//Break Periods
//Storyboard Layer 0 (Background)
//Storyboard Layer 1 (Fail)
//Storyboard Layer 2 (Pass)
//Storyboard Layer 3 (Foreground)
//Storyboard Sound Samples

[TimingPoints]
747,324.324324324324,4,2,32,60,1,0
747,-133.333333333333,4,2,32,60,0,0
11044,-133.333333333333,4,2,32,60,0,0
11125,-200,4,2,32,60,0,0
12341,-200,4,2,32,60,0,0
12422,-100,4,2,31,60,0,0
27990,-133.333333333333,4,2,31,60,0,0
32530,-133.333333333333,4,2,32,40,0,0
32855,-133.333333333333,4,2,32,60,0,0
33179,-133.333333333333,4,2,31,60,0,0
37882,-133.333333333333,4,2,31,50,0,0
38368,-100,4,2,31,60,0,0
46152,-133.333333333333,4,2,31,60,0,0
47368,-133.333333333333,4,2,31,5,0,0
47449,-133.333333333333,4,2,31,20,0,0
48746,-90.9090909090909,4,2,31,70,0,1
48909,-90.9090909090909,4,2,31,70,0,0
67071,-90.9090909090909,4,2,31,50,0,0
68638,-90.9090909090909,4,2,31,70,0,0
69503,-133.333333333333,4,2,31,60,0,0
77287,-100,4,2,31,60,0,0
78584,-200,4,2,31,20,0,0
79557,-200,4,2,31,40,0,0
80206,-90.9090909090909,4,2,31,70,0,1
87665,-90.9090909090909,4,2,31,60,0,1
87990,-90.9090909090909,4,2,32,60,0,1
88638,-90.9090909090909,4,2,31,60,0,1
90098,-90.9090909090909,4,2,31,60,0,0

[Colours]
Combo1 : 253,218,17
Combo2 : 72,244,53
Combo3 : 17,189,255
Combo4 : 242,24,57

[HitObjects]
380,320,747,6,0,L|366:200,1,120.000004577637,2|8,0:0|0:0,0:0:0:0:
262,100,1395,2,0,L|256:160,1,60.0000022888184,2|0,0:0|0:0,0:0:0:0:
256,276,1719,2,0,L|285:283,2,30.0000011444092
140,248,2044,6,0,P|110:244|80:245,1,60.0000022888184,2|0,0:0|0:0,0:0:0:0:
104,344,2368,2,0,P|133:347|163:346,1,60.0000022888184,8|0,0:0|0:0,0:0:0:0:
163,346,2611,1,0,0:0:0:0:
163,346,2692,1,2,0:0:0:0:
256,276,2855,1,0,0:0:0:0:
348,346,3017,2,0,P|378:347|408:344,1,60.0000022888184,0|0,0:0|0:0,0:0:0:0:
447,239,3341,6,0,P|431:183|456:130,1,120.000004577637,2|8,0:0|0:0,0:0:0:0:
292,56,3990,2,0,L|232:49,1,60.0000022888184,2|0,0:0|0:0,0:0:0:0:
124,96,4314,1,0,0:0:0:0:
196,188,4476,1,0,0:0:0:0:
86,233,4638,6,0,L|27:227,2,60.0000022888184,2|0|8,0:0|0:0|0:0,0:0:0:0:
124,96,5287,1,2,0:0:0:0:
196,188,5449,1,0,0:0:0:0:
232,49,5611,1,0,0:0:0:0:
244,40,5936,5,2,0:0:0:0:
440,99,6098,2,0,P|413:112|383:116,1,60.0000022888184,0|8,0:0|0:0,0:0:0:0:
303,140,6422,2,0,P|286:196|305:252,1,120.000004577637,0|0,0:0|0:0,0:0:0:0:
305,252,6909,1,0,0:0:0:0:
408,348,7233,5,2,0:0:0:0:
220,348,7395,2,0,L|228:288,1,60.0000022888184,0|8,0:0|0:0,0:0:0:0:
305,252,7719,2,0,P|248:268|189:256,1,120.000004577637,2|2,0:0|0:0,0:0:0:0:
48,304,8368,1,0,0:0:0:0:
36,296,8530,5,2,0:0:0:0:
115,203,8692,2,0,L|112:144,1,60.0000022888184,8|0,0:0|0:0,0:0:0:0:
127,211,9179,5,8,0:0:0:0:
206,118,9341,2,0,L|203:59,1,60.0000022888184,2|0,0:0|0:0,0:0:0:0:
218,126,9665,6,0,L|221:185,1,60.0000022888184,2|0,0:0|0:0,0:0:0:0:
324,268,9990,2,0,L|270:240,1,60.0000022888184,0|0,0:0|0:0,0:0:0:0:
150,286,10314,2,0,B|196:256|196:256|208:300|248:328|288:332|320:308|349:278|341:246,1,270.000010299683,2|0,0:0|0:0,0:0:0:0:
344,216,11125,6,0,B|335:61|335:61|448:79|378:152,1,300,0|0,0:0|0:0,0:0:0:0:
288,160,12422,6,0,L|208:152,1,80,4|0,0:0|0:0,0:0:0:0:
48,88,12746,2,0,P|87:90|123:72,1,80,8|0,0:0|0:0,0:0:0:0:
123,72,12990,1,0,0:0:0:0:
123,72,13071,1,0,0:0:0:0:
104,216,13233,1,0,0:0:0:0:
152,64,13395,1,8,0:0:0:0:
200,240,13557,6,0,P|268:278|344:263,1,160,4|0,0:0|0:0,0:0:0:0:
476,188,14044,2,0,L|464:267,1,80,8|0,0:0|0:0,0:0:0:0:
288,160,14368,1,2,0:0:0:0:
396,200,14530,1,0,0:0:0:0:
340,97,14692,1,8,0:0:0:0:
198,183,14855,1,0,0:0:0:0:
198,183,14936,1,0,0:0:0:0:
198,183,15017,5,4,0:0:0:0:
64,236,15179,2,0,L|60:315,1,80,0|8,0:0|0:0,0:0:0:0:
176,212,15503,1,0,0:0:0:0:
310,265,15665,2,0,L|313:344,1,80,2|0,0:0|0:0,0:0:0:0:
154,241,15990,1,8,0:0:0:0:
20,188,16152,2,0,L|16:108,1,80,4|0,0:0|0:0,0:0:0:0:
176,32,16476,5,2,0:0:0:0:
248,127,16638,2,0,P|232:162|197:182,1,80,8|0,0:0|0:0,0:0:0:0:
264,47,16963,1,8,0:0:0:0:
283,42,17044,1,8,0:0:0:0:
303,39,17125,1,8,0:0:0:0:
323,40,17206,1,8,0:0:0:0:
342,43,17287,1,8,0:0:0:0:
361,49,17368,1,8,0:0:0:0:
380,57,17449,1,8,0:0:0:0:
396,68,17530,1,8,0:0:0:0:
411,81,17611,6,0,P|436:156|430:235,1,160,4|8,0:0|0:0,0:0:0:0:
296,292,18098,1,0,0:0:0:0:
404,328,18260,2,0,L|484:316,2,80,2|2|8,0:0|0:0|0:0,0:0:0:0:
336,200,18746,1,0,0:0:0:0:
204,220,18909,6,0,P|184:254|178:293,1,80,0|2,0:0|0:0,0:0:0:0:
152,132,19233,2,0,P|171:97|177:58,1,80,8|0,0:0|0:0,0:0:0:0:
134,202,19557,2,0,L|58:176,1,80,2|0,0:0|0:0,0:0:0:0:
222,150,19882,2,0,L|297:175,1,80,8|0,0:0|0:0,0:0:0:0:
141,282,20206,6,0,P|71:251|57:175,1,160,2|8,0:0|0:0,0:0:0:0:
248,116,20692,1,0,0:0:0:0:
248,116,20774,1,0,0:0:0:0:
248,116,20855,2,0,L|323:141,1,80,2|2,0:0|0:0,0:0:0:0:
456,200,21179,1,8,0:0:0:0:
284,268,21341,1,2,0:0:0:0:
360,347,21503,6,0,P|383:315|392:277,2,80,0|2|8,0:0|0:0|0:0,0:0:0:0:
151,347,22152,2,0,P|128:315|119:277,2,80,2|2|8,0:0|0:0|0:0,0:0:0:0:
340,208,22801,6,0,B|360:161|360:161|352:101|293:81,1,160,2|8,2:0|2:0,2:0:0:0:
112,112,23287,1,0,0:0:0:0:
112,112,23368,1,0,0:0:0:0:
112,112,23449,2,0,B|144:124|144:124|189:124,1,80,2|2,0:0|0:0,0:0:0:0:
67,40,23774,2,0,P|40:68|27:105,1,80,8|0,0:0|0:0,0:0:0:0:
76,272,24098,6,0,B|156:232|156:232|225:246,1,160,2|8,0:0|0:0,0:0:0:0:
332,208,24584,1,0,0:0:0:0:
235,320,24746,2,0,P|164:292|153:217,1,160,0|8,0:0|0:0,0:0:0:0:
332,208,25233,1,0,0:0:0:0:
252,48,25395,6,0,L|235:126,1,80,2|0,0:0|0:0,0:0:0:0:
392,254,25719,2,0,P|407:218|401:179,1,80,8|0,0:0|0:0,0:0:0:0:
400,52,26044,2,0,B|452:56|452:56|479:49,2,80,2|0|8,0:0|0:0|0:0,0:0:0:0:
264,168,26530,6,0,P|184:175|107:157,2,160,4|0|0,0:0|0:0|0:0,0:0:0:0:
288,156,27260,1,0,0:0:0:0:
288,156,27341,2,0,L|292:236,1,80,8|8,0:0|0:3,0:0:0:0:
400,320,27665,2,0,L|396:240,1,80,8|8,0:3|0:3,0:0:0:0:
448,72,27990,6,0,L|453:191,1,120.000004577637,4|2,0:0|0:0,0:0:0:0:
296,312,28638,2,0,B|268:300|268:300|232:328|183:321,1,120.000004577637,8|0,0:0|0:0,0:0:0:0:
72,316,29125,1,2,0:3:0:0:
72,316,29206,1,2,0:3:0:0:
72,316,29287,1,2,0:0:0:0:
131,224,29449,5,0,0:0:0:0:
130,147,29611,1,2,0:0:0:0:
74,93,29774,1,0,0:0:0:0:
200,184,29936,5,8,0:0:0:0:
277,183,30098,1,0,0:0:0:0:
331,127,30260,1,0,0:0:0:0:
330,49,30422,1,0,0:0:0:0:
330,49,30503,1,0,0:0:0:0:
330,49,30584,6,0,L|357:165,2,120.000004577637,2|2|8,0:0|0:0|0:0,0:0:0:0:
188,134,31395,2,0,P|158:138|129:146,1,60.0000022888184,0|2,0:0|0:0,0:0:0:0:
80,228,31719,1,0,0:0:0:0:
80,228,31801,1,0,0:0:0:0:
80,228,31882,5,2,0:0:0:0:
56,88,32044,1,8,0:0:0:0:
152,120,32206,2,0,L|271:105,1,120.000004577637,2|2,0:0|0:0,0:0:0:0:
271,105,32855,1,2,0:0:0:0:
368,224,33179,6,0,P|365:282|397:332,1,120.000004577637,2|2,0:0|0:0,0:0:0:0:
368,224,33828,2,0,P|426:226|476:194,1,120.000004577637,8|0,0:0|0:0,0:0:0:0:
338,115,34476,6,0,P|370:165|368:224,1,120.000004577637,2|2,0:0|0:0,0:0:0:0:
259,253,35125,2,0,P|309:221|368:224,1,120.000004577637,8|2,0:0|0:0,0:0:0:0:
468,136,35611,1,0,0:0:0:0:
468,136,35692,1,0,0:0:0:0:
468,136,35774,6,0,L|470:76,1,60.0000022888184,2|0,0:0|0:0,0:0:0:0:
341,55,36098,2,0,L|338:114,1,60.0000022888184,2|0,0:0|0:0,0:0:0:0:
200,211,36422,2,0,L|207:92,1,120.000004577637,8|0,0:0|0:0,0:0:0:0:
304,248,37071,5,8,0:0:0:0:
176,304,37233,1,0,0:0:0:0:
328,232,37395,2,0,L|386:245,1,60.0000022888184,8|0,0:0|0:0,0:0:0:0:
268,340,37719,1,2,0:0:0:0:
191,223,37882,1,8,0:0:0:0:
172,222,37963,1,8,0:0:0:0:
152,225,38044,1,8,0:0:0:0:
134,233,38125,1,8,0:0:0:0:
118,245,38206,1,8,0:0:0:0:
106,261,38287,1,8,0:0:0:0:
98,279,38368,6,0,L|88:199,1,80,4|0,0:0|0:0,0:0:0:0:
204,100,38692,2,0,L|194:179,1,80,8|0,0:0|0:0,0:0:0:0:
310,279,39017,2,0,L|300:199,1,80,2|0,0:0|0:0,0:0:0:0:
416,100,39341,2,0,L|406:179,1,80,8|0,0:0|0:0,0:0:0:0:
380,312,39665,6,0,P|419:304|458:309,1,80,2|0,0:0|0:0,0:0:0:0:
264,224,39990,2,0,P|224:216|185:221,1,80,8|0,0:0|0:0,0:0:0:0:
380,136,40314,2,0,P|419:128|458:133,1,80,2|0,0:0|0:0,0:0:0:0:
264,48,40638,2,0,P|224:40|185:45,1,80,8|0,0:0|0:0,0:0:0:0:
87,147,40963,6,0,P|20:111|14:34,1,160,2|8,0:0|0:0,0:0:0:0:
88,68,41449,1,0,0:0:0:0:
172,160,41611,2,0,L|175:239,1,80,2|0,0:0|0:0,0:0:0:0:
264,48,41936,2,0,L|260:127,1,80,8|0,0:0|0:0,0:0:0:0:
380,136,42260,6,0,P|419:142|458:134,1,80,2|8,0:0|0:0,0:0:0:0:
458,133,42503,1,8,0:0:0:0:
458,133,42584,1,8,0:3:0:0:
356,48,42746,2,0,L|367:207,1,160,8|0,0:3|0:0,0:0:0:0:
468,284,43233,2,0,L|462:204,1,80,8|0,0:0|0:0,0:0:0:0:
276,236,43557,5,2,0:0:0:0:
380,136,43719,1,0,0:0:0:0:
204,180,43882,1,8,0:0:0:0:
248,316,44044,1,0,0:0:0:0:
248,316,44125,1,0,0:0:0:0:
248,316,44206,1,2,0:0:0:0:
344,210,44368,1,2,0:0:0:0:
172,264,44530,2,0,L|93:249,1,80,8|0,0:0|0:0,0:0:0:0:
72,232,44774,1,0,0:0:0:0:
72,232,44855,6,0,L|63:152,1,80,2|0,0:0|0:0,0:0:0:0:
175,84,45179,2,0,L|183:163,1,80,8|0,0:0|0:0,0:0:0:0:
204,180,45422,1,0,0:0:0:0:
204,180,45503,2,0,L|282:194,1,80,2|2,0:0|0:0,0:0:0:0:
424,280,45828,1,8,0:0:0:0:
380,136,45990,1,8,0:0:0:0:
380,136,46071,1,8,0:0:0:0:
380,136,46152,6,0,P|236:233|325:84,1,480.000018310548,4|0,0:0|0:0,0:0:0:0:
298,169,48746,6,0,L|286:256,1,88.000002685547,4|0,0:0|0:0,0:0:0:0:
136,332,49071,1,8,0:0:0:0:
88,216,49233,1,0,0:0:0:0:
88,216,49314,1,0,0:0:0:0:
88,216,49395,2,0,L|175:222,1,88.000002685547,2|2,0:0|0:0,0:0:0:0:
260,328,49719,1,8,0:0:0:0:
372,248,49882,1,2,0:0:0:0:
372,248,49963,1,0,0:0:0:0:
372,248,50044,6,0,L|459:241,1,88.000002685547,0|2,0:0|0:0,0:0:0:0:
488,112,50368,2,0,L|401:119,1,88.000002685547,8|0,0:0|0:0,0:0:0:0:
400,119,50611,1,0,0:0:0:0:
400,119,50692,1,2,0:0:0:0:
276,228,50855,1,2,0:0:0:0:
192,168,51017,2,0,P|175:127|175:83,1,88.000002685547,8|0,0:0|0:0,0:0:0:0:
184,52,51260,1,0,0:0:0:0:
184,52,51341,6,0,P|107:88|31:50,1,176.000005371094,2|8,0:0|0:0,0:0:0:0:
264,104,51828,1,0,0:0:0:0:
264,104,51909,1,0,0:0:0:0:
264,104,51990,1,2,0:0:0:0:
120,180,52152,1,2,0:0:0:0:
276,228,52314,2,0,L|318:218,2,44.0000013427735,8|0|2,0:0|0:0|0:0,0:0:0:0:
188,140,52638,6,0,L|162:314,1,176.000005371094,0|8,0:0|0:0,0:0:0:0:
80,204,53125,1,2,0:0:0:0:
56,200,53206,1,0,0:0:0:0:
32,196,53287,1,0,0:0:0:0:
200,244,53449,1,2,0:0:0:0:
104,127,53611,1,8,0:0:0:0:
120,87,53692,1,0,0:0:0:0:
155,61,53774,1,0,0:0:0:0:
198,55,53855,1,0,0:0:0:0:
238,70,53936,6,0,P|323:90|409:73,1,176.000005371094,2|8,0:0|0:0,0:0:0:0:
468,160,54422,1,0,0:0:0:0:
468,160,54503,1,0,0:0:0:0:
468,160,54584,2,0,L|464:247,1,88.000002685547,2|2,0:0|0:0,0:0:0:0:
356,348,54909,2,0,L|359:260,1,88.000002685547,8|2,0:0|0:0,0:0:0:0:
219,152,55233,6,0,P|204:237|242:314,1,176.000005371094,0|8,0:0|0:0,0:0:0:0:
384,188,55719,1,0,0:0:0:0:
384,188,55801,1,0,0:0:0:0:
384,188,55882,2,0,P|340:187|301:206,1,88.000002685547,2|2,0:0|0:0,0:0:0:0:
172,308,56206,1,8,0:0:0:0:
161,307,56287,1,0,0:0:0:0:
150,306,56368,1,0,0:0:0:0:
139,305,56449,1,0,0:0:0:0:
128,304,56530,6,0,L|92:223,1,88.000002685547,2|0,0:0|0:0,0:0:0:0:
235,68,56855,2,0,P|236:111|219:151,1,88.000002685547,8|0,0:0|0:0,0:0:0:0:
204,176,57098,1,0,0:0:0:0:
204,176,57179,2,0,L|290:187,1,88.000002685547,2|0,0:0|0:0,0:0:0:0:
444,92,57503,2,0,L|357:80,1,88.000002685547,8|0,0:0|0:0,0:0:0:0:
135,108,57828,6,0,L|103:139,2,44.0000013427735,8|0|0,0:0|0:0|0:0,0:0:0:0:
303,152,58152,1,8,0:0:0:0:
141,215,58314,1,0,0:0:0:0:
235,68,58476,1,8,3:2:0:0:
244,241,58638,1,8,0:0:0:0:
267,277,58719,1,8,0:0:0:0:
303,302,58801,1,8,0:0:0:0:
346,310,58882,1,8,0:0:0:0:
389,300,58963,1,8,0:0:0:0:
424,274,59044,1,8,0:0:0:0:
446,235,59125,6,0,P|458:194|457:150,1,88.000002685547,4|0,0:0|0:0,0:0:0:0:
380,72,59449,1,8,0:0:0:0:
344,204,59611,1,0,0:0:0:0:
344,204,59692,1,0,0:0:0:0:
344,204,59774,1,2,0:0:0:0:
279,109,59936,1,2,0:0:0:0:
243,241,60098,2,0,P|236:284|241:327,1,88.000002685547,8|0,0:0|0:0,0:0:0:0:
343,204,60422,5,2,0:0:0:0:
176,200,60584,1,0,0:0:0:0:
232,40,60746,1,8,0:0:0:0:
272,164,60909,1,0,0:0:0:0:
272,164,60990,1,0,0:0:0:0:
272,164,61071,2,0,L|358:150,1,88.000002685547,2|2,0:0|0:0,0:0:0:0:
136,108,61395,2,0,L|49:94,1,88.000002685547,8|0,0:0|0:0,0:0:0:0:
20,112,61638,1,0,0:0:0:0:
20,112,61719,6,0,P|9:154|11:198,1,88.000002685547,2|0,0:0|0:0,0:0:0:0:
131,342,62044,1,8,0:0:0:0:
137,321,62125,1,0,0:0:0:0:
142,299,62206,1,0,0:0:0:0:
144,277,62287,1,0,0:0:0:0:
143,256,62368,2,0,P|178:281|221:285,1,88.000002685547,2|2,0:0|0:0,0:0:0:0:
360,212,62692,1,8,0:0:0:0:
272,164,62855,1,2,0:0:0:0:
364,312,63017,5,0,0:0:0:0:
188,184,63179,1,2,0:0:0:0:
386,95,63341,1,8,0:0:0:0:
284,252,63503,1,0,0:0:0:0:
284,252,63584,1,0,0:0:0:0:
284,252,63665,2,0,L|272:164,1,88.000002685547,2|2,0:0|0:0,0:0:0:0:
256,56,63990,1,8,0:0:0:0:
384,200,64152,1,0,0:0:0:0:
384,200,64233,1,0,0:0:0:0:
384,200,64314,6,0,P|463:168|489:86,1,176.000005371094,4|8,0:0|0:0,0:0:0:0:
386,95,64801,1,0,0:0:0:0:
386,95,64882,1,0,0:0:0:0:
386,95,64963,1,2,0:0:0:0:
280,168,65125,1,0,0:0:0:0:
167,103,65287,2,0,P|125:92|82:96,1,88.000002685547,8|2,0:0|0:0,0:0:0:0:
193,184,65611,6,0,L|279:168,1,88.000002685547,0|2,0:0|0:0,0:0:0:0:
167,265,65936,1,8,0:0:0:0:
146,272,66017,1,0,0:0:0:0:
124,276,66098,1,0,0:0:0:0:
102,275,66179,1,0,0:0:0:0:
81,271,66260,1,2,0:0:0:0:
168,144,66422,1,0,0:0:0:0:
255,272,66584,1,8,0:0:0:0:
341,144,66746,1,0,0:0:0:0:
428,272,66909,5,8,0:3:0:0:
284,200,67071,1,8,0:0:0:0:
264,168,67152,1,8,0:0:0:0:
260,127,67233,2,0,P|279:88|316:66,1,88.000002685547,8|0,0:0|0:0,0:0:0:0:
438,184,67557,1,8,0:0:0:0:
433,228,67638,1,8,0:0:0:0:
428,272,67719,1,8,0:0:0:0:
422,315,67801,1,8,0:0:0:0:
417,359,67882,1,8,0:0:0:0:
255,272,68044,1,8,0:0:0:0:
255,272,68125,1,8,0:0:0:0:
255,272,68206,6,0,P|231:289|203:295,2,58.6666684570313,8|8|8,0:0|0:0|0:0,0:0:0:0:
200,212,68530,2,0,P|171:208|146:192,2,58.6666684570313,8|8|8,0:0|0:3|0:3,0:0:0:0:
203,130,68855,2,0,P|185:106|179:78,2,58.6666684570313,8|8|8,0:3|0:3|0:3,0:0:0:0:
263,75,69179,2,0,P|266:46|282:21,2,58.6666684570313,8|8|8,0:3|0:3|0:3,0:0:0:0:
344,78,69503,5,4,0:0:0:0:
251,335,70801,1,4,0:0:0:0:
174,73,72098,1,4,0:0:0:0:
392,240,73395,5,4,0:0:0:0:
117,233,73882,1,8,0:0:0:0:
117,233,73963,1,8,0:0:0:0:
117,233,74044,2,0,B|172:240|172:240|201:259,2,90.0000034332277,8|8|4,0:3|0:3|0:3,0:0:0:0:
63,159,74692,6,0,P|68:130|85:106,1,60.0000022888184,2|0,0:0|0:0,0:0:0:0:
168,72,75017,2,0,P|172:101|189:125,1,60.0000022888184,0|0,0:0|0:0,0:0:0:0:
272,159,75341,2,0,P|276:129|293:105,1,60.0000022888184,2|0,0:0|0:0,0:0:0:0:
376,71,75665,2,0,P|380:100|397:124,1,60.0000022888184,0|0,0:0|0:0,0:0:0:0:
472,192,75990,6,0,L|413:203,1,60.0000022888184,2|0,0:0|0:0,0:0:0:0:
404,304,76314,2,0,L|354:270,1,60.0000022888184,0|0,0:0|0:0,0:0:0:0:
276,335,76638,2,0,L|264:276,1,60.0000022888184,2|0,0:0|0:0,0:0:0:0:
164,267,76963,2,0,L|197:217,1,60.0000022888184,0|0,0:0|0:0,0:0:0:0:
348,204,77287,5,2,0:0:0:0:
264,276,77449,1,0,0:0:0:0:
264,152,77611,2,0,L|248:73,1,80,8|8,0:0|0:0,0:0:0:0:
248,73,77855,1,8,0:0:0:0:
248,73,77936,1,8,0:0:0:0:
104,140,78098,1,8,0:0:0:0:
104,140,78179,1,8,0:0:0:0:
104,140,78260,1,8,0:0:0:0:
171,284,78422,1,8,0:0:0:0:
171,284,78503,1,8,0:0:0:0:
171,284,78584,6,0,B|205:284|205:284|221:300|249:296|249:296|273:312|293:304|293:304|301:280|321:260|349:260|373:272|385:296|381:328|369:348|341:360|321:346,1,320,2|0,0:0|0:0,0:0:0:0:
268,224,80206,6,0,P|262:138|323:78,1,176.000005371094,4|2,0:0|0:0,0:0:0:0:
496,144,80692,1,2,0:0:0:0:
432,220,80855,2,0,L|344:212,1,88.000002685547,8|0,0:0|0:0,0:0:0:0:
112,168,81179,5,0,0:0:0:0:
304,132,81341,1,2,0:0:0:0:
239,316,81503,1,8,0:0:0:0:
220,168,81665,1,0,0:0:0:0:
220,168,81746,1,0,0:0:0:0:
220,168,81828,2,0,L|230:80,1,88.000002685547,2|2,0:0|0:0,0:0:0:0:
32,124,82152,2,0,P|23:166|32:209,1,88.000002685547,8|0,0:0|0:0,0:0:0:0:
151,322,82476,6,0,L|238:315,1,88.000002685547,2|0,0:0|0:0,0:0:0:0:
307,161,82801,1,8,0:0:0:0:
285,162,82882,1,0,0:0:0:0:
263,164,82963,1,0,0:0:0:0:
241,165,83044,1,0,0:0:0:0:
220,168,83125,2,0,L|138:134,1,88.000002685547,2|2,0:0|0:0,0:0:0:0:
329,160,83449,2,0,L|410:126,1,88.000002685547,8|2,0:0|0:0,0:0:0:0:
312,32,83774,5,8,0:0:0:0:
304,216,83936,1,2,0:0:0:0:
468,131,84098,1,8,0:0:0:0:
256,124,84260,1,2,0:0:0:0:
380,88,84422,1,8,0:0:0:0:
400,125,84503,1,8,0:0:0:0:
408,167,84584,1,8,0:0:0:0:
402,211,84665,1,8,0:0:0:0:
381,248,84746,1,8,0:0:0:0:
355,282,84828,1,8,0:0:0:0:
366,323,84909,1,8,0:0:0:0:
405,339,84990,1,8,0:0:0:0:
440,317,85071,6,0,P|369:257|279:281,1,176.000005371094,4|8,0:0|0:0,0:0:0:0:
184,340,85557,1,0,0:0:0:0:
80,264,85719,2,0,L|72:176,1,88.000002685547,2|2,0:0|0:0,0:0:0:0:
220,136,86044,2,0,L|228:224,1,88.000002685547,8|2,0:0|0:0,0:0:0:0:
72,64,86368,1,0,0:0:0:0:
212,120,86530,1,2,0:0:0:0:
72,176,86692,2,0,L|80:264,1,88.000002685547,8|0,0:0|0:0,0:0:0:0:
184,340,87017,5,8,0:0:0:0:
204,333,87098,1,8,0:0:0:0:
226,329,87179,1,8,0:0:0:0:
248,329,87260,1,8,0:0:0:0:
271,332,87341,2,0,P|293:336|315:334,4,44.0000013427735,8|0|8|0|8,3:2|0:0|0:3|0:0|0:0,0:0:0:0:
271,332,88801,6,0,L|260:156,1,176.000005371094,4|2,0:0|0:0,0:0:0:0:
352,232,89287,2,0,P|395:234|437:222,1,88.000002685547,8|0,0:0|0:0,0:0:0:0:
437,222,89611,1,0,0:0:0:0:
204,147,89774,5,8,0:0:0:0:
352,60,89936,1,8,0:0:0:0:
352,232,90098,1,4,0:0:0:0:
