osu file format v14

[General]
AudioFilename: Pride Revolution.mp3
AudioLeadIn: 0
PreviewTime: 45179
Countdown: 0
SampleSet: Soft
StackLeniency: 0.7
Mode: 0
LetterboxInBreaks: 0
WidescreenStoryboard: 1

[Editor]
DistanceSpacing: 1.4
BeatDivisor: 4
GridSize: 4
TimelineZoom: 1.5

[Metadata]
Title:Pride Kakumei
TitleUnicode:プライド革命
Artist:CHiCO with HoneyWorks
ArtistUnicode:CHiCO with HoneyWorks
Creator:Aerous
Version:Natsu's Hard
Source:銀魂゜
Tags:tv size gintama゜ opening 2 2015 Guy Meg Natsu iMage--
BeatmapID:742963
BeatmapSetID:335534

[Difficulty]
HPDrainRate:6
CircleSize:4
OverallDifficulty:6
ApproachRate:7.5
SliderMultiplier:1.4
SliderTickRate:1

[Events]
//Background and Video events
0,0,"BG+Aerous+Coke.jpg",0,0
Video,50,"video.flv"
//Break Periods
//Storyboard Layer 0 (Background)
//Storyboard Layer 1 (Fail)
//Storyboard Layer 2 (Pass)
//Storyboard Layer 3 (Foreground)
//Storyboard Sound Samples

[TimingPoints]
747,324.324324324324,4,2,32,60,1,0
12422,-100,4,2,31,60,0,0
32530,-100,4,2,32,40,0,0
33179,-100,4,2,31,60,0,0
48746,-100,4,2,31,70,0,1
58801,-100,4,2,31,60,0,0
59125,-100,4,2,31,60,0,1
69503,-100,4,2,31,60,0,0
80206,-100,4,2,31,60,0,1
87665,-100,4,2,31,60,0,0

[Colours]
Combo1 : 253,218,17
Combo2 : 72,244,53
Combo3 : 17,189,255
Combo4 : 242,24,57

[HitObjects]
88,296,747,5,2,0:0:0:0:
88,296,909,2,0,P|152:300|208:244,1,140,0|0,0:0|0:0,0:0:0:0:
256,168,1395,2,0,L|256:80,2,70,2|0|0,0:0|0:0|0:0,0:0:0:0:
472,296,2044,6,0,P|476:328|496:364,1,70,2|0,0:0|0:0,0:0:0:0:
404,252,2368,2,0,P|395:283|399:323,1,70,8|0,0:0|0:0,0:0:0:0:
356,184,2692,2,0,P|335:209|323:248,1,70,2|0,0:0|0:0,0:0:0:0:
336,108,3017,2,0,P|307:123|281:154,1,70,0|0,0:0|0:0,0:0:0:0:
216,232,3341,6,0,P|156:228|172:164,2,140,2|8|2,0:0|0:0|0:0,0:0:0:0:
412,128,4314,1,0,0:0:0:0:
460,44,4476,1,0,0:0:0:0:
361,45,4638,6,0,P|292:28|232:56,1,140,2|8,0:0|0:0,0:0:0:0:
100,188,5287,1,2,0:0:0:0:
52,272,5449,1,0,0:0:0:0:
151,271,5611,1,0,0:0:0:0:
256,88,5936,6,0,P|260:52|252:12,2,70,2|0|8,0:0|0:0|0:0,0:0:0:0:
216,184,6422,2,0,P|196:240|224:316,2,140,0|0|0,0:0|0:0|0:0,0:0:0:0:
300,244,7233,6,0,P|336:248|376:240,2,70,2|0|8,0:0|0:0|0:0,0:0:0:0:
364,168,7719,2,0,P|416:184|436:276,1,140,2|2,0:0|0:0,0:0:0:0:
256,356,8368,1,0,0:0:0:0:
160,356,8530,5,2,0:0:0:0:
196,268,8692,2,0,L|188:196,1,70,8|0,0:0|0:0,0:0:0:0:
268,132,9017,2,0,L|276:204,1,70,0|8,0:0|0:0,0:0:0:0:
371,237,9341,2,0,L|363:165,1,70,2|0,0:0|0:0,0:0:0:0:
356,64,9665,6,0,P|388:56|436:64,1,70,2|0,0:0|0:0,0:0:0:0:
363,167,9990,2,0,P|331:175|283:167,1,70,0|0,0:0|0:0,0:0:0:0:
224,104,10314,2,0,P|133:56|43:117,1,210,2|0,0:0|0:0,0:0:0:0:
64,304,11125,6,0,B|96:400|256:400|256:224|400:224|432:320,1,420
216,224,12422,6,0,L|140:240,2,70,4|0|8,0:0|0:0|0:0,0:0:0:0:
296,168,12909,1,0,0:0:0:0:
296,168,12990,1,0,0:0:0:0:
296,168,13071,2,0,L|373:151,1,70,0|0,0:0|0:0,0:0:0:0:
460,128,13395,1,8,0:0:0:0:
466,228,13557,6,0,P|400:210|364:153,1,140,4|0,0:0|0:0,0:0:0:0:
340,56,14044,2,0,L|276:20,1,70,8|0,0:0|0:0,0:0:0:0:
264,120,14368,2,0,L|190:120,1,70,2|0,0:0|0:0,0:0:0:0:
236,208,14692,2,0,L|172:245,1,70,8|0,0:0|0:0,0:0:0:0:
80,336,15017,6,0,P|44:344|8:332,2,70,4|0|8,0:0|0:0|0:0,0:0:0:0:
176,328,15503,1,0,0:0:0:0:
176,328,15665,2,0,P|212:320|248:332,1,70,2|0,0:0|0:0,0:0:0:0:
332,376,15990,1,8,0:0:0:0:
320,280,16152,6,0,P|312:204|344:152,1,140,4|2,0:0|0:0,0:0:0:0:
388,64,16638,2,0,P|352:56|307:63,1,70,8|0,0:0|0:0,0:0:0:0:
228,96,16963,2,0,L|192:108,3,35,8|8|8|8,0:0|0:0|0:0|0:0,0:0:0:0:
180,152,17287,2,0,L|144:164,3,35,8|8|8|8,0:0|0:0|0:0|0:0,0:0:0:0:
136,212,17611,6,0,L|56:240,2,70,4|0|8,0:0|0:0|0:0,0:0:0:0:
232,236,18098,1,0,0:0:0:0:
328,256,18260,2,0,L|408:228,2,70,2|2|8,0:0|0:0|0:0,0:0:0:0:
232,236,18746,1,0,0:0:0:0:
156,300,18909,6,0,P|148:336|156:380,1,70,0|2,0:0|0:0,0:0:0:0:
232,236,19233,2,0,P|240:200|232:156,1,70,8|0,0:0|0:0,0:0:0:0:
168,100,19557,2,0,P|228:72|300:96,1,140,2|8,0:0|0:0,0:0:0:0:
432,236,20206,6,0,P|372:264|300:240,1,140,2|8,0:0|0:0,0:0:0:0:
228,184,20692,1,0,0:0:0:0:
228,184,20855,2,0,P|192:180|144:188,1,70,2|2,0:0|0:0,0:0:0:0:
84,244,21179,1,8,0:0:0:0:
76,148,21341,6,0,P|100:80|72:12,1,140,2|2,0:0|0:0,0:0:0:0:
4,84,21828,1,8,0:0:0:0:
200,92,22152,2,0,P|232:88|272:92,2,70,2|2|8,0:0|0:0|0:0,0:0:0:0:
256,304,22801,6,0,P|320:328|384:300,1,140,2|8,0:0|0:0,0:0:0:0:
320,170,23287,2,0,P|316:200|320:240,1,70,0|2,0:0|0:0,0:0:0:0:
412,204,23611,1,2,0:0:0:0:
412,204,23774,2,0,P|416:174|412:134,1,70,8|0,0:0|0:0,0:0:0:0:
352,56,24098,6,0,P|288:80|220:56,1,140,2|8,0:0|0:0,0:0:0:0:
136,16,24584,2,0,L|112:84,1,70,0|0,0:0|0:0,0:0:0:0:
188,144,24909,2,0,L|164:212,1,70,2|8,0:0|0:0,0:0:0:0:
132,304,25233,1,0,0:0:0:0:
228,280,25395,6,0,P|260:276|300:280,2,70,2|0|8,0:0|0:0|0:0,0:0:0:0:
132,304,25882,2,0,P|96:312|56:304,1,70,0|2,0:0|0:0,0:0:0:0:
64,208,26206,2,0,P|100:200|140:208,1,70,0|8,0:0|0:0,0:0:0:0:
228,280,26530,6,0,P|288:300|368:268,2,140,4|0|0,0:0|0:0|0:0,0:0:0:0:
216,184,27341,2,0,P|208:148|216:112,1,70,8|8,0:0|0:3,0:0:0:0:
296,64,27665,2,0,P|304:100|296:136,1,70,8|8,0:3|0:3,0:0:0:0:
268,248,27990,6,0,P|204:268|148:228,1,140,4|2,0:0|0:0,0:0:0:0:
232,52,28638,2,0,P|296:32|352:72,1,140,8|0,0:0|0:0,0:0:0:0:
380,164,29125,2,0,L|448:156,2,35,2|2|2,0:3|0:3|0:0,0:0:0:0:
284,180,29449,5,0,0:0:0:0:
208,240,29611,1,2,0:0:0:0:
196,144,29774,1,0,0:0:0:0:
284,180,29936,2,0,P|320:184|360:176,2,70,8|0|0,0:0|0:0|0:0,0:0:0:0:
196,144,30422,1,0,0:0:0:0:
196,144,30503,1,0,0:0:0:0:
196,144,30584,6,0,P|128:120|56:156,2,140,2|2|8,0:0|0:0|0:0,0:0:0:0:
284,180,31395,2,0,P|320:188|356:180,1,70,0|2,0:0|0:0,0:0:0:0:
444,88,31719,5,0,0:0:0:0:
444,88,31882,2,0,P|408:80|372:88,1,70,2|8,0:0|0:0,0:0:0:0:
352,181,32206,2,0,L|352:272,1,70,2|0,0:0|0:0,0:0:0:0:
256,276,32530,2,0,L|256:367,2,70,2|0|2,0:0|0:0|0:0,0:0:0:0:
256,80,33179,6,0,P|212:40|180:96,1,140,2|2,0:0|0:0,0:0:0:0:
256,276,33828,2,0,P|300:316|332:260,1,140,8|0,0:0|0:0,0:0:0:0:
256,80,34476,5,2,0:0:0:0:
92,192,34801,2,0,P|68:248|84:328,2,140,2|8|2,0:0|0:0|0:0,0:0:0:0:
188,192,35611,1,0,0:0:0:0:
188,192,35692,1,0,0:0:0:0:
188,192,35774,6,0,L|272:192,1,70,2|0,0:0|0:0,0:0:0:0:
308,276,36098,2,0,L|224:276,1,70,2|0,0:0|0:0,0:0:0:0:
188,192,36422,2,0,P|164:128|192:56,1,140,8|0,0:0|0:0,0:0:0:0:
380,44,37071,6,0,L|476:36,1,70,8|0,0:0|0:0,0:0:0:0:
380,128,37395,2,0,L|236:148,1,140,8|2,0:0|0:0,0:0:0:0:
156,100,37882,1,8,0:0:0:0:
164,196,38044,2,0,L|160:248,3,35,8|8|8|8,0:0|0:0|0:0|0:0,0:0:0:0:
160,280,38368,6,0,P|192:288|240:276,1,70,4|0,0:0|0:0,0:0:0:0:
280,364,38692,2,0,P|303:341|319:294,1,70,8|0,0:0|0:0,0:0:0:0:
416,292,39017,2,0,P|409:259|377:221,1,70,2|0,0:0|0:0,0:0:0:0:
432,144,39341,2,0,P|401:132|352:139,1,70,8|0,0:0|0:0,0:0:0:0:
212,176,39665,6,0,P|242:187|291:180,1,70,2|0,0:0|0:0,0:0:0:0:
364,135,39990,2,0,P|380:64|352:4,1,140,8|2,0:0|0:0,0:0:0:0:
164,52,40638,2,0,L|80:56,1,70,8|0,0:0|0:0,0:0:0:0:
36,136,40963,6,0,P|16:204|48:272,1,140,2|8,0:0|0:0,0:0:0:0:
236,272,41611,2,0,P|269:266|312:276,1,70,2|0,0:0|0:0,0:0:0:0:
240,352,41936,2,0,P|206:357|164:348,1,70,8|0,0:0|0:0,0:0:0:0:
120,268,42260,5,2,0:0:0:0:
120,172,42422,2,0,L|120:116,2,35,8|8|8,0:0|0:0|0:3,0:0:0:0:
120,268,42746,2,0,P|180:292|260:260,1,140,8|0,0:3|0:0,0:0:0:0:
256,172,43233,2,0,L|256:96,1,70,8|0,0:0|0:0,0:0:0:0:
336,44,43557,6,0,P|400:21|465:45,2,140,2|8|2,0:0|0:0|0:0,0:0:0:0:
256,102,44368,1,2,0:0:0:0:
168,144,44530,2,0,P|136:152|96:144,1,70,8|0,0:0|0:0,0:0:0:0:
20,204,44855,6,0,L|4:296,1,70,2|0,0:0|0:0,0:0:0:0:
88,328,45179,2,0,L|104:236,1,70,8|0,0:0|0:0,0:0:0:0:
192,232,45503,2,0,L|176:324,1,70,2|2,0:0|0:0,0:0:0:0:
268,348,45828,2,0,L|276:304,3,35,8|0|0|0,0:0|0:0|0:0|0:0,0:0:0:0:
284,264,46152,5,4,0:0:0:0:
256,192,46233,12,0,47449,0:0:0:0:
432,292,48746,6,0,P|368:316|296:284,1,140,4|8,0:0|0:0,0:0:0:0:
256,204,49233,1,0,0:0:0:0:
256,204,49395,2,0,L|256:132,1,70,2|2,0:0|0:0,0:0:0:0:
180,72,49719,1,8,0:0:0:0:
272,36,49882,1,2,0:0:0:0:
348,100,50044,6,0,P|384:104|428:92,1,70,0|2,0:0|0:0,0:0:0:0:
460,184,50368,2,0,P|444:252|476:324,1,140,8|2,0:0|0:0,0:0:0:0:
376,352,50855,1,2,0:0:0:0:
376,352,51017,2,0,P|336:348|300:356,1,70,8|0,0:0|0:0,0:0:0:0:
180,372,51341,6,0,P|152:316|168:232,1,140,2|8,0:0|0:0,0:0:0:0:
248,196,51828,2,0,L|296:180,2,35,0|0|2,0:0|0:0|0:0,0:0:0:0:
256,100,52152,2,0,L|340:72,1,70,2|8,0:0|0:0,0:0:0:0:
420,72,52476,1,2,0:0:0:0:
484,144,52638,6,0,P|492:176|484:232,2,70,0|2|8,0:0|0:0|0:0,0:0:0:0:
392,216,53125,1,2,0:0:0:0:
392,216,53287,2,0,P|389:250|397:284,1,70,0|2,0:0|0:0,0:0:0:0:
328,352,53611,2,0,L|280:360,3,35,8|0|0|0,0:0|0:0|0:0|0:0,0:0:0:0:
244,364,53936,6,0,P|208:316|212:236,1,140,2|8,0:0|0:0,0:0:0:0:
276,140,54422,1,0,0:0:0:0:
276,140,54503,1,0,0:0:0:0:
276,140,54584,2,0,P|312:188|308:268,1,140,2|8,0:0|0:0,0:0:0:0:
244,364,55071,6,0,P|172:380|104:352,1,140,2|8,0:0|0:0,0:0:0:0:
60,272,55557,1,8,0:0:0:0:
96,180,55719,1,0,0:0:0:0:
96,180,55882,2,0,L|164:152,1,70,2|2,0:0|0:0,0:0:0:0:
260,148,56206,2,0,L|308:132,3,35,8|0|0|0,0:0|0:0|0:0|0:0,0:0:0:0:
344,136,56530,6,0,P|356:168|352:220,1,70,2|0,0:0|0:0,0:0:0:0:
280,308,56855,2,0,P|268:276|272:224,1,70,8|0,0:0|0:0,0:0:0:0:
356,203,57179,2,0,L|436:196,1,70,2|0,0:0|0:0,0:0:0:0:
464,296,57503,2,0,L|384:303,1,70,8|0,0:0|0:0,0:0:0:0:
280,308,57828,6,0,L|236:312,2,35,8|0|0,0:0|0:0|0:0,0:0:0:0:
228,224,58152,2,0,L|152:232,1,70,8|0,0:0|0:0,0:0:0:0:
108,148,58476,2,0,L|177:140,1,70,8|8,0:3|0:0,0:0:0:0:
276,132,58801,2,0,L|328:128,3,35,8|0|8|8,0:0|0:0|0:0|0:0,0:0:0:0:
360,124,59125,6,0,P|372:156|364:208,1,70,4|0,0:0|0:0,0:0:0:0:
304,264,59449,1,8,0:0:0:0:
208,268,59611,2,0,L|156:268,2,35,0|0|2,0:0|0:0|0:0,0:0:0:0:
156,352,59936,2,0,L|64:352,2,70,2|8|0,0:0|0:0|0:0,0:0:0:0:
284,348,60422,5,2,0:0:0:0:
377,378,60584,1,0,0:0:0:0:
407,285,60746,1,8,0:0:0:0:
312,252,60909,2,0,P|304:216|312:172,1,70,0|2,0:0|0:0,0:0:0:0:
392,128,61233,2,0,P|400:164|392:208,1,70,2|8,0:0|0:0,0:0:0:0:
312,252,61557,1,0,0:0:0:0:
312,252,61719,6,0,L|240:268,1,70,2|0,0:0|0:0,0:0:0:0:
148,288,62044,1,8,0:0:0:0:
180,196,62206,2,0,P|180:160|164:120,1,70,0|2,0:0|0:0,0:0:0:0:
252,76,62530,2,0,P|252:112|268:152,1,70,2|8,0:0|0:0,0:0:0:0:
344,204,62855,1,2,0:0:0:0:
424,260,63017,6,0,P|435:292|435:327,2,70,0|2|8,0:0|0:0|0:0,0:0:0:0:
344,204,63503,2,0,P|332:171|332:136,1,70,0|2,0:0|0:0,0:0:0:0:
360,44,63828,2,0,P|324:40|284:52,1,70,2|8,0:0|0:0,0:0:0:0:
224,140,64152,1,0,0:0:0:0:
224,140,64233,1,0,0:0:0:0:
224,140,64314,6,0,P|160:160|88:128,1,140,4|8,0:0|0:0,0:0:0:0:
16,72,64801,1,0,0:0:0:0:
16,72,64963,2,0,L|8:144,1,70,2|0,0:0|0:0,0:0:0:0:
86,203,65287,2,0,L|94:131,1,70,8|2,0:0|0:0,0:0:0:0:
28,260,65611,6,0,P|80:284|152:248,1,140,0|8,0:0|0:0,0:0:0:0:
232,192,66098,1,0,0:0:0:0:
300,124,66260,1,2,0:0:0:0:
300,124,66422,2,0,P|332:116|368:124,1,70,0|8,0:0|0:0,0:0:0:0:
440,192,66746,1,0,0:0:0:0:
420,288,66909,5,8,0:3:0:0:
340,344,67071,1,8,0:0:0:0:
340,344,67152,1,8,0:0:0:0:
340,344,67233,2,0,L|252:352,1,70,8|0,0:0|0:0,0:0:0:0:
192,292,67557,2,0,L|140:296,3,35,8|8|8|8,0:0|0:0|0:0|0:0,0:0:0:0:
108,292,67882,2,0,P|100:260|108:212,1,70,8|8,0:0|0:0,0:0:0:0:
172,156,68206,6,0,L|176:88,2,46.6666666666667,8|8|8,0:0|0:0|0:0,0:0:0:0:
244,144,68530,2,0,L|248:76,2,46.6666666666667,8|8|8,0:0|0:3|0:3,0:0:0:0:
316,124,68855,2,0,L|320:56,2,46.6666666666667,8|8|8,0:3|0:3|0:3,0:0:0:0:
388,112,69179,2,0,L|392:44,2,46.6666666666667,8|8|8,0:3|0:3|0:3,0:0:0:0:
384,188,69503,5,4,0:0:0:0:
256,360,70801,1,4,0:0:0:0:
128,188,72098,1,4,0:0:0:0:
256,24,73395,6,0,P|320:8|392:24,1,140,4|0,0:0|0:0,0:0:0:0:
444,108,73882,1,8,0:0:0:0:
444,108,73963,1,8,0:0:0:0:
444,108,74044,2,0,B|472:240,2,105,8|8|4,0:3|0:3|0:3,0:0:0:0:
364,168,74692,6,0,P|328:180|292:176,1,70,2|0,0:0|0:0,0:0:0:0:
212,124,75017,2,0,P|177:121|144:133,1,70,0|0,0:0|0:0,0:0:0:0:
92,216,75341,2,0,L|84:288,1,70,2|0,0:0|0:0,0:0:0:0:
168,340,75665,2,0,L|175:270,1,70,0|0,0:0|0:0,0:0:0:0:
192,172,75990,6,0,P|256:152|332:176,1,140,2|0,0:0|0:0,0:0:0:0:
368,260,76476,1,0,0:0:0:0:
428,184,76638,1,2,0:0:0:0:
472,272,76801,2,0,L|484:357,2,70,0|0|0,0:0|0:0|0:0,0:0:0:0:
428,184,77287,6,0,P|420:148|424:108,1,70,2|0,0:0|0:0,0:0:0:0:
324,116,77611,2,0,P|326:150|318:184,1,70,8|8,0:0|0:0,0:0:0:0:
220,184,77936,2,0,P|212:150|214:115,1,70,8|8,0:0|0:0,0:0:0:0:
268,32,78260,1,8,0:0:0:0:
172,32,78422,1,8,0:0:0:0:
172,32,78584,6,0,P|96:24|32:44,2,140,0|0|0,0:0|0:0|0:0,0:0:0:0:
320,164,79557,1,0,0:0:0:0:
320,164,80206,6,0,P|348:228|312:300,1,140,4|2,0:0|0:0,0:0:0:0:
256,360,80692,1,2,0:0:0:0:
184,292,80855,2,0,P|148:284|104:300,1,70,8|0,0:0|0:0,0:0:0:0:
48,360,81179,5,0,0:0:0:0:
8,272,81341,1,2,0:0:0:0:
48,184,81503,1,8,0:0:0:0:
108,108,81665,2,0,P|140:100|188:108,1,70,0|2,0:0|0:0,0:0:0:0:
248,172,81990,2,0,P|282:175|316:167,2,70,2|8|0,0:0|0:0|0:0,0:0:0:0:
364,100,82476,5,2,0:0:0:0:
364,100,82638,2,0,P|387:125|400:164,1,70,0|8,0:0|0:0,0:0:0:0:
392,256,82963,2,0,L|452:256,2,35,0|0|2,0:0|0:0|0:0,0:0:0:0:
312,312,83287,2,0,L|220:312,2,70,2|8|2,0:0|0:0|0:0,0:0:0:0:
392,256,83774,5,8,0:0:0:0:
420,160,83936,1,2,0:0:0:0:
388,68,84098,2,0,P|352:61|308:72,1,70,8|2,0:0|0:0,0:0:0:0:
252,136,84422,2,0,L|208:148,3,35,8|8|8|8,0:0|0:0|0:0|0:0,0:0:0:0:
212,192,84746,2,0,L|168:204,3,35,8|0|8|8,0:0|0:0|0:0|0:0,0:0:0:0:
132,216,85071,6,0,P|132:284|184:336,1,140,4|8,0:0|0:0,0:0:0:0:
376,348,85719,2,0,P|408:352|456:340,1,70,2|2,0:0|0:0,0:0:0:0:
375,263,86044,2,0,P|343:259|295:271,1,70,8|2,0:0|0:0,0:0:0:0:
256,352,86368,6,0,P|221:358|187:355,2,70,0|2|8,0:0|0:0|0:0,0:0:0:0:
307,267,86855,1,0,0:0:0:0:
336,172,87017,2,0,L|340:136,3,35,2|8|8|8,0:0|0:0|0:0|0:0,0:0:0:0:
388,132,87341,2,0,L|392:96,3,35,8|0|8|0,0:3|0:0|0:3|0:0,0:0:0:0:
400,48,87665,5,8,0:0:0:0:
64,288,88801,6,0,P|48:220|68:152,1,140,4|2,0:0|0:0,0:0:0:0:
164,176,89287,2,0,P|200:184|236:172,1,70,8|0,0:0|0:0,0:0:0:0:
280,92,89611,1,2,0:0:0:0:
332,176,89774,5,8,0:0:0:0:
388,80,89936,1,8,0:0:0:0:
452,172,90098,1,4,0:0:0:0:
