osu file format v14

[General]
AudioFilename: audio.mp3
AudioLeadIn: 0
PreviewTime: 38995
Countdown: 0
SampleSet: Soft
StackLeniency: 0.7
Mode: 0
LetterboxInBreaks: 0
EpilepsyWarning: 1
WidescreenStoryboard: 1

[Editor]
DistanceSpacing: 0.9
BeatDivisor: 4
GridSize: 8
TimelineZoom: 2.2

[Metadata]
Title:Historia
TitleUnicode:ヒストリア
Artist:CHiCO with HoneyWorks
ArtistUnicode:CHiCO with HoneyWorks
Creator:Sotarks
Version:Secret Night
Source:
Tags:Janpai Akitoshi Kalibe Linada HB24 short size version cut プライド革命 Pride Kakumei vocaloid
BeatmapID:929905
BeatmapSetID:431082

[Difficulty]
HPDrainRate:6.2
CircleSize:4.2
OverallDifficulty:8.2
ApproachRate:9.2
SliderMultiplier:1.82
SliderTickRate:1

[Events]
//Background and Video events
0,0,"BG.jpg",0,0
//Break Periods
2,5935,10219
2,11152,12828
//Storyboard Layer 0 (Background)
//Storyboard Layer 1 (Fail)
//Storyboard Layer 2 (Pass)
//Storyboard Layer 3 (Foreground)
//Storyboard Sound Samples

[TimingPoints]
5572,326.086956521739,4,2,1,62,1,0
16006,-121.951219512195,4,2,1,82,0,0
24974,-108.695652173913,4,2,1,82,0,0
26441,-121.951219512195,4,2,1,82,0,0
31006,-192.307692307692,4,2,1,72,0,0
31577,-192.307692307692,4,2,1,5,0,0
31658,-121.951219512195,4,2,1,72,0,0
38832,-192.307692307692,4,2,1,5,0,0
38995,-192.307692307692,4,2,1,55,0,0
39403,-192.307692307692,4,2,1,5,0,0
39485,-89.2857142857143,4,2,1,92,0,1
49919,-121.951219512195,4,2,1,82,0,0
51550,-89.2857142857143,4,2,1,82,0,0
51713,-121.951219512195,4,2,1,82,0,0
60354,-89.2857142857143,4,1,1,92,0,1
65408,-89.2857142857143,4,1,1,92,0,0
65571,-89.2857142857143,4,1,1,92,0,1
70626,-89.2857142857143,4,1,1,92,0,0
70789,-89.2857142857143,4,1,1,92,0,1
76006,-89.2857142857143,4,1,1,92,0,0
78615,-89.2857142857143,4,2,1,5,0,0

[Colours]
Combo1 : 241,146,75
Combo2 : 170,201,139
Combo3 : 165,100,97
Combo4 : 173,173,173
Combo5 : 255,47,47
Combo6 : 87,79,255

[HitObjects]
112,224,5572,5,2,0:0:0:0:
336,152,5735,1,2,0:0:0:0:
400,224,10789,5,2,0:0:0:0:
176,152,10952,1,2,0:0:0:0:
256,192,13398,12,0,15680,2:0:0:0:
112,272,16006,5,4,3:0:0:0:
368,248,16332,1,0,3:0:0:0:
144,248,16658,53,0,3:0:0:0:
400,272,16984,1,0,3:0:0:0:
184,224,17311,6,0,P|181:182|184:128,1,74.6200011386109,2|0,3:0|0:0,0:0:0:0:
336,224,17637,2,0,P|336:261|333:298,1,74.6200011386109,0|0,3:0|0:0,0:0:0:0:
178,295,17963,5,2,2:2:0:0:
304,192,18126,1,2,2:2:0:0:
178,295,18289,1,2,2:2:0:0:
304,192,18452,1,2,2:2:0:0:
144,216,18615,6,0,B|104:216|24:200|24:200|72:176,1,149.240002277222,4|0,3:0|3:0,0:0:0:0:
128,80,19104,1,2,0:0:0:0:
176,184,19267,2,0,P|176:232|168:288,1,74.6200011386109,0|0,3:0|0:0,0:0:0:0:
72,176,19593,1,0,3:0:0:0:
152,64,19756,1,2,0:0:0:0:
255,223,19919,6,0,P|292:231|329:226,1,74.6200011386109,0|2,3:0|0:0,0:0:0:0:
392,80,20245,1,0,3:0:0:0:
396,271,20408,2,0,P|360:302|319:306,1,74.6200011386109,2|0,0:0|3:0,0:0:0:0:
294,151,20735,5,2,2:2:0:0:
448,200,20898,1,2,2:2:0:0:
294,151,21061,1,2,2:2:0:0:
456,224,21224,6,0,P|459:274|456:320,1,74.6200011386109,4|0,3:0|0:0,0:0:0:0:
312,344,21550,2,0,P|311:306|314:269,1,74.6200011386109,0|0,3:0|0:0,0:0:0:0:
224,136,21876,1,0,3:0:0:0:
200,232,22039,1,2,0:0:0:0:
299,166,22202,2,0,P|303:119|260:62,1,111.930001707916,0|0,3:0|0:0,0:0:0:0:
232,40,22528,5,0,3:0:0:0:
376,96,22691,1,2,0:0:0:0:
224,136,22854,1,0,3:0:0:0:
336,24,23017,1,2,0:0:0:0:
285,188,23180,6,0,P|240:216|200:216,1,74.6200011386109,2|2,2:2|2:2,2:2:0:0:
136,288,23506,1,2,2:2:0:0:
192,112,23669,1,2,2:2:0:0:
280,272,23832,6,0,B|336:288|376:264|432:280,1,149.240002277222,4|0,3:0|3:0,0:0:0:0:
328,160,24321,1,2,0:0:0:0:
360,320,24485,1,0,3:0:0:0:
416,144,24648,1,2,0:0:0:0:
296,248,24811,1,0,3:0:0:0:
376,40,24974,6,0,B|320:48|256:32|192:40,1,167.439994379151,0|2,1:0|3:0,0:0:0:0:
144,104,25381,1,0,3:0:0:0:
128,120,25463,1,0,1:0:0:0:
368,176,25626,1,2,0:0:0:0:
112,136,25789,5,0,1:0:0:0:
384,152,25952,1,0,1:0:0:0:
96,152,26115,6,0,P|88:200|88:224,1,41.8599985947876,0|0,3:0|3:0,3:0:0:0:
208,304,26278,2,0,P|216:256|216:248,1,41.8599985947876,0|0,3:0|3:0,3:0:0:0:
240,152,26441,5,6,0:0:0:0:
320,56,26604,1,2,2:0:0:0:
336,72,26930,5,0,3:0:0:0:
336,72,27011,1,0,3:0:0:0:
336,72,27093,2,0,P|340:124|336:176,1,74.6200011386109,8|0,2:0|0:0,0:0:0:0:
288,320,27419,1,2,2:2:0:0:
416,288,27582,1,2,2:2:0:0:
280,224,27745,6,0,P|229:245|194:343,1,149.240002277222,0|2,0:0|2:0,0:0:0:0:
128,240,28235,1,0,0:0:0:0:
224,72,28398,1,8,2:0:0:0:
240,56,28724,2,0,L|320:56|328:56,1,74.6200011386109
408,224,29050,5,2,2:2:0:0:
216,192,29213,1,2,2:2:0:0:
336,152,29376,1,0,0:0:0:0:
232,288,29539,2,0,P|192:296|176:296,1,37.3100005693054,0|0,3:0|3:0,3:0:0:0:
112,264,29702,1,8,2:0:0:0:
96,240,30028,5,2,2:2:0:0:
64,80,30191,1,2,2:2:0:0:
176,144,30354,6,0,P|218:151|272:144,1,74.6200011386109
386,62,30680,2,0,P|349:60|312:64,1,74.6200011386109,2|0,2:0|0:0,0:0:0:0:
336,312,31006,6,0,B|400:328|431:281|431:281|390:291|362:268,1,165.619998989136,8|0,2:0|0:0,0:0:0:0:
400,160,31658,5,2,2:2:0:0:
232,256,31821,1,2,2:2:0:0:
304,152,31985,1,0,0:0:0:0:
161,218,32148,1,0,3:0:0:0:
161,218,32229,1,0,3:0:0:0:
161,218,32311,2,0,P|153:266|168:306,1,74.6200011386109,8|0,2:0|0:0,0:0:0:0:
96,152,32637,5,2,2:2:0:0:
232,256,32800,1,2,2:2:0:0:
152,32,33289,5,2,2:0:0:0:
344,200,33615,1,8,2:0:0:0:
160,128,33941,5,0,0:0:0:0:
312,96,34104,1,2,0:0:0:0:
232,224,34267,6,0,P|176:232|72:224,1,149.240002277222,12|0,2:0|0:0,0:0:0:0:
224,72,34756,1,0,0:0:0:0:
216,304,34919,2,0,P|280:288|304:224,1,111.930001707916,8|0,2:0|2:0,0:0:0:0:
304,216,35245,1,8,1:0:0:0:
240,96,35408,1,2,0:0:0:0:
152,264,35571,1,12,2:0:0:0:
320,128,35898,5,2,3:0:0:0:
152,264,36061,1,8,1:0:0:0:
232,64,36387,5,2,3:0:0:0:
280,280,36550,1,8,1:0:0:0:
256,192,36876,12,0,38832,0:0:0:0:
224,331,39158,6,0,P|253:340|304:322,1,70.9799995667725
256,264,39485,38,0,B|208:184|304:152|256:56,1,203.840002488281,6|0,0:0|1:0,0:0:0:0:
323,215,39974,1,0,3:0:0:0:
189,110,40137,1,8,3:0:0:0:
176,240,40300,1,0,3:0:0:0:
344,88,40463,1,0,1:0:0:0:
320,240,40626,1,2,2:0:0:0:
120,160,40789,6,0,P|112:96|120:48,1,101.920001244141,2|0,0:0|0:0,0:0:0:0:
296,216,41115,2,0,P|304:152|296:104,1,101.920001244141,0|0,1:0|3:0,0:0:0:0:
176,240,41441,1,8,3:0:0:0:
216,120,41604,1,0,3:0:0:0:
264,304,41767,1,0,1:0:0:0:
145,159,41930,1,0,3:0:0:0:
145,159,42012,1,0,3:0:0:0:
145,159,42093,6,0,P|139:95|254:47,1,203.840002488281,6|0,0:0|1:0,0:0:0:0:
352,96,42582,1,0,3:0:0:0:
215,120,42745,1,8,3:0:0:0:
384,192,42908,1,0,3:0:0:0:
250,45,43071,1,0,1:0:0:0:
288,168,43235,1,2,0:0:0:0:
168,48,43398,6,0,L|56:80,1,101.920001244141,2|0,0:0|0:0,0:0:0:0:
128,264,43724,1,0,1:0:0:0:
160,136,43887,1,0,3:0:0:0:
216,315,44050,2,0,L|127:263,1,101.920001244141,2|8,2:0|3:0,0:0:0:0:
240,96,44376,1,0,1:0:0:0:
266,306,44539,2,0,P|218:314|202:314,1,50.9600006220703,0|0,3:0|3:0,3:0:0:0:
371,256,44702,6,0,B|425:216|400:137|400:137|419:160|462:181,1,203.840002488281,6|0,0:0|1:0,0:0:0:0:
472,304,45191,1,0,3:0:0:0:
313,181,45354,2,0,P|260:186|201:181,1,101.920001244141,8|0,3:0|3:0,0:0:0:0:
80,80,45680,2,0,P|133:75|192:80,1,101.920001244141,0|2,1:0|0:0,0:0:0:0:
184,288,46006,5,2,0:0:0:0:
128,216,46169,1,0,3:0:0:0:
336,272,46332,5,0,1:0:0:0:
400,192,46495,1,0,3:0:0:0:
210,185,46658,5,8,3:0:0:0:
138,89,46821,1,0,3:0:0:0:
328,144,46985,5,0,1:0:0:0:
424,96,47148,1,0,3:0:0:0:
424,96,47229,1,0,3:0:0:0:
424,96,47311,6,0,B|454:167|407:221|407:221|426:266|432:320,1,203.840002488281,6|0,0:0|1:0,0:0:0:0:
328,144,47800,1,0,3:0:0:0:
304,312,47963,1,8,3:0:0:0:
240,128,48126,1,0,3:0:0:0:
224,344,48289,2,0,P|160:352|120:344,1,101.920001244141,0|2,1:0|2:0,0:0:0:0:
32,232,48615,5,4,3:0:0:0:
54,192,48696,1,0,2:0:0:0:
94,172,48778,1,2,2:0:0:0:
139,177,48859,1,0,2:0:0:0:
173,206,48941,1,0,3:0:0:0:
200,240,49023,1,0,2:0:0:0:
234,269,49104,1,2,2:0:0:0:
279,274,49186,1,0,2:0:0:0:
319,254,49267,6,0,P|320:200|312:176,1,50.9600006220703,2|0,3:0|0:0,0:0:0:0:
216,96,49430,2,0,P|214:121|217:146,1,50.9600006220703
376,120,49593,1,2,3:0:0:0:
296,32,49756,1,0,3:0:0:0:
296,32,49838,1,0,3:0:0:0:
296,32,49919,5,2,2:0:0:0:
320,203,50082,1,2,0:0:0:0:
345,294,50408,6,0,L|357:315,2,24.8733337128703,2|2|2,0:0|0:0|0:0,0:0:0:0:
362,263,50571,2,0,L|319:202,1,74.6200011386109,8|0,0:0|3:0,0:0:0:0:
258,319,50898,1,0,3:0:0:0:
271,133,51061,6,0,P|330:120|399:186,1,149.240002277222,6|0,0:0|0:0,0:0:0:0:
280,228,51550,2,0,P|315:205|315:246,1,101.920001244141,2|0,0:0|0:0,0:0:0:0:
402,287,51876,1,8,2:0:0:0:
392,312,52202,5,0,0:0:0:0:
232,280,52365,1,0,3:0:0:0:
224,272,52446,1,0,3:0:0:0:
216,264,52528,5,2,0:0:0:0:
256,80,52691,1,2,0:0:0:0:
272,96,53017,6,0,L|288:56,2,24.8733337128703,2|2|2,0:0|0:0|0:0,0:0:0:0:
296,120,53180,2,0,L|312:216,1,74.6200011386109,8|0,0:0|3:0,0:0:0:0:
456,136,53506,1,0,3:0:0:0:
413,301,53669,6,0,P|376:352|273:328,1,149.240002277222,6|2,0:0|0:0,0:0:0:0:
160,272,54158,1,2,3:0:0:0:
336,280,54321,1,2,0:0:0:0:
128,184,54485,2,0,P|72:184|32:192,1,74.6200011386109,8|2,2:0|0:0,0:0:0:0:
240,104,54811,2,0,P|296:104|336:112,1,74.6200011386109,2|0,3:0|0:0,0:0:0:0:
392,312,55137,5,6,0:0:0:0:
408,136,55300,1,2,0:0:0:0:
392,160,55626,6,0,L|360:144,2,24.8733337128703,2|2|2,0:0|0:0|0:0,0:0:0:0:
416,176,55789,2,0,L|448:256,1,74.6200011386109,8|0,0:0|3:0,0:0:0:0:
288,216,56115,1,0,3:0:0:0:
400,64,56278,6,0,B|356:47|295:92|230:60,1,149.240002277222,6|0,0:0|0:0,0:0:0:0:
160,208,56767,2,0,P|157:168|173:101,1,74.6200011386109,2|2,3:0|0:0,0:0:0:0:
304,272,57093,1,8,2:0:0:0:
304,72,57745,5,2,0:0:0:0:
248,249,57908,1,2,0:0:0:0:
224,224,58235,6,0,L|192:240,2,24.8733337128703,2|2|2,0:0|0:0|0:0,0:0:0:0:
248,200,58398,2,0,L|264:128,1,74.6200011386109,8|0,2:0|3:0,2:0:0:0:
120,200,58724,1,0,3:0:0:0:
335,232,58887,6,0,P|319:296|223:336,1,149.240002277222,6|0,0:0|0:0,0:0:0:0:
136,288,59376,1,2,3:0:0:0:
120,272,59702,1,8,0:0:0:0:
104,256,60028,1,0,1:0:0:0:
120,88,60191,1,0,1:0:0:0:
120,88,60273,1,0,0:0:0:0:
120,88,60354,5,8,1:1:0:0:
136,304,60517,1,0,3:0:0:0:
184,40,60680,5,8,1:1:0:0:
168,272,60843,1,0,3:0:0:0:
248,72,61006,5,8,1:1:0:0:
200,296,61169,1,0,3:0:0:0:
312,40,61332,5,8,1:1:0:0:
224,256,61495,1,0,3:0:0:0:
368,88,61658,5,8,1:1:0:0:
264,288,61821,1,0,3:0:0:0:
248,72,61985,5,8,1:1:0:0:
368,256,62148,1,0,3:0:0:0:
368,88,62311,5,8,1:1:0:0:
264,288,62474,1,0,3:0:0:0:
280,104,62637,6,0,P|280:48|288:32,1,50.9600006220703,0|0,3:0|3:0,3:0:0:0:
344,216,62800,2,0,P|347:241|342:266,1,50.9600006220703,0|0,3:0|3:0,3:0:0:0:
152,200,62963,5,8,1:0:0:0:
388,134,63126,1,0,3:0:0:0:
118,121,63289,1,8,1:0:0:0:
352,200,63452,1,0,3:0:0:0:
160,184,63615,5,8,1:0:0:0:
391,111,63778,1,0,3:0:0:0:
103,101,63941,1,8,1:0:0:0:
336,184,64104,1,0,3:0:0:0:
208,25,64267,5,8,1:0:0:0:
272,288,64430,1,0,3:0:0:0:
320,40,64593,1,8,1:0:0:0:
176,256,64756,1,0,3:0:0:0:
248,24,64919,5,8,1:0:0:0:
256,280,65082,1,0,3:0:0:0:
341,59,65245,2,0,P|343:96|336:128,1,50.9600006220703,0|0,3:0|3:0,3:0:0:0:
166,242,65408,2,0,P|163:216|165:191,1,50.9600006220703,0|0,3:0|3:0,3:0:0:0:
332,221,65571,6,0,P|341:290|325:350,1,101.920001244141,12|0,1:1|3:0,0:0:0:0:
60,281,65898,2,0,B|60:217|36:121|36:121|76:153,1,203.840002488281,8|8,1:1|1:1,0:0:0:0:
166,242,66387,1,2,2:0:0:0:
224,64,66550,1,8,1:1:0:0:
248,192,66713,1,0,3:0:0:0:
168,56,66876,6,0,B|248:40|328:64|328:64|264:80,1,203.840002488281,8|8,1:1|1:1,0:0:0:0:
104,160,67365,1,2,2:0:0:0:
336,144,67528,1,8,1:1:0:0:
144,72,67691,1,2,2:0:0:0:
400,93,67854,2,0,P|416:144|400:197,1,101.920001244141,8|0,1:1|3:0,0:0:0:0:
389,212,68099,1,0,3:0:0:0:
373,228,68180,5,8,1:1:0:0:
248,112,68343,1,0,3:0:0:0:
199,297,68506,2,0,P|146:311|88:288,1,101.920001244141,10|0,1:1|3:0,0:0:0:0:
272,136,68832,5,8,1:1:0:0:
149,232,68995,2,0,P|101:204|76:147,1,101.920001244141,2|8,2:0|1:1,0:0:0:0:
294,159,69321,5,0,3:0:0:0:
160,152,69485,2,0,P|146:99|169:41,1,101.920001244141,10|2,1:1|3:0,0:0:0:0:
416,72,69811,5,8,1:1:0:0:
225,103,69974,1,0,3:0:0:0:
448,112,70137,5,8,1:1:0:0:
240,128,70300,1,0,3:0:0:0:
480,152,70463,5,8,1:1:0:0:
256,152,70626,1,0,3:0:0:0:
256,152,70707,1,0,3:0:0:0:
256,152,70789,6,0,P|201:140|136:160,1,101.920001244141,12|0,1:1|3:0,0:0:0:0:
96,336,71115,1,8,1:1:0:0:
203,235,71278,1,0,3:0:0:0:
16,280,71441,1,8,1:1:0:0:
250,301,71604,6,0,P|302:316|362:287,1,101.920001244141,2|8,3:0|1:1,0:0:0:0:
298,93,71930,1,0,3:0:0:0:
202,234,72093,6,0,P|250:219|298:236,1,101.920001244141,8|2,1:1|3:0,0:0:0:0:
184,368,72419,1,8,1:1:0:0:
368,288,72582,1,0,3:0:0:0:
200,136,72745,1,8,1:1:0:0:
400,184,72908,1,0,3:0:0:0:
216,312,73071,2,0,L|112:320,1,101.920001244141,8|0,1:1|3:0,0:0:0:0:
95,297,73316,1,0,3:0:0:0:
84,273,73398,5,12,1:1:0:0:
112,72,73561,1,0,3:0:0:0:
160,240,73724,1,8,1:1:0:0:
40,128,73887,1,0,3:0:0:0:
184,24,74050,1,8,1:1:0:0:
160,240,74213,2,0,B|128:288|128:288|72:320,1,101.920001244141,2|8,2:0|1:1,1:0:0:0:
135,152,74539,1,0,0:0:0:0:
135,152,74620,1,0,0:0:0:0:
135,152,74702,5,8,1:1:0:0:
178,178,74783,1,0,2:0:0:0:
202,222,74865,1,0,3:0:0:0:
203,272,74946,1,0,2:0:0:0:
178,316,75028,1,8,1:1:0:0:
135,344,75110,1,0,2:0:0:0:
87,328,75191,1,0,3:0:0:0:
71,280,75273,1,0,2:0:0:0:
106,240,75354,5,8,1:1:0:0:
160,240,75436,1,0,2:0:0:0:
203,272,75517,1,0,3:0:0:0:
229,314,75599,1,0,2:0:0:0:
273,337,75680,1,8,1:1:0:0:
323,331,75762,1,0,2:0:0:0:
361,298,75843,1,0,3:0:0:0:
374,250,75925,1,0,2:0:0:0:
357,203,76006,5,6,2:0:0:0:
256,192,76088,12,0,78615,0:0:0:0:
