osu file format v14

[General]
AudioFilename: audio.mp3
AudioLeadIn: 0
PreviewTime: 38995
Countdown: 0
SampleSet: Soft
StackLeniency: 0.7
Mode: 0
LetterboxInBreaks: 0
EpilepsyWarning: 1
WidescreenStoryboard: 1

[Editor]
DistanceSpacing: 0.9
BeatDivisor: 4
GridSize: 8
TimelineZoom: 2.2

[Metadata]
Title:Historia
TitleUnicode:ヒストリア
Artist:CHiCO with HoneyWorks
ArtistUnicode:CHiCO with HoneyWorks
Creator:Sotarks
Version:Insane
Source:
Tags:Janpai Akitoshi Kalibe Linada HB24 short size version cut プライド革命 Pride Kakumei vocaloid
BeatmapID:930497
BeatmapSetID:431082

[Difficulty]
HPDrainRate:5.2
CircleSize:3.8
OverallDifficulty:7.2
ApproachRate:8.8
SliderMultiplier:1.62
SliderTickRate:1

[Events]
//Background and Video events
0,0,"BG.jpg",0,0
//Break Periods
2,5935,10160
2,11152,15377
//Storyboard Layer 0 (Background)
//Storyboard Layer 1 (Fail)
//Storyboard Layer 2 (Pass)
//Storyboard Layer 3 (Foreground)
//Storyboard Sound Samples

[TimingPoints]
5572,326.086956521739,4,2,1,62,1,0
16006,-121.951219512195,4,2,1,82,0,0
24974,-108.695652173913,4,2,1,82,0,0
26441,-121.951219512195,4,2,1,82,0,0
31006,-121.951219512195,4,2,1,72,0,0
31577,-121.951219512195,4,2,1,5,0,0
31658,-121.951219512195,4,2,1,72,0,0
38832,-121.951219512195,4,2,1,5,0,0
38995,-121.951219512195,4,2,1,55,0,0
39158,-121.951219512195,4,2,1,55,0,0
39403,-121.951219512195,4,2,1,5,0,0
39485,-89.2857142857143,4,2,1,92,0,1
49919,-121.951219512195,4,2,1,82,0,0
51550,-89.2857142857143,4,2,1,82,0,0
51713,-121.951219512195,4,2,1,82,0,0
60354,-89.2857142857143,4,1,1,92,0,1
65408,-89.2857142857143,4,1,1,92,0,0
65571,-89.2857142857143,4,1,1,92,0,1
70626,-89.2857142857143,4,1,1,92,0,0
70789,-89.2857142857143,4,1,1,92,0,1
76006,-89.2857142857143,4,1,1,92,0,0
78615,-89.2857142857143,4,2,1,5,0,0

[Colours]
Combo1 : 241,146,75
Combo2 : 170,201,139
Combo3 : 165,100,97
Combo4 : 173,173,173
Combo5 : 255,47,47
Combo6 : 87,79,255

[HitObjects]
200,136,5572,5,2,0:0:0:0:
320,248,5735,1,2,0:0:0:0:
312,136,10789,5,2,0:0:0:0:
192,248,10952,1,2,0:0:0:0:
88,272,16006,6,0,P|152:280|237:271,1,132.840002026978,4|0,3:0|3:0,0:0:0:0:
288,184,16495,1,0,0:0:0:0:
344,312,16658,2,0,P|384:307|416:313,1,66.4200010134888,0|0,3:0|0:0,0:0:0:0:
479,208,16985,2,0,P|439:213|401:208,1,66.4200010134888,0|0,3:0|0:0,0:0:0:0:
326,95,17311,6,0,P|269:89|243:100,2,66.4200010134888,2|0|0,3:0|0:0|3:0,0:0:0:0:
287,180,17800,1,0,0:0:0:0:
199,213,17963,6,0,P|195:250|197:283,1,66.4200010134888,2|2,2:2|2:2,0:0:0:0:
288,336,18289,2,0,P|292:305|283:244,1,66.4200010134888,2|2,2:2|2:2,0:0:0:0:
181,132,18615,6,0,P|132:167|127:249,1,132.840002026978,4|0,3:0|3:0,0:0:0:0:
199,213,19104,1,2,0:0:0:0:
264,136,19267,2,0,P|304:132|342:137,1,66.4200010134888,0|0,3:0|0:0,0:0:0:0:
384,224,19593,2,0,P|421:226|452:222,1,66.4200010134888,0|2,3:0|0:0,0:0:0:0:
370,68,19919,6,0,P|297:57|213:73,1,132.840002026978,0|0,3:0|3:0,0:0:0:0:
128,160,20408,1,2,0:0:0:0:
240,272,20571,6,0,L|240:192,1,66.4200010134888,0|2,3:0|2:2,0:0:0:0:
328,312,20898,2,0,L|328:240,1,66.4200010134888,2|2,2:2|2:2,0:0:0:0:
376,88,21224,6,0,L|312:64,1,66.4200010134888,4|0,3:0|0:0,0:0:0:0:
200,128,21550,1,0,3:0:0:0:
144,48,21713,1,0,0:0:0:0:
140,184,21876,2,0,P|180:208|224:208,1,66.4200010134888,0|2,3:0|0:0,0:0:0:0:
372,184,22202,2,0,P|332:208|288:208,1,66.4200010134888,0|0,3:0|0:0,0:0:0:0:
200,320,22528,5,0,3:0:0:0:
312,280,22691,1,2,0:0:0:0:
198,210,22854,1,0,3:0:0:0:
312,130,23017,1,2,0:0:0:0:
112,64,23180,6,0,L|186:63,1,66.4200010134888,2|2,2:2|2:2,0:0:0:0:
72,144,23506,2,0,L|146:143,1,66.4200010134888,2|2,2:2|2:2,0:0:0:0:
312,280,23832,6,0,P|317:214|312:144,1,132.840002026978,4|0,3:0|3:0,0:0:0:0:
224,240,24321,1,2,0:0:0:0:
392,192,24485,1,0,3:0:0:0:
312,304,24648,1,2,0:0:0:0:
224,208,24811,1,0,3:0:0:0:
232,48,24974,6,0,B|280:48|344:40|344:40|400:56,1,149.039994996826,0|2,1:0|3:0,0:0:0:0:
392,72,25381,1,0,3:0:0:0:
392,72,25463,1,0,1:0:0:0:
312,216,25626,1,2,0:0:0:0:
456,144,25789,1,0,1:0:0:0:
296,112,25952,1,0,1:0:0:0:
441,223,26115,2,0,L|408:240,3,37.2599987492066,0|0|0|0,3:0|3:0|3:0|3:0,0:0:0:0:
360,304,26441,6,0,P|312:304|208:304,1,132.840002026978,6|0,0:0|0:0,0:0:0:0:
120,216,26930,1,0,3:0:0:0:
120,216,27012,1,0,3:0:0:0:
120,216,27093,2,0,P|157:151|231:139,1,132.840002026978,8|2,2:0|2:2,0:0:0:0:
320,64,27582,1,2,2:2:0:0:
204,218,27745,6,0,P|269:220|323:183,1,132.840002026978,0|2,0:0|2:0,0:0:0:0:
152,88,28235,1,0,0:0:0:0:
143,296,28398,2,0,P|184:315|282:277,1,132.840002026978,8|0,2:0|0:0,0:0:0:0:
408,112,29050,6,0,L|336:104,1,66.4200010134888,2|2,2:2|2:2,0:0:0:0:
240,32,29376,1,0,0:0:0:0:
146,121,29539,1,0,3:0:0:0:
146,121,29620,1,0,3:0:0:0:
146,121,29702,2,0,P|127:216|155:264,1,132.840002026978,8|2,2:0|2:2,0:0:0:0:
240,336,30191,1,2,2:2:0:0:
337,238,30354,6,0,B|297:206|297:206|218:187,1,132.840002026978,0|2,0:0|2:0,0:0:0:0:
344,40,31006,1,8,2:0:0:0:
96,96,31658,6,0,L|96:248,1,132.840002026978,2|0,2:2|0:0,0:0:0:0:
208,304,32148,1,0,3:0:0:0:
208,304,32229,1,0,3:0:0:0:
208,304,32311,2,0,P|270:329|338:296,1,132.840002026978,8|2,2:0|2:2,0:0:0:0:
400,184,32800,1,2,2:2:0:0:
293,121,32963,6,0,B|269:161|269:161|269:248,1,132.840002026978,0|2,0:0|2:0,0:0:0:0:
400,184,33452,1,0,0:0:0:0:
359,75,33615,2,0,P|324:46|225:75,1,132.840002026978,8|0,2:0|0:0,0:0:0:0:
152,160,34104,1,2,0:0:0:0:
272,288,34267,6,0,B|336:304|336:304|432:296,1,132.840002026978,12|0,2:0|0:0,0:0:0:0:
160,176,34756,1,0,0:0:0:0:
320,224,34919,6,0,B|385:216|385:216|472:174,1,132.840002026978,8|8,2:0|1:0,0:0:0:0:
168,192,35408,1,2,0:0:0:0:
304,104,35571,2,0,P|312:72|240:56,1,99.6300015202332,12|0,2:0|0:0,0:0:0:0:
224,72,35898,2,0,L|152:72,1,66.4200010134888,2|8,3:0|1:0,0:0:0:0:
152,296,36387,2,0,L|224:296,1,66.4200010134888,2|8,3:0|1:0,0:0:0:0:
256,192,36876,12,0,39158,0:0:0:0:
472,72,39485,6,0,B|431:116|348:46|298:81,1,181.440002214844,6|0,0:0|1:0,0:0:0:0:
201,165,39974,1,0,3:0:0:0:
200,165,40137,2,0,P|197:210|206:254,1,90.7200011074219,8|0,3:0|3:0,0:0:0:0:
312,112,40463,1,0,1:0:0:0:
352,232,40626,1,2,2:0:0:0:
200,165,40789,6,0,P|155:157|108:167,1,90.7200011074219,2|0,0:0|0:0,0:0:0:0:
48,288,41115,2,0,P|93:296|138:282,1,90.7200011074219,0|0,1:0|3:0,0:0:0:0:
310,238,41441,2,0,P|355:233|400:240,1,90.7200011074219,8|0,3:0|3:0,0:0:0:0:
240,64,41767,1,0,1:0:0:0:
232,211,41930,1,0,3:0:0:0:
232,211,42012,1,0,3:0:0:0:
232,211,42093,6,0,B|261:153|321:157|321:157|360:136|373:105,1,181.440002214844,6|0,0:0|1:0,0:0:0:0:
310,238,42582,1,0,3:0:0:0:
310,238,42745,2,0,P|304:296|320:344,1,90.7200011074219,8|0,3:0|3:0,0:0:0:0:
408,200,43071,2,0,P|414:142|398:94,1,90.7200011074219,0|2,1:0|0:0,0:0:0:0:
256,40,43398,5,2,0:0:0:0:
216,184,43561,1,0,0:0:0:0:
328,104,43724,1,0,1:0:0:0:
168,88,43887,1,0,3:0:0:0:
128,240,44050,5,2,2:0:0:0:
248,160,44213,1,8,3:0:0:0:
80,136,44376,1,0,1:0:0:0:
65,314,44539,1,0,3:0:0:0:
65,314,44620,1,0,3:0:0:0:
65,314,44702,6,0,P|129:337|218:270,1,181.440002214844,6|0,0:0|1:0,0:0:0:0:
304,144,45191,1,0,3:0:0:0:
304,144,45354,2,0,P|298:189|304:248,1,90.7200011074219,8|0,3:0|3:0,0:0:0:0:
424,336,45680,2,0,P|427:290|421:245,1,90.7200011074219,0|2,1:0|0:0,0:0:0:0:
352,75,46006,6,0,P|299:61|243:87,1,90.7200011074219,2|0,0:0|3:0,0:0:0:0:
192,184,46332,1,0,1:0:0:0:
144,88,46495,1,0,3:0:0:0:
256,240,46658,1,8,3:0:0:0:
304,144,46821,1,0,3:0:0:0:
166,271,46985,2,0,P|120:245|79:247,1,90.7200011074219,0|0,1:0|3:0,0:0:0:0:
104,328,47229,1,0,3:0:0:0:
104,328,47311,6,0,B|152:352|152:352|296:328,1,181.440002214844,6|0,0:0|1:0,0:0:0:0:
344,216,47800,1,0,3:0:0:0:
344,216,47963,2,0,P|392:204|446:220,1,90.7200011074219,8|0,3:0|3:0,0:0:0:0:
336,96,48289,1,0,1:0:0:0:
391,284,48452,1,2,2:0:0:0:
280,160,48615,6,0,L|248:128,3,45.3600005537109,4|0|2|0,3:0|2:0|2:0|2:0,0:0:0:0:
192,184,48941,2,0,L|148:170,3,45.3600005537109,0|0|2|0,3:0|2:0|2:0|2:0,0:0:0:0:
136,248,49267,6,0,L|94:265,3,45.3600005537109,2|0|0|0,3:0|0:0|0:0|0:0,0:0:0:0:
160,328,49593,1,2,3:0:0:0:
196,328,49674,1,0,0:0:0:0:
232,328,49756,1,0,3:0:0:0:
268,328,49837,1,0,3:0:0:0:
304,328,49919,5,2,2:0:0:0:
336,232,50082,1,2,0:0:0:0:
224,48,50408,2,0,L|224:96,2,33.2100005067444,2|0|8,0:0|0:0|0:0,0:0:0:0:
296,120,50735,1,0,3:0:0:0:
144,96,50898,1,0,3:0:0:0:
289,202,51061,6,0,P|353:178|377:106,1,132.840002026978,6|0,0:0|0:0,0:0:0:0:
359,261,51550,2,0,P|416:224|436:176,1,90.7200011074219,2|0,0:0|0:0,0:0:0:0:
296,120,51876,1,8,2:0:0:0:
152,272,52365,5,0,3:0:0:0:
152,272,52446,1,0,3:0:0:0:
152,272,52528,2,0,L|152:192,1,66.4200010134888,2|2,0:0|0:0,0:0:0:0:
336,80,53017,2,0,L|346:126,2,33.2100005067444,2|0|8,0:0|0:0|0:0,0:0:0:0:
282,166,53344,1,0,3:0:0:0:
424,108,53507,1,0,3:0:0:0:
332,232,53669,6,0,P|270:248|205:193,1,132.840002026978,6|2,0:0|0:0,0:0:0:0:
88,128,54158,2,0,L|120:192,1,66.4200010134888,2|2,3:0|0:0,0:0:0:0:
144,312,54485,2,0,L|232:312,1,66.4200010134888,8|2,2:0|0:0,0:0:0:0:
282,166,54811,2,0,L|282:78,1,66.4200010134888,2|0,3:0|0:0,0:0:0:0:
160,40,55137,5,6,0:0:0:0:
160,40,55300,1,2,0:0:0:0:
252,254,55626,2,0,L|221:217,2,33.2100005067444,2|0|8,0:0|0:0|0:0,0:0:0:0:
150,245,55953,1,0,3:0:0:0:
282,166,56116,1,0,3:0:0:0:
104,176,56278,6,0,P|72:224|102:312,1,132.840002026978,6|0,0:0|0:0,0:0:0:0:
208,328,56767,2,0,P|245:323|292:335,1,66.4200010134888,2|2,3:0|0:0,0:0:0:0:
400,208,57093,1,8,2:0:0:0:
176,64,57745,5,2,0:0:0:0:
176,64,57908,1,2,0:0:0:0:
112,288,58235,2,0,L|142:251,2,33.2100005067444,2|0|8,0:0|0:0|2:0,0:0:0:0:
214,279,58562,1,0,3:0:0:0:
82,200,58725,1,0,3:0:0:0:
262,211,58887,6,0,P|290:247|274:335,1,132.840002026978,6|0,0:0|0:0,0:0:0:0:
365,228,59376,2,0,P|340:180|312:162,1,66.4200010134888,2|0,3:0|0:0,0:0:0:0:
253,128,59702,2,0,P|199:120|168:133,1,66.4200010134888,8|0,0:0|0:0,0:0:0:0:
120,232,60028,1,0,1:0:0:0:
232,320,60191,1,0,1:0:0:0:
232,320,60273,1,0,0:0:0:0:
232,320,60354,6,0,L|336:320,1,90.7200011074219,8|0,1:1|3:0,0:0:0:0:
376,200,60680,5,8,1:1:0:0:
416,288,60843,1,0,3:0:0:0:
272,232,61006,5,8,1:1:0:0:
232,320,61169,1,0,3:0:0:0:
168,200,61332,2,0,L|128:112,1,90.7200011074219,8|0,1:1|3:0,0:0:0:0:
272,48,61658,6,0,L|234:130,1,90.7200011074219,8|0,1:1|3:0,0:0:0:0:
352,96,61985,1,8,1:1:0:0:
418,166,62148,1,0,3:0:0:0:
234,130,62311,5,8,1:1:0:0:
168,200,62474,1,0,3:0:0:0:
264,304,62637,1,0,3:0:0:0:
264,304,62718,1,0,3:0:0:0:
264,304,62800,1,0,3:0:0:0:
264,304,62881,1,0,3:0:0:0:
264,304,62963,6,0,L|264:200,1,90.7200011074219,8|0,1:0|3:0,0:0:0:0:
152,120,63289,5,8,1:0:0:0:
176,272,63452,1,0,3:0:0:0:
234,130,63615,5,8,1:0:0:0:
104,224,63778,1,0,3:0:0:0:
264,213,63941,2,0,L|360:213,1,90.7200011074219,8|0,1:0|3:0,0:0:0:0:
416,88,64267,5,8,1:0:0:0:
512,168,64430,1,0,3:0:0:0:
354,213,64593,1,8,1:0:0:0:
448,304,64756,1,0,3:0:0:0:
354,197,64919,5,8,1:0:0:0:
512,152,65082,1,0,3:0:0:0:
416,72,65245,1,0,3:0:0:0:
416,72,65327,1,0,3:0:0:0:
416,72,65408,1,0,3:0:0:0:
416,72,65490,1,0,3:0:0:0:
416,72,65571,6,0,L|312:64,1,90.7200011074219,12|0,1:1|3:0,0:0:0:0:
224,192,65898,2,0,B|272:200|352:200|352:200|288:168,1,181.440002214844,8|8,1:1|1:1,0:0:0:0:
184,104,66387,2,0,P|144:136|128:192,1,90.7200011074219,2|8,2:0|1:1,0:0:0:0:
248,272,66713,1,0,3:0:0:0:
264,86,66876,6,0,P|232:38|111:64,1,181.440002214844,8|8,1:1|1:1,0:0:0:0:
112,192,67365,1,2,2:0:0:0:
272,184,67528,1,8,1:1:0:0:
184,104,67691,1,2,2:0:0:0:
246,263,67854,2,0,P|290:265|343:227,1,90.7200011074219,8|0,1:1|3:0,0:0:0:0:
376,64,68180,5,8,1:1:0:0:
416,200,68343,1,0,3:0:0:0:
304,104,68506,6,0,L|224:48,1,90.7200011074219,10|0,1:1|3:0,0:0:0:0:
400,224,68832,1,8,1:1:0:0:
232,144,68995,6,0,L|120:136,1,90.7200011074219,2|8,2:0|1:1,0:0:0:0:
384,240,69321,1,0,3:0:0:0:
176,216,69485,6,0,L|73:261,1,90.7200011074219,10|2,1:1|3:0,0:0:0:0:
208,312,69811,2,0,P|264:320|312:312,1,90.7200011074219,8|0,1:1|3:0,0:0:0:0:
432,232,70137,2,0,P|376:240|328:232,1,90.7200011074219,8|0,1:1|3:0,0:0:0:0:
280,120,70463,1,8,1:1:0:0:
200,216,70626,1,0,3:0:0:0:
200,216,70707,1,0,3:0:0:0:
200,216,70789,6,0,L|96:216,1,90.7200011074219,12|0,1:1|3:0,0:0:0:0:
16,136,71115,2,0,L|224:136,1,181.440002214844,8|8,1:1|1:1,0:0:0:0:
376,64,71604,2,0,L|264:64,1,90.7200011074219,2|8,3:0|1:1,0:0:0:0:
160,32,71930,1,0,3:0:0:0:
280,144,72093,6,0,B|296:200|288:280|288:280|305:239,1,181.440002214844,8|8,1:1|1:1,0:0:0:0:
384,144,72582,1,0,3:0:0:0:
398,268,72745,2,0,P|374:308|334:332,1,90.7200011074219,8|0,1:1|3:0,0:0:0:0:
168,264,73071,2,0,P|192:304|232:328,1,90.7200011074219,8|0,1:1|3:0,0:0:0:0:
304,240,73398,5,12,1:1:0:0:
224,136,73561,1,0,3:0:0:0:
100,218,73724,6,0,P|87:273|100:314,1,90.7200011074219,8|0,1:1|3:0,0:0:0:0:
224,160,74050,1,8,1:1:0:0:
168,264,74213,6,0,P|192:304|232:328,1,90.7200011074219,2|8,2:0|1:1,0:0:0:0:
320,224,74539,1,0,0:0:0:0:
320,224,74620,1,0,0:0:0:0:
320,224,74702,6,0,L|344:184,3,45.3600005537109,8|0|0|0,1:1|2:0|3:0|2:0,0:0:0:0:
272,144,75028,2,0,L|280:98,3,45.3600005537109,8|0|0|0,1:1|2:0|3:0|2:0,0:0:0:0:
208,208,75354,6,0,L|186:166,3,45.3600005537109,8|0|0|0,1:1|2:0|3:0|2:0,0:0:0:0:
128,224,75680,2,0,L|85:205,3,45.3600005537109,8|0|0|0,1:1|2:0|3:0|2:0,0:0:0:0:
96,104,76006,5,6,2:0:0:0:
256,192,76088,12,0,78615,0:0:0:0:
