osu file format v14

[General]
AudioFilename: majikai.mp3
AudioLeadIn: 0
PreviewTime: 63653
Countdown: 0
SampleSet: Soft
StackLeniency: 0.7
Mode: 0
LetterboxInBreaks: 0
WidescreenStoryboard: 0

[Editor]
DistanceSpacing: 1.1
BeatDivisor: 1
GridSize: 4
TimelineZoom: 2.1

[Metadata]
Title:Ai no Scenario
TitleUnicode:アイのシナリオ
Artist:CHiCO with HoneyWorks
ArtistUnicode:CHiCO with HoneyWorks
Creator:litoluna
Version:Easy
Source:まじっく快斗1412
Tags:Magic Kaito opening
BeatmapID:614871
BeatmapSetID:269103

[Difficulty]
HPDrainRate:2
CircleSize:3
OverallDifficulty:2
ApproachRate:3
SliderMultiplier:0.7
SliderTickRate:1

[Events]
//Background and Video events
0,0,"magic.jpg",0,0
//Break Periods
//Storyboard Layer 0 (Background)
//Storyboard Layer 1 (Fail)
//Storyboard Layer 2 (Pass)
//Storyboard Layer 3 (Foreground)
//Storyboard Sound Samples

[TimingPoints]
737,333.333333333333,4,2,1,60,1,0
9736,-100,4,2,1,60,0,0
9820,-100,4,2,1,20,0,0
10903,-100,4,2,1,40,0,0
11070,-100,4,2,1,60,0,0
11403,-100,4,2,2,60,0,0
16070,-100,4,2,1,60,0,0
16736,-100,4,2,1,70,0,0
22070,-100,4,2,1,60,0,0
31570,-100,4,2,1,50,0,0
31653,-100,4,2,1,20,0,0
31736,-100,4,2,1,55,0,0
31820,-100,4,2,1,20,0,0
31903,-100,4,2,1,60,0,0
31986,-100,4,2,1,20,0,0
32070,-100,4,2,1,60,0,0
43403,-100,4,2,1,50,0,0
52736,-100,4,2,1,60,0,0
59403,-100,4,2,1,40,0,0
60070,-100,4,2,2,45,0,0
60736,-100,4,2,2,50,0,0
61403,-100,4,2,1,60,0,0
62070,-100,4,2,1,70,0,0
63736,-100,4,2,1,50,0,0
64736,-100,4,2,1,80,0,1
86236,-100,4,2,1,80,0,0
88903,-100,4,2,1,20,0,0

[Colours]
Combo1 : 153,0,0
Combo2 : 0,99,147
Combo3 : 234,234,0

[HitObjects]
116,168,737,6,0,P|132:100|180:52,1,140,6|2,0:0|0:0,0:0:0:0:
331,51,2070,2,0,P|380:100|396:168,1,140,2|2,0:0|0:0,0:0:0:0:
324,304,3403,2,0,P|256:288|188:304,1,140,2|2,0:0|0:0,0:0:0:0:
36,336,4736,1,2,0:0:0:0:
120,208,5403,2,0,P|136:140|120:72,1,140,2|6,0:0|0:0,0:0:0:0:
256,148,6736,6,0,P|320:176|388:164,1,140,2|2,0:0|0:0,0:0:0:0:
492,52,8070,1,2,0:0:0:0:
476,204,8736,2,0,L|464:312,2,105,12|12|4,0:0|0:0|0:0,0:0:0:0:
476,204,11403,6,0,P|408:216|344:188,1,140,2|2,0:0|0:0,0:0:0:0:
236,80,12736,2,0,L|224:220,1,140,2|2,0:0|0:0,0:0:0:0:
212,372,14070,2,0,P|272:336|340:340,2,140,2|2|2,0:0|0:0|0:0,0:0:0:0:
112,252,16070,6,0,L|124:112,1,140,10|4,0:0|0:0,0:0:0:0:
256,32,17403,1,2,0:0:0:0:
392,104,18070,2,0,P|352:156|280:184,2,140,2|2|2,0:0|0:0|0:0,0:0:0:0:
256,32,20070,1,2,0:0:0:0:
192,172,20736,2,0,L|224:308,1,140,2|8,0:0|0:3,0:0:0:0:
372,348,22070,6,0,P|420:296|428:228,1,140,6|2,0:0|0:0,0:0:0:0:
332,108,23403,2,0,L|192:88,1,140,2|2,0:0|0:0,0:0:0:0:
88,200,24736,2,0,P|92:268|52:324,2,140,2|2|2,0:0|0:0|0:0,0:0:0:0:
48,52,26736,1,2,0:0:0:0:
160,156,27403,6,0,P|228:168|300:160,1,140,2|2,0:0|0:0,0:0:0:0:
432,84,28736,2,0,L|412:224,1,140,2|2,0:0|0:0,0:0:0:0:
296,328,30070,1,2,0:0:0:0:
164,252,30736,2,0,P|212:200|248:184,1,105,2|8,0:0|3:2,0:0:0:0:
242,185,32736,6,0,P|264:120|240:56,1,140,6|2,0:0|0:0,0:0:0:0:
100,124,34070,2,0,P|76:188|98:253,1,140,2|2,0:0|0:0,0:0:0:0:
240,316,35403,2,0,L|380:300,2,140,2|2|2,0:0|0:0|0:0,0:0:0:0:
88,336,37403,1,2,0:0:0:0:
172,208,38070,6,0,L|172:64,1,140,2|2,0:0|0:0,0:0:0:0:
28,124,39403,2,0,L|28:264,1,140,2|2,0:0|0:0,0:0:0:0:
156,352,40736,1,2,0:0:0:0:
256,236,41403,2,0,B|312:220|312:220|360:220,1,105,2|6,0:0|0:0,0:0:0:0:
468,188,42403,2,0,P|496:124|464:60,1,140,12|4,0:0|0:3,0:0:0:0:
396,40,43403,6,0,L|256:40,1,140,6|8,0:0|0:0,0:0:0:0:
112,92,44736,2,0,P|91:158|111:224,1,140,2|8,0:0|0:0,0:0:0:0:
236,316,46070,2,0,L|100:356,2,140,4|8|2,0:0|0:0|0:0,0:0:0:0:
340,200,48070,6,0,P|324:132|356:68,1,140,8|6,0:0|0:0,0:0:0:0:
500,32,49403,1,8,0:0:0:0:
432,172,50070,2,0,L|432:312,1,140,2|8,0:0|0:0,0:0:0:0:
292,244,51403,2,0,P|224:232|156:248,2,140,6|8|8,0:0|0:0|0:0,0:0:0:0:
360,284,53070,1,8,0:0:0:0:
412,340,53403,6,0,L|428:200,1,140,8|6,0:0|0:0,0:0:0:0:
384,52,54736,1,2,0:0:0:0:
256,136,55403,2,0,P|188:120|116:136,1,140,2|2,0:0|0:0,0:0:0:0:
44,268,56736,2,0,P|112:281|179:265,1,140,2|2,0:0|0:0,0:0:0:0:
320,204,58070,6,0,L|320:60,2,140,12|8|4,0:0|0:0|0:0,0:0:0:0:
256,344,60070,1,8,0:0:0:0:
144,240,60736,1,8,0:0:0:0:
256,132,61403,1,8,0:3:0:0:
368,240,62070,6,0,P|432:264|496:232,1,140,4|8,0:0|0:0,0:0:0:0:
497,157,63070,2,0,L|493:117,1,35,8|2,0:0|0:3,0:0:0:0:
493,122,64736,6,0,L|505:269,1,140,6|2,0:0|0:0,0:0:0:0:
388,363,66070,2,0,P|324:335|256:343,1,140,2|2,0:0|0:0,0:0:0:0:
180,358,67070,1,10,0:0:0:0:
104,368,67403,2,0,L|136:232,1,140,2|2,0:0|0:0,0:0:0:0:
172,84,68736,6,0,P|100:84|36:132,2,140,2|2|6,0:0|0:0|0:0,0:0:0:0:
256,212,70736,1,2,0:0:0:0:
340,84,71403,2,0,P|412:84|476:132,2,140,2|2|2,0:0|0:0|0:0,0:0:0:0:
256,212,73403,1,2,0:0:0:0:
340,340,74070,2,0,P|388:292|400:224,1,140,6|10,0:0|0:0,0:0:0:0:
376,148,75070,1,10,0:0:0:0:
308,112,75403,6,0,L|168:104,1,140,6|2,0:0|0:0,0:0:0:0:
52,204,76736,2,0,L|192:212,1,140,2|2,0:0|0:0,0:0:0:0:
268,223,77736,1,10,0:0:0:0:
336,260,78070,2,0,P|408:232|440:176,1,140,2|2,0:0|0:0,0:0:0:0:
420,28,79403,1,2,0:0:0:0:
340,159,80070,2,0,P|302:159|258:143,1,70,2|10,0:0|0:0,0:0:0:0:
211,102,80736,6,0,P|143:90|79:114,1,140,6|2,0:0|0:0,0:0:0:0:
16,256,82070,2,0,L|112:360,1,140,2|2,0:0|0:0,0:0:0:0:
256,304,83403,6,0,P|320:279|388:291,2,140,2|2|10,0:0|0:0|0:0,0:0:0:0:
184,332,85070,1,10,0:0:0:0:
135,272,85403,2,0,P|123:200|155:136,1,140,12|6,0:0|0:0,0:0:0:0:
257,185,86570,1,12,0:0:0:0:
256,192,87070,12,0,88903,0:0:0:0:
