osu file format v14

[General]
AudioFilename: majikai.mp3
AudioLeadIn: 0
PreviewTime: 63653
Countdown: 0
SampleSet: Soft
StackLeniency: 0.7
Mode: 0
LetterboxInBreaks: 0
WidescreenStoryboard: 0

[Editor]
DistanceSpacing: 1.2
BeatDivisor: 4
GridSize: 4
TimelineZoom: 2.1

[Metadata]
Title:Ai no Scenario
TitleUnicode:アイのシナリオ
Artist:CHiCO with HoneyWorks
ArtistUnicode:CHiCO with HoneyWorks
Creator:litoluna
Version:Normal
Source:まじっく快斗1412
Tags:Magic Kaito opening
BeatmapID:626509
BeatmapSetID:269103

[Difficulty]
HPDrainRate:4
CircleSize:3
OverallDifficulty:4
ApproachRate:5
SliderMultiplier:0.999999999999999
SliderTickRate:1

[Events]
//Background and Video events
0,0,"magic.jpg",0,0
//Break Periods
//Storyboard Layer 0 (Background)
//Storyboard Layer 1 (Fail)
//Storyboard Layer 2 (Pass)
//Storyboard Layer 3 (Foreground)
//Storyboard Sound Samples

[TimingPoints]
737,333.333333333333,4,2,1,60,1,0
9736,-100,4,2,1,60,0,0
9820,-100,4,2,1,20,0,0
10903,-100,4,2,1,40,0,0
11070,-100,4,2,1,60,0,0
11403,-100,4,2,2,60,0,0
16070,-100,4,2,1,60,0,0
16736,-100,4,2,1,70,0,0
22070,-100,4,2,1,60,0,0
31570,-100,4,2,1,50,0,0
31653,-100,4,2,1,20,0,0
31736,-100,4,2,1,55,0,0
31820,-100,4,2,1,20,0,0
31903,-100,4,2,1,60,0,0
31986,-100,4,2,1,20,0,0
32070,-100,4,2,1,60,0,0
43403,-100,4,2,1,50,0,0
52736,-100,4,2,1,60,0,0
59403,-100,4,2,1,40,0,0
60070,-100,4,2,2,45,0,0
60736,-100,4,2,2,50,0,0
61403,-100,4,2,1,60,0,0
62070,-100,4,2,1,70,0,0
63736,-100,4,2,1,50,0,0
64736,-100,4,2,1,80,0,1
86236,-100,4,2,1,80,0,0
88903,-100,4,2,1,20,0,0

[Colours]
Combo1 : 153,0,0
Combo2 : 0,99,147
Combo3 : 234,234,0

[HitObjects]
228,236,737,6,0,P|316:204|316:108,1,200,6|2,0:0|0:0,0:0:0:0:
236,24,1736,1,2,0:0:0:0:
144,100,2070,2,0,P|100:116|36:124,2,99.9999999999999,2|2|2,0:0|0:0|0:0,0:0:0:0:
236,24,3070,1,2,0:0:0:0:
316,112,3403,6,0,L|304:216,1,99.9999999999999,2|2,0:0|0:0,0:0:0:0:
184,208,4070,2,0,L|196:312,1,99.9999999999999,2|2,0:0|0:0,0:0:0:0:
312,340,4736,2,0,P|360:324|408:324,2,99.9999999999999,2|2|0,0:0|0:0|0:0,0:0:0:0:
256,368,5570,2,0,L|156:356,1,99.9999999999999,12|8,0:0|0:0,0:0:0:0:
104,328,6070,6,0,P|124:232|96:136,1,200,6|2,0:0|0:0,0:0:0:0:
4,56,7070,1,2,0:0:0:0:
124,48,7403,2,0,L|224:40,1,99.9999999999999,2|2,0:0|0:0,0:0:0:0:
208,160,8070,2,0,L|308:168,1,99.9999999999999,2|2,0:0|0:0,0:0:0:0:
288,288,8736,6,0,P|364:280|416:228,2,150,12|12|4,0:0|0:0|0:0,0:0:0:0:
288,288,11403,5,2,0:0:0:0:
288,288,11570,2,0,P|228:268|192:268,1,99.9999999999999,2|0,0:0|0:0,0:0:0:0:
132,260,12070,2,0,P|88:280|20:276,2,99.9999999999999,2|2|0,0:0|0:0|0:0,0:0:0:0:
176,148,13070,1,2,0:0:0:0:
100,56,13403,2,0,L|48:48,2,50,2|2|2,0:0|0:0|0:0,0:0:0:0:
216,28,14070,5,2,0:0:0:0:
216,28,14236,2,0,P|268:28|316:20,1,99.9999999999999,2|0,0:0|0:0,0:0:0:0:
356,64,14736,2,0,P|405:63|455:71,2,99.9999999999999,2|2|2,0:0|0:0|0:0,0:0:0:0:
272,148,15736,1,2,0:0:0:0:
360,232,16070,2,0,B|396:288|372:328|372:328|320:344,1,150,10|0,0:0|0:0,0:0:0:0:
268,324,16736,6,0,P|216:312|164:316,1,99.9999999999999,4|10,0:0|0:0,0:0:0:0:
52,344,17403,2,0,L|72:240,1,99.9999999999999,2|10,0:0|0:0,0:0:0:0:
116,136,18070,2,0,L|96:32,2,99.9999999999999,2|10|2,0:0|0:0|0:0,0:0:0:0:
180,240,19070,1,10,0:0:0:0:
256,148,19403,6,0,P|304:136|356:140,1,99.9999999999999,2|10,0:0|0:0,0:0:0:0:
316,252,20070,2,0,P|350:287|372:334,1,99.9999999999999,2|10,0:0|0:0,0:0:0:0:
256,356,20736,1,2,0:0:0:0:
136,328,21070,1,10,0:0:0:0:
126,208,21403,1,8,0:3:0:0:
238,161,21736,1,10,0:0:0:0:
316,250,22070,6,0,P|368:252|416:240,1,99.9999999999999,6|2,0:0|0:0,0:0:0:0:
496,152,22736,2,0,L|504:48,1,99.9999999999999,2|2,0:0|0:0,0:0:0:0:
396,4,23403,2,0,L|388:108,2,99.9999999999999,2|2|2,0:0|0:0|0:0,0:0:0:0:
284,48,24403,1,2,0:0:0:0:
176,100,24736,6,0,P|124:92|76:100,1,99.9999999999999,2|2,0:0|0:0,0:0:0:0:
8,196,25403,2,0,L|28:296,1,99.9999999999999,2|2,0:0|0:0,0:0:0:0:
132,232,26070,2,0,L|152:332,1,99.9999999999999,2|2,0:0|0:0,0:0:0:0:
268,356,26736,1,2,0:0:0:0:
388,380,27070,1,2,0:0:0:0:
340,272,27403,6,0,P|332:220|340:172,1,99.9999999999999,2|2,0:0|0:0,0:0:0:0:
408,76,28070,2,0,L|308:56,1,99.9999999999999,2|2,0:0|0:0,0:0:0:0:
224,140,28736,2,0,L|124:120,2,99.9999999999999,2|2|2,0:0|0:0|0:0,0:0:0:0:
340,172,29736,1,2,0:0:0:0:
252,256,30070,6,0,P|248:312|264:352,1,99.9999999999999,2|2,0:0|0:0,0:0:0:0:
352,268,30736,2,0,P|357:218|340:172,1,99.9999999999999,2|2,0:0|0:0,0:0:0:0:
296,132,31236,1,8,3:2:0:0:
296,132,32736,6,0,P|240:132|200:116,1,99.9999999999999,6|10,0:0|0:0,0:0:0:0:
104,40,33403,2,0,L|92:140,1,99.9999999999999,2|10,0:0|0:0,0:0:0:0:
76,260,34070,1,2,0:0:0:0:
160,348,34403,1,10,0:0:0:0:
256,276,34736,2,0,P|300:248|348:244,1,99.9999999999999,2|10,0:0|0:0,0:0:0:0:
464,276,35403,6,0,L|492:376,2,99.9999999999999,2|10|2,0:0|0:0|0:0,0:0:0:0:
432,160,36403,1,10,0:0:0:0:
396,44,36736,2,0,P|348:56|300:44,1,99.9999999999999,2|10,0:0|0:0,0:0:0:0:
204,116,37403,2,0,P|156:104|108:116,1,99.9999999999999,2|10,0:0|0:0,0:0:0:0:
156,224,38070,6,0,L|268:204,2,99.9999999999999,2|10|2,0:0|0:0|0:0,0:0:0:0:
40,252,39070,1,10,0:0:0:0:
124,340,39403,2,0,P|176:340|220:324,1,99.9999999999999,2|10,0:0|0:0,0:0:0:0:
336,360,40070,2,0,P|382:343|432:343,1,99.9999999999999,2|10,0:0|0:0,0:0:0:0:
508,252,40736,6,0,P|512:204|496:152,1,99.9999999999999,2|10,0:0|0:0,0:0:0:0:
396,220,41403,2,0,L|296:212,1,99.9999999999999,2|8,0:0|0:0,0:0:0:0:
256,256,41903,2,0,L|156:264,1,99.9999999999999,6|2,0:0|0:0,0:0:0:0:
108,224,42403,1,12,0:0:0:0:
68,112,42736,1,8,0:0:0:0:
144,20,43070,1,4,0:3:0:0:
180,136,43403,6,0,P|256:156|324:136,1,150,6|2,0:0|0:0,0:0:0:0:
376,108,44070,2,0,P|364:156|364:208,1,99.9999999999999,8|0,0:0|0:0,0:0:0:0:
426,308,44736,2,0,P|451:309|485:319,2,50,2|8|0,0:0|0:0|0:0,0:0:0:0:
307,304,45403,2,0,P|255:296|160:349,1,150,8|0,0:0|0:0,0:0:0:0:
132,384,46070,6,0,P|100:324|112:244,1,150,4|2,0:0|0:0,0:0:0:0:
152,201,46736,2,0,P|165:151|147:104,1,99.9999999999999,8|0,0:0|0:0,0:0:0:0:
58,27,47403,2,0,L|6:35,2,50,2|8|0,0:0|0:3|0:0,0:0:0:0:
178,32,48070,2,0,P|251:61|322:41,1,150,8|0,0:0|0:0,0:0:0:0:
368,12,48736,6,0,L|356:164,1,150,6|2,0:0|0:0,0:0:0:0:
352,220,49403,1,8,0:0:0:0:
336,340,49736,2,0,P|288:324|240:324,1,99.9999999999999,0|2,0:0|0:0,0:0:0:0:
184,348,50236,2,0,L|200:228,1,99.9999999999999,8|2,0:0|0:0,0:0:0:0:
208,188,50736,1,8,0:0:0:0:
228,68,51070,1,0,0:0:0:0:
320,144,51403,6,0,P|368:136|420:140,2,99.9999999999999,6|0|8,0:0|0:0|0:0,0:0:0:0:
208,188,52403,1,0,0:0:0:0:
116,264,52736,2,0,L|80:168,1,99.9999999999999,8|8,0:0|0:0,0:0:0:0:
84,52,53403,6,0,P|176:80|264:36,1,200,8|6,0:0|0:0,0:0:0:0:
380,68,54403,1,8,0:0:0:0:
304,160,54736,2,0,L|316:260,1,99.9999999999999,2|8,0:0|0:0,0:0:0:0:
404,340,55403,2,0,P|456:324|504:328,2,99.9999999999999,2|8|2,0:0|0:0|0:0,0:0:0:0:
288,376,56403,1,8,0:0:0:0:
176,332,56736,6,0,P|144:284|136:236,1,99.9999999999999,2|8,0:0|0:0,0:0:0:0:
172,128,57403,1,2,0:0:0:0:
256,40,57736,1,8,0:0:0:0:
340,128,58070,2,0,P|348:176|336:228,1,99.9999999999999,12|8,0:0|0:0,0:0:0:0:
256,312,58736,2,0,L|256:212,2,99.9999999999999,8|8|4,0:0|0:0|0:0,0:0:0:0:
256,312,60070,5,8,0:0:0:0:
256,72,60736,1,8,0:0:0:0:
256,312,61403,2,0,L|256:228,2,74.9999999999999,8|8|8,0:3|0:3|0:3,0:0:0:0:
256,372,62070,6,0,P|216:348|164:340,1,99.9999999999999,4|0,0:0|0:0,0:0:0:0:
48,368,62736,2,0,L|68:268,1,99.9999999999999,8|8,0:0|0:0,0:0:0:0:
80,212,63236,1,2,0:3:0:0:
80,212,64736,6,0,P|128:224|176:212,1,99.9999999999999,6|10,0:0|0:0,0:0:0:0:
256,124,65403,2,0,P|304:111|352:123,1,99.9999999999999,2|10,0:0|0:0,0:0:0:0:
436,208,66070,2,0,L|448:308,2,99.9999999999999,2|10|2,0:0|0:0|0:0,0:0:0:0:
336,272,67070,1,10,0:0:0:0:
236,340,67403,6,0,P|216:280|224:228,2,99.9999999999999,2|10|2,0:0|0:0|0:0,0:0:0:0:
336,272,68403,1,10,0:0:0:0:
300,160,68736,2,0,P|256:136|208:128,1,99.9999999999999,2|10,0:0|0:0,0:0:0:0:
88,148,69403,1,2,0:0:0:0:
28,252,69736,1,10,0:0:0:0:
56,368,70070,6,0,L|156:356,1,99.9999999999999,6|10,0:0|0:0,0:0:0:0:
256,288,70736,2,0,L|356:300,1,99.9999999999999,2|10,0:0|0:0,0:0:0:0:
468,344,71403,2,0,P|460:292|468:244,1,99.9999999999999,2|10,0:0|0:0,0:0:0:0:
512,132,72070,2,0,P|464:148|412:144,1,99.9999999999999,2|10,0:0|0:0,0:0:0:0:
316,76,72736,5,2,0:0:0:0:
296,196,73070,1,10,0:0:0:0:
272,312,73403,2,0,P|230:285|180:272,1,99.9999999999999,2|10,0:0|0:0,0:0:0:0:
64,296,74070,1,6,0:0:0:0:
4,192,74403,1,10,0:0:0:0:
72,96,74736,2,0,P|120:80|168:84,1,99.9999999999999,10|10,0:0|0:0,0:0:0:0:
256,168,75403,6,0,P|305:172|352:156,1,99.9999999999999,6|10,0:0|0:0,0:0:0:0:
452,88,76070,2,0,L|444:188,1,99.9999999999999,2|10,0:0|0:0,0:0:0:0:
364,276,76736,2,0,L|372:376,2,99.9999999999999,2|8|2,0:0|0:0|0:0,0:0:0:0:
352,156,77736,1,10,0:0:0:0:
260,232,78070,6,0,P|208:232|160:220,1,99.9999999999999,2|8,0:0|0:0,0:0:0:0:
60,156,78736,1,2,0:0:0:0:
116,48,79070,1,8,0:0:0:0:
224,104,79403,2,0,P|272:88|312:60,1,99.9999999999999,2|10,0:0|0:0,0:0:0:0:
416,116,80070,2,0,P|426:66|421:17,1,99.9999999999999,2|10,0:0|0:0,0:0:0:0:
312,60,80736,6,0,L|320:160,1,99.9999999999999,6|8,0:0|0:0,0:0:0:0:
376,268,81403,1,2,0:0:0:0:
276,332,81736,2,0,P|228:320|176:320,1,99.9999999999999,10|2,0:0|0:0,0:0:0:0:
84,244,82403,2,0,L|68:132,2,99.9999999999999,8|2|10,0:0|0:0|0:0,0:0:0:0:
168,160,83403,5,2,0:0:0:0:
256,76,83736,1,8,0:0:0:0:
344,160,84070,1,2,0:0:0:0:
428,244,84403,1,10,0:0:0:0:
312,276,84736,6,0,P|260:248|240:200,2,99.9999999999999,10|10|12,0:0|0:0|0:0,0:0:0:0:
344,160,85736,1,2,0:0:0:0:
256,76,86070,2,0,B|156:64|156:64|108:84,2,150,6|12|12,0:0|0:0|0:0,0:0:0:0:
256,192,87236,12,0,88903,0:0:0:0:
