osu file format v14

[General]
AudioFilename: majikai.mp3
AudioLeadIn: 0
PreviewTime: 63653
Countdown: 0
SampleSet: Soft
StackLeniency: 0.7
Mode: 0
LetterboxInBreaks: 0
WidescreenStoryboard: 0

[Editor]
DistanceSpacing: 1.5
BeatDivisor: 4
GridSize: 4
TimelineZoom: 2.1

[Metadata]
Title:Ai no Scenario
TitleUnicode:アイのシナリオ
Artist:CHiCO with HoneyWorks
ArtistUnicode:CHiCO with HoneyWorks
Creator:litoluna
Version:Light Insane
Source:まじっく快斗1412
Tags:Magic Kaito opening
BeatmapID:652660
BeatmapSetID:269103

[Difficulty]
HPDrainRate:5
CircleSize:4
OverallDifficulty:6.5
ApproachRate:8.5
SliderMultiplier:1.6
SliderTickRate:2

[Events]
//Background and Video events
0,0,"magic.jpg",0,0
//Break Periods
//Storyboard Layer 0 (Background)
//Storyboard Layer 1 (Fail)
//Storyboard Layer 2 (Pass)
//Storyboard Layer 3 (Foreground)
//Storyboard Sound Samples

[TimingPoints]
737,333.333333333333,4,2,1,60,1,0
9736,-200,4,2,1,60,0,0
9820,-200,4,2,1,20,0,0
10903,-200,4,2,1,40,0,0
11070,-100,4,2,1,60,0,0
11403,-100,4,2,2,60,0,0
16070,-100,4,2,1,60,0,0
16736,-100,4,2,1,70,0,0
22070,-100,4,2,1,60,0,0
31570,-100,4,2,1,50,0,0
31653,-100,4,2,1,20,0,0
31736,-100,4,2,1,55,0,0
31820,-100,4,2,1,20,0,0
31903,-100,4,2,1,60,0,0
31986,-100,4,2,1,20,0,0
32070,-100,4,2,1,60,0,0
43403,-125,4,2,1,50,0,0
52736,-100,4,2,1,60,0,0
59403,-100,4,2,1,40,0,0
60070,-100,4,2,2,45,0,0
60736,-100,4,2,2,50,0,0
61403,-100,4,2,1,60,0,0
62070,-100,4,2,1,70,0,0
63736,-100,4,2,1,50,0,0
64736,-100,4,2,1,80,0,1
86236,-100,4,2,1,80,0,0
88903,-100,4,2,1,20,0,0

[Colours]
Combo1 : 153,0,0
Combo2 : 0,99,147
Combo3 : 234,234,0

[HitObjects]
77,318,737,6,0,P|148:281|224:291,1,160,6|2,0:0|0:0,0:0:0:0:
306,340,1236,1,0,0:0:0:0:
374,271,1403,2,0,P|381:230|375:189,1,80,2|0,0:0|0:0,0:0:0:0:
318,115,1736,1,2,0:0:0:0:
179,203,1903,6,0,P|220:201|263:189,1,80,0|2,0:0|0:0,0:0:0:0:
396,104,2236,2,0,P|356:105|318:116,1,80,0|2,0:0|0:0,0:0:0:0:
375,271,2570,2,0,P|389:229|387:192,1,80,0|2,0:0|0:0,0:0:0:0:
226,112,2903,2,0,L|64:98,1,160,0|0,0:0|0:0,0:0:0:0:
76,289,3403,6,0,P|151:275|179:203,2,160,2|2|2,0:0|0:0|0:0,0:0:0:0:
7,221,4236,2,0,P|10:181|28:144,1,80,0|2,0:0|0:0,0:0:0:0:
181,205,4570,6,0,P|225:199|260:189,1,80,0|2,0:0|0:0,0:0:0:0:
351,160,4903,1,0,0:0:0:0:
433,209,5070,1,2,0:0:0:0:
333,371,5236,2,0,P|320:328|323:282,1,80,0|0,0:0|0:0,0:0:0:0:
433,209,5570,2,0,P|431:260|414:292,1,80,12|2,0:0|0:0,0:0:0:0:
257,186,5903,1,8,0:0:0:0:
257,186,5986,1,0,0:0:0:0:
257,186,6070,6,0,P|236:109|260:35,1,160,6|2,0:0|0:0,0:0:0:0:
365,104,6570,2,0,L|454:96,1,80,0|2,0:0|0:0,0:0:0:0:
511,214,6903,2,0,P|473:216|422:206,1,80,0|2,0:0|0:0,0:0:0:0:
365,103,7236,6,0,L|382:266,1,160
464,371,7736,2,0,P|469:329|455:283,2,80,2|0|2,0:0|0:0|0:0,0:0:0:0:
329,336,8236,2,0,P|249:311|170:319,1,160,0|0,0:0|0:0,0:0:0:0:
77,353,8736,5,12,0:0:0:0:
36,213,8903,1,2,0:0:0:0:
36,213,9070,1,2,0:0:0:0:
77,353,9236,5,12,0:0:0:0:
191,229,9403,1,2,0:0:0:0:
191,229,9570,1,2,0:0:0:0:
330,336,9736,6,0,P|438:325|450:178,1,280,4|2,0:0|0:3,0:0:0:0:
431,160,10986,1,0,0:0:0:0:
408,149,11070,2,0,L|243:129,1,160,2|2,0:3|0:0,0:0:0:0:
144,90,11570,6,0,P|123:50|122:7,1,80,2|0,0:0|0:0,0:0:0:0:
217,28,11903,1,2,0:0:0:0:
174,174,12070,2,0,L|85:163,1,80,2|0,0:0|0:0,0:0:0:0:
28,88,12403,1,2,0:0:0:0:
143,252,12570,6,0,P|184:254|226:240,1,80,2|0,0:0|0:0,0:0:0:0:
309,161,12903,2,0,L|318:243,1,80,2|2,0:0|0:0,0:0:0:0:
403,325,13236,1,0,0:0:0:0:
403,325,13320,1,0,0:0:0:0:
403,325,13403,2,0,L|411:240,2,80,2|2|2,0:0|0:0|0:0,0:0:0:0:
312,378,13903,1,2,0:0:0:0:
212,328,14070,6,0,P|173:311|129:306,1,80,2|2,0:0|0:0,0:0:0:0:
41,342,14403,1,0,0:0:0:0:
100,201,14570,2,0,L|93:120,2,80,2|2|0,0:0|0:0|0:0,0:0:0:0:
211,327,15070,2,0,P|252:326|288:309,1,80,2|2,0:0|0:0,0:0:0:0:
358,213,15403,5,2,0:0:0:0:
394,328,15570,1,2,0:0:0:0:
276,233,15736,1,2,0:0:0:0:
435,255,15903,1,2,0:0:0:0:
292,145,16070,2,0,P|283:99|292:63,1,80,10|2,0:0|0:0,0:0:0:0:
312,43,16320,1,2,0:0:0:0:
341,29,16403,2,0,P|360:27|388:29,3,40,8|0|0|0,0:0|0:0|0:0|0:0,0:0:0:0:
438,96,16736,6,0,L|422:183,1,80,4|0,0:0|0:0,0:0:0:0:
353,253,17070,2,0,P|309:251|270:226,1,80,10|0,0:0|0:0,0:0:0:0:
185,123,17403,1,2,0:0:0:0:
194,238,17570,2,0,L|199:324,1,80,0|10,0:0|0:0,0:0:0:0:
353,253,17903,6,0,P|374:178|351:97,1,160
185,123,18403,2,0,L|98:110,1,80,10|0,0:0|0:0,0:0:0:0:
194,239,18736,2,0,L|304:222,1,80,2|0,0:0|0:0,0:0:0:0:
134,361,19070,2,0,P|115:321|112:279,1,80,10|0,0:0|0:0,0:0:0:0:
186,123,19403,6,0,P|197:79|190:43,1,80,2|0,0:0|0:0,0:0:0:0:
91,81,19736,1,10,0:0:0:0:
91,81,19903,1,0,0:0:0:0:
78,232,20070,2,0,L|70:317,2,80,2|0|10,0:0|0:0|0:0,0:0:0:0:
185,124,20570,6,0,P|258:90|334:107,1,160,0|0,0:0|0:0,0:0:0:0:
391,193,21070,2,0,L|372:274,1,80,10|0,0:0|0:0,0:0:0:0:
284,326,21403,1,8,0:3:0:0:
131,274,21570,1,2,0:0:0:0:
125,245,21653,1,0,0:0:0:0:
123,217,21736,1,10,0:0:0:0:
118,189,21820,1,0,0:0:0:0:
114,161,21903,1,2,0:0:0:0:
110,133,21986,1,0,0:0:0:0:
106,105,22070,6,0,P|146:104|182:88,1,80,6|0,0:0|0:0,0:0:0:0:
258,27,22403,2,0,P|297:17|337:18,1,80,2|0,0:0|0:0,0:0:0:0:
437,122,22736,1,2,0:0:0:0:
474,212,22903,1,0,0:0:0:0:
379,197,23070,2,0,P|336:189|294:192,1,80,2|0,0:0|0:0,0:0:0:0:
176,283,23403,6,0,P|138:297|90:297,2,80,2|0|2,0:0|0:0|0:0,0:0:0:0:
206,191,23903,1,0,0:0:0:0:
116,79,24070,2,0,P|109:120|116:162,1,80,2|0,0:0|0:0,0:0:0:0:
253,258,24403,2,0,L|334:246,1,80,2|0,0:0|0:0,0:0:0:0:
437,154,24736,6,0,P|406:122|389:78,1,80,2|0,0:0|0:0,0:0:0:0:
486,67,25070,1,2,0:0:0:0:
486,67,25236,1,0,0:0:0:0:
335,162,25403,2,0,L|253:157,1,80,2|0,0:0|0:0,0:0:0:0:
105,238,25736,2,0,P|146:232|180:209,1,80,2|0,0:0|0:0,0:0:0:0:
233,68,26070,6,0,L|66:48,2,160,2|2|2,0:0|0:0|0:0,0:0:0:0:
337,162,26903,1,0,0:0:0:0:
281,286,27070,2,0,P|268:246|270:189,1,80,2|0,0:0|0:0,0:0:0:0:
337,162,27403,5,2,0:0:0:0:
404,233,27570,1,0,0:0:0:0:
424,139,27736,2,0,L|424:51,1,80,2|0,0:0|0:0,0:0:0:0:
337,0,28070,1,2,0:0:0:0:
238,92,28236,2,0,P|280:96|317:81,2,80,0|2|0,0:0|0:0|0:0,0:0:0:0:
120,24,28736,6,0,L|142:185,1,160,2|2,0:0|0:0,0:0:0:0:
210,262,29236,1,0,0:0:0:0:
350,184,29403,2,0,P|309:173|272:179,1,80,2|0,0:0|0:0,0:0:0:0:
248,339,29736,2,0,P|280:313|294:263,1,80,2|0,0:0|0:0,0:0:0:0:
197,180,30070,6,0,L|100:165,1,80,2|0,0:0|0:0,0:0:0:0:
38,113,30403,1,2,0:0:0:0:
57,240,30570,1,0,0:0:0:0:
160,97,30736,2,0,P|201:88|242:99,2,80,2|0|2,0:0|0:0|0:0,0:0:0:0:
57,240,31236,1,8,3:2:0:0:
57,240,31570,6,0,L|51:151,2,80
139,339,32070,1,8,0:0:0:0:
164,350,32153,1,0,0:0:0:0:
191,354,32236,1,8,0:0:0:0:
218,346,32320,1,0,0:0:0:0:
240,329,32403,1,8,0:0:0:0:
263,316,32486,1,0,0:0:0:0:
290,311,32570,1,8,0:0:0:0:
317,311,32653,1,0,0:0:0:0:
344,320,32736,6,0,P|379:331|425:330,1,80,6|0,0:0|0:0,0:0:0:0:
496,256,33070,2,0,L|474:170,1,80,10|0,0:0|0:0,0:0:0:0:
377,85,33403,1,2,0:0:0:0:
377,85,33570,1,0,0:0:0:0:
298,154,33736,2,0,P|254:154|206:141,1,80,10|0,0:0|0:0,0:0:0:0:
123,56,34070,5,2,0:0:0:0:
79,141,34236,2,0,L|72:227,1,80,0|10,0:0|0:0,0:0:0:0:
60,316,34570,1,0,0:0:0:0:
182,241,34736,2,0,P|224:230|266:235,1,80,2|0,0:0|0:0,0:0:0:0:
411,312,35070,2,0,P|367:308|337:289,1,80,10|0,0:0|0:0,0:0:0:0:
256,166,35403,6,0,L|265:329,2,160,2|10|2,0:0|0:0|0:0,0:0:0:0:
318,64,36236,1,0,0:0:0:0:
431,154,36403,2,0,P|385:158|344:145,1,80,10|0,0:0|0:0,0:0:0:0:
219,77,36736,6,0,P|176:68|135:73,1,80,2|0,0:0|0:0,0:0:0:0:
74,140,37070,2,0,L|81:224,1,80,10|0,0:0|0:0,0:0:0:0:
105,314,37403,1,2,0:0:0:0:
195,222,37570,2,0,P|234:211|274:215,2,80,0|10|0,0:0|0:0|0:0,0:0:0:0:
242,325,38070,6,0,L|329:316,1,80,2|0,0:0|0:0,0:0:0:0:
397,259,38403,1,10,0:0:0:0:
343,180,38570,2,0,P|336:141|337:94,1,80,0|2,0:0|0:0,0:0:0:0:
444,31,38903,2,0,P|456:65|456:111,2,80,0|10|0,0:0|0:0|0:0,0:0:0:0:
336,101,39403,6,0,L|254:97,1,80,2|0,0:0|0:0,0:0:0:0:
166,67,39736,1,10,0:0:0:0:
235,176,39903,2,0,P|260:249|231:325,1,160,0|0,0:0|0:0,0:0:0:0:
97,290,40403,2,0,P|141:275|189:278,1,80,10|0,0:0|0:0,0:0:0:0:
314,354,40736,6,0,P|354:355|395:337,1,80,2|0,0:0|0:0,0:0:0:0:
370,171,41070,1,10,0:0:0:0:
342,271,41236,1,0,0:0:0:0:
443,244,41403,1,2,0:0:0:0:
276,190,41570,2,0,P|256:147|256:115,1,80,8|8,0:3|0:0,0:0:0:0:
343,10,41903,6,0,P|349:49|339:91,2,80,6|0|2,0:0|0:0|0:0,0:0:0:0:
212,55,42403,2,0,P|173:69|135:66,1,80,12|0,0:0|0:0,0:0:0:0:
110,52,42653,1,0,0:0:0:0:
110,52,42736,1,8,0:0:0:0:
83,185,42903,1,8,0:3:0:0:
34,93,43070,1,4,0:3:0:0:
39,260,43236,1,4,0:3:0:0:
176,179,43403,6,0,L|189:32,2,128,6|0|8,0:0|0:0|0:0,0:0:0:0:
169,287,44236,2,0,P|226:257|317:261,1,128,0|0,0:0|0:0,0:0:0:0:
399,307,44736,1,2,0:0:0:0:
399,307,44903,1,8,0:0:0:0:
341,383,45070,2,0,P|312:351|305:319,1,64,0|2,0:0|0:0,0:0:0:0:
358,213,45403,1,8,0:0:0:0:
358,213,45570,2,0,P|373:149|359:83,1,128,0|0,0:0|0:0,0:0:0:0:
258,153,46070,6,0,P|194:172|132:153,2,128,4|0|8,0:0|0:0|0:0,0:0:0:0:
310,32,47070,1,0,0:0:0:0:
310,32,47236,2,0,L|305:115,1,64,0|2,0:0|0:0,0:0:0:0:
294,237,47570,6,0,P|353:215|414:233,1,128,8|2,0:3|0:0,0:0:0:0:
444,316,48070,2,0,P|478:321|525:310,2,64,8|8|8,0:0|0:3|0:3,0:0:0:0:
332,344,48570,1,2,0:0:0:0:
294,236,48736,6,0,P|299:203|294:171,1,64,6|0,0:0|0:0,0:0:0:0:
246,104,49070,1,0,0:0:0:0:
181,183,49236,2,0,L|113:177,2,64,2|8|0,0:0|0:0|0:0,0:0:0:0:
294,236,49736,2,0,P|362:246|422:215,1,128,0|2,0:0|0:0,0:0:0:0:
337,97,50236,2,0,L|209:76,1,128,8|2,0:0|0:0,0:0:0:0:
53,136,50736,2,0,L|118:126,1,64,8|0,0:0|0:0,0:0:0:0:
215,224,51070,2,0,L|150:214,1,64,0|0,0:0|0:0,0:0:0:0:
55,327,51403,6,0,L|208:309,1,128,6|0,0:0|0:0,0:0:0:0:
274,341,51903,1,2,0:0:0:0:
354,270,52070,2,0,P|360:237|357:201,1,64,8|0,0:0|0:0,0:0:0:0:
262,132,52403,2,0,P|256:99|259:63,1,64,0|0,0:0|0:0,0:0:0:0:
454,112,52736,6,0,P|414:113|375:101,1,80,8|2,0:0|0:0,0:0:0:0:
353,86,52986,1,2,0:0:0:0:
353,86,53070,1,8,0:0:0:0:
354,270,53236,1,2,0:0:0:0:
354,270,53403,1,8,0:0:0:0:
213,364,53570,1,8,0:0:0:0:
193,371,53653,1,0,0:0:0:0:
173,375,53736,1,8,0:0:0:0:
152,375,53820,1,0,0:0:0:0:
130,371,53903,1,8,0:0:0:0:
112,365,53986,1,0,0:0:0:0:
92,357,54070,6,0,L|106:268,1,80,6|2,0:0|0:0,0:0:0:0:
258,168,54403,1,8,0:0:0:0:
224,267,54570,1,0,0:0:0:0:
224,267,54653,1,8,0:0:0:0:
224,267,54736,2,0,P|268:271|310:265,1,80,2|2,0:0|0:0,0:0:0:0:
407,124,55070,2,0,L|391:212,1,80,8|0,0:0|0:0,0:0:0:0:
355,351,55403,5,2,0:0:0:0:
355,351,55570,1,2,0:0:0:0:
452,296,55736,1,8,0:0:0:0:
317,177,55903,1,0,0:0:0:0:
317,177,55986,1,8,0:0:0:0:
317,177,56070,2,0,P|309:134|314:88,1,80,2|2,0:0|0:0,0:0:0:0:
387,26,56403,1,8,0:0:0:0:
486,130,56570,1,8,0:0:0:0:
486,130,56653,1,0,0:0:0:0:
486,130,56736,6,0,L|464:207,1,80,2|2,0:0|0:0,0:0:0:0:
375,277,57070,2,0,P|335:273|292:252,1,80,8|0,0:0|0:0,0:0:0:0:
279,237,57320,1,8,0:0:0:0:
279,237,57403,1,2,0:0:0:0:
265,110,57570,1,2,0:0:0:0:
265,110,57736,1,8,0:0:0:0:
187,179,57903,6,0,L|95:173,1,80,2|12,0:0|0:0,0:0:0:0:
215,38,58236,2,0,P|292:30|350:83,1,160,8|8,0:0|0:0,0:0:0:0:
351,210,58736,2,0,L|333:296,1,80,8|8,0:0|0:0,0:0:0:0:
231,373,59070,2,0,L|214:294,1,80,8|0,0:0|0:0,0:0:0:0:
187,178,59403,5,4,0:0:0:0:
187,178,59736,1,0,0:0:0:0:
398,63,60070,5,8,0:0:0:0:
398,63,60403,1,0,0:0:0:0:
114,219,60736,5,8,0:0:0:0:
114,219,61070,1,0,0:0:0:0:
398,63,61403,6,0,P|417:116|398:181,2,120,8|8|8,0:3|0:3|0:3,0:0:0:0:
294,123,62070,6,0,P|220:141|124:105,2,160,4|0|8,0:0|0:0|0:0,0:0:0:0:
398,63,62903,1,8,0:0:0:0:
400,176,63070,1,8,0:0:0:0:
405,288,63236,1,2,0:3:0:0:
405,288,63736,5,0,0:0:0:0:
400,176,64070,1,0,0:0:0:0:
398,63,64403,1,0,0:0:0:0:
321,238,64736,6,0,P|257:283|180:265,1,160,6|10,0:0|0:0,0:0:0:0:
117,183,65236,1,0,0:0:0:0:
167,91,65403,2,0,L|257:82,1,80,2|0,0:0|0:0,0:0:0:0:
343,44,65736,1,10,0:0:0:0:
480,183,65903,6,0,P|439:184|394:175,1,80,0|2,0:0|0:0,0:0:0:0:
318,115,66236,1,0,0:0:0:0:
352,255,66403,1,10,0:0:0:0:
219,197,66570,1,0,0:0:0:0:
219,197,66653,1,0,0:0:0:0:
219,197,66736,2,0,P|178:188|136:193,1,80,2|0,0:0|0:0,0:0:0:0:
59,259,67070,1,10,0:0:0:0:
59,259,67236,1,0,0:0:0:0:
214,346,67403,6,0,P|257:352|298:334,1,80,2|0,0:0|0:0,0:0:0:0:
352,255,67736,2,0,L|370:170,1,80,10|0,0:0|0:0,0:0:0:0:
321,57,68070,1,2,0:0:0:0:
230,108,68236,2,0,P|261:142|296:154,1,80,0|10,0:0|0:0,0:0:0:0:
468,113,68570,6,0,P|425:101|382:105,1,80,0|2,0:0|0:0,0:0:0:0:
274,230,68903,2,0,P|231:242|188:238,1,80,0|10,0:0|0:0,0:0:0:0:
97,96,69236,2,0,L|110:197,1,80,0|2,0:0|0:0,0:0:0:0:
127,311,69570,1,0,0:0:0:0:
226,160,69736,2,0,P|232:119|215:72,1,80,10|0,0:0|0:0,0:0:0:0:
275,230,70070,6,0,P|319:238|351:226,1,80,6|0,0:0|0:0,0:0:0:0:
423,151,70403,1,10,0:0:0:0:
486,235,70570,2,0,L|479:318,1,80,0|2,0:0|0:0,0:0:0:0:
398,374,70903,1,0,0:0:0:0:
398,374,71070,1,10,0:0:0:0:
252,310,71236,1,0,0:0:0:0:
252,310,71320,1,0,0:0:0:0:
252,310,71403,6,0,P|207:300|168:300,1,80,2|0,0:0|0:0,0:0:0:0:
82,350,71736,1,10,0:0:0:0:
135,225,71903,2,0,P|141:182|134:133,1,80,0|2,0:0|0:0,0:0:0:0:
56,80,72236,1,0,0:0:0:0:
185,37,72403,2,0,L|278:34,1,80,10|0,0:0|0:0,0:0:0:0:
370,175,72736,6,0,P|335:144|315:111,1,80,2|0,0:0|0:0,0:0:0:0:
454,39,73070,2,0,L|449:127,1,80,10|0,0:0|0:0,0:0:0:0:
422,254,73403,2,0,P|381:268|335:264,1,80,2|0,0:0|0:0,0:0:0:0:
254,187,73736,1,10,0:0:0:0:
281,328,73903,1,0,0:0:0:0:
370,173,74070,6,0,L|377:80,1,80,6|0,0:0|0:0,0:0:0:0:
297,25,74403,1,10,0:0:0:0:
181,82,74570,1,8,0:0:0:0:
181,82,74653,1,0,0:0:0:0:
181,82,74736,1,10,0:0:0:0:
255,186,74903,1,8,0:0:0:0:
265,211,74986,1,0,0:0:0:0:
274,237,75070,1,10,0:0:0:0:
272,264,75153,1,0,0:0:0:0:
264,290,75236,1,8,0:0:0:0:
245,311,75320,1,0,0:0:0:0:
221,326,75403,6,0,P|183:330|130:315,1,80,6|2,0:0|0:0,0:0:0:0:
95,161,75736,2,0,P|135:144|177:145,1,80,10|0,0:0|0:0,0:0:0:0:
334,192,76070,2,0,P|292:194|249:184,1,80,2|0,0:0|0:0,0:0:0:0:
296,90,76403,1,10,0:0:0:0:
417,155,76570,6,0,P|420:199|407:249,1,80,0|2,0:0|0:0,0:0:0:0:
326,317,76903,2,0,P|284:309|241:309,1,80,2|8,0:0|0:0,0:0:0:0:
161,214,77236,1,0,0:0:0:0:
161,214,77320,1,0,0:0:0:0:
161,214,77403,2,0,P|176:171|176:136,1,80,2|0,0:0|0:0,0:0:0:0:
28,75,77736,2,0,L|120:64,1,80,10|0,0:0|0:0,0:0:0:0:
261,30,78070,5,2,0:0:0:0:
261,30,78236,1,2,0:0:0:0:
318,118,78403,2,0,P|361:127|404:118,1,80,8|0,0:0|0:0,0:0:0:0:
486,67,78736,1,2,0:0:0:0:
423,230,78903,2,0,L|344:222,1,80,0|8,0:0|0:0,0:0:0:0:
171,288,79236,6,0,P|217:288|257:270,1,80,0|2,0:0|0:0,0:0:0:0:
270,174,79570,1,2,0:0:0:0:
202,96,79736,1,10,0:0:0:0:
50,169,79903,2,0,P|95:182|140:180,1,80,0|2,0:0|0:0,0:0:0:0:
249,301,80236,2,0,P|204:288|159:290,1,80,0|10,0:0|0:0,0:0:0:0:
81,341,80570,1,0,0:0:0:0:
285,375,80736,6,0,P|327:373|363:363,1,80,6|2,0:0|0:0,0:0:0:0:
424,277,81070,1,8,0:0:0:0:
323,123,81236,1,0,0:0:0:0:
323,123,81320,1,0,0:0:0:0:
323,123,81403,2,0,P|313:175|319:209,1,80,2|0,0:0|0:0,0:0:0:0:
416,170,81736,1,10,0:0:0:0:
329,309,81903,6,0,P|284:310|249:301,1,80,0|2,0:0|0:0,0:0:0:0:
178,227,82236,1,2,0:0:0:0:
267,65,82403,2,0,L|259:157,1,80,8|0,0:0|0:0,0:0:0:0:
178,227,82736,1,2,0:0:0:0:
114,132,82903,2,0,P|68:123|30:126,2,80,0|10|0,0:0|0:0|0:0,0:0:0:0:
260,243,83403,6,0,L|341:234,1,80,2|2,0:0|0:0,0:0:0:0:
410,158,83736,1,8,0:0:0:0:
287,319,83903,2,0,P|240:320|203:301,1,80,0|2,0:0|0:0,0:0:0:0:
196,147,84236,1,0,0:0:0:0:
277,37,84403,2,0,P|288:81|277:124,1,80,10|0,0:0|0:0,0:0:0:0:
177,228,84736,5,10,0:0:0:0:
205,227,84820,1,0,0:0:0:0:
232,226,84903,1,8,0:0:0:0:
259,222,84986,1,0,0:0:0:0:
287,220,85070,2,0,L|344:215,3,40,10|0|2|0,0:0|0:0|0:0|0:0,0:0:0:0:
354,212,85403,6,0,P|365:172|354:128,1,80,12|8,0:0|0:0,0:0:0:0:
345,109,85653,1,8,0:0:0:0:
335,82,85736,2,0,P|338:60|339:28,2,40,8|0|8,0:0|0:0|0:0,0:0:0:0:
229,141,86070,6,0,L|125:119,2,80,6|2|2,0:0|0:0|0:0,0:0:0:0:
354,212,86570,2,0,L|338:300,1,80,12|2,0:0|0:0,0:0:0:0:
260,356,86903,1,2,0:0:0:0:
126,218,87070,1,12,0:0:0:0:
256,192,87153,12,0,88903,0:0:0:0:
