osu file format v14

[General]
AudioFilename: majikai.mp3
AudioLeadIn: 0
PreviewTime: 63653
Countdown: 0
SampleSet: Soft
StackLeniency: 0.7
Mode: 0
LetterboxInBreaks: 0
WidescreenStoryboard: 0

[Editor]
DistanceSpacing: 1.4
BeatDivisor: 4
GridSize: 4
TimelineZoom: 2.1

[Metadata]
Title:Ai no Scenario
TitleUnicode:アイのシナリオ
Artist:CHiCO with HoneyWorks
ArtistUnicode:CHiCO with HoneyWorks
Creator:litoluna
Version:Insane
Source:まじっく快斗1412
Tags:Magic Kaito opening
BeatmapID:612655
BeatmapSetID:269103

[Difficulty]
HPDrainRate:6
CircleSize:4
OverallDifficulty:7
ApproachRate:9
SliderMultiplier:1.7
SliderTickRate:2

[Events]
//Background and Video events
0,0,"magic.jpg",0,0
//Break Periods
//Storyboard Layer 0 (Background)
//Storyboard Layer 1 (Fail)
//Storyboard Layer 2 (Pass)
//Storyboard Layer 3 (Foreground)
//Storyboard Sound Samples

[TimingPoints]
737,333.333333333333,4,2,1,60,1,0
9736,-200,4,2,1,60,0,0
9820,-200,4,2,1,20,0,0
10903,-200,4,2,1,40,0,0
11070,-100,4,2,1,60,0,0
11403,-100,4,2,2,60,0,0
16070,-100,4,2,1,60,0,0
16736,-100,4,2,1,70,0,0
22070,-100,4,2,1,60,0,0
31570,-100,4,2,1,50,0,0
31653,-100,4,2,1,20,0,0
31736,-100,4,2,1,55,0,0
31820,-100,4,2,1,20,0,0
31903,-100,4,2,1,60,0,0
31986,-100,4,2,1,20,0,0
32070,-100,4,2,1,60,0,0
43403,-125,4,2,1,50,0,0
52736,-100,4,2,1,60,0,0
59403,-100,4,2,1,40,0,0
60070,-100,4,2,2,45,0,0
60736,-100,4,2,2,50,0,0
61403,-100,4,2,1,60,0,0
62070,-100,4,2,1,70,0,0
63736,-100,4,2,1,50,0,0
64736,-100,4,2,1,80,0,1
86236,-100,4,2,1,80,0,0
88903,-100,4,2,1,20,0,0

[Colours]
Combo1 : 153,0,0
Combo2 : 0,99,147
Combo3 : 234,234,0

[HitObjects]
92,141,737,6,0,P|105:182|91:266,1,127.5,6|0,0:0|0:0,0:0:0:0:
79,295,1070,2,0,L|173:270,1,85,2|0,0:0|0:0,0:0:0:0:
311,157,1403,2,0,P|268:161|231:185,1,85,2|0,0:0|0:0,0:0:0:0:
305,268,1736,1,2,0:0:0:0:
436,190,1903,6,0,P|439:138|430:106,1,85,0|2,0:0|0:0,0:0:0:0:
248,68,2236,1,0,0:0:0:0:
311,157,2403,1,2,0:0:0:0:
432,108,2570,2,0,P|443:62|439:20,1,85,0|2,0:0|0:0,0:0:0:0:
211,142,2903,2,0,P|167:154|110:166,2,85,0|2|0,0:0|0:0|0:0,0:0:0:0:
340,78,3403,6,0,P|311:156|339:239,2,170,2|2|2,0:0|0:0|0:0,0:0:0:0:
211,142,4236,2,0,P|167:154|110:166,1,85,0|2,0:0|0:0,0:0:0:0:
14,277,4570,6,0,P|17:227|31:196,1,85,0|2,0:0|0:0,0:0:0:0:
211,142,4903,1,0,0:0:0:0:
114,258,5070,1,2,0:0:0:0:
64,116,5236,2,0,P|56:72|64:27,1,85
286,122,5570,2,0,P|279:173|259:203,1,85,12|2,0:0|0:0,0:0:0:0:
74,318,5903,1,8,0:0:0:0:
74,318,5986,1,0,0:0:0:0:
74,318,6070,6,0,L|247:291,1,170,6|2,0:0|0:0,0:0:0:0:
419,340,6570,2,0,P|375:341|334:325,1,85,0|2,0:0|0:0,0:0:0:0:
287,228,6903,1,0,0:0:0:0:
277,377,7070,1,2,0:0:0:0:
391,263,7236,6,0,P|407:220|406:178,1,85,0|2,0:0|0:0,0:0:0:0:
354,83,7570,1,0,0:0:0:0:
165,176,7736,2,0,L|257:165,1,85,2|0,0:0|0:0,0:0:0:0:
354,83,8070,1,2,0:0:0:0:
236,203,8236,2,0,L|151:213,2,85,0|2|0,0:0|0:0|0:0,0:0:0:0:
406,181,8736,5,12,0:0:0:0:
354,83,8903,1,2,0:0:0:0:
329,260,9070,1,2,0:0:0:0:
406,181,9236,5,12,0:0:0:0:
246,103,9403,1,2,0:0:0:0:
329,260,9570,1,2,0:0:0:0:
286,25,9736,6,0,B|211:12|163:51|163:120|163:120|201:178|156:235,1,297.5,4|2,0:0|0:3,0:0:0:0:
99,285,10986,1,0,0:0:0:0:
77,302,11070,2,0,L|217:286,1,127.5,2|0,0:3|0:0,0:0:0:0:
254,277,11403,5,2,0:0:0:0:
359,348,11570,2,0,P|380:308|381:265,1,85,2|0,0:0|0:0,0:0:0:0:
247,102,11903,1,2,0:0:0:0:
119,197,12070,2,0,L|208:186,1,85,2|0,0:0|0:0,0:0:0:0:
349,89,12403,1,2,0:0:0:0:
327,244,12570,6,0,P|308:203|307:164,1,85,2|0,0:0|0:0,0:0:0:0:
434,78,12903,2,0,L|345:89,1,85,2|2,0:0|0:0,0:0:0:0:
148,115,13236,1,0,0:0:0:0:
130,118,13320,1,0,0:0:0:0:
110,121,13403,2,0,L|139:38,2,85,2|2|0,0:0|0:0|0:0,0:0:0:0:
68,223,13903,1,2,0:0:0:0:
34,328,14070,6,0,P|73:311|117:306,1,85,2|2,0:0|0:0,0:0:0:0:
211,247,14403,1,0,0:0:0:0:
337,349,14570,2,0,P|369:311|375:267,1,85,2|2,0:0|0:0,0:0:0:0:
341,137,14903,1,0,0:0:0:0:
211,247,15070,2,0,P|179:209|173:165,1,85,2|2,0:0|0:0,0:0:0:0:
223,40,15403,5,2,0:0:0:0:
341,137,15570,1,2,0:0:0:0:
299,284,15736,1,2,0:0:0:0:
317,48,15903,1,2,0:0:0:0:
132,190,16070,2,0,P|123:144|132:108,1,85,10|2,0:0|0:0,0:0:0:0:
158,79,16320,1,2,0:0:0:0:
223,119,16403,2,0,L|270:116,1,42.5,8|0,0:0|0:0,0:0:0:0:
389,55,16570,2,0,L|342:52,1,42.5
305,199,16736,6,0,L|299:289,1,85,4|0,0:0|0:0,0:0:0:0:
180,351,17070,2,0,P|134:347|99:322,1,85,10|0,0:0|0:0,0:0:0:0:
106,160,17403,1,2,0:0:0:0:
213,215,17570,2,0,P|193:255|155:276,1,85,0|10,0:0|0:0,0:0:0:0:
0,158,17903,6,0,L|87:145,1,85,0|2,0:0|0:0,0:0:0:0:
222,61,18236,1,0,0:0:0:0:
409,142,18403,2,0,L|322:129,1,85,10|0,0:0|0:0,0:0:0:0:
137,21,18736,2,0,P|129:62|138:103,1,85,2|0,0:0|0:0,0:0:0:0:
302,209,19070,2,0,P|321:169|324:127,1,85,10|0,0:0|0:0,0:0:0:0:
195,276,19403,6,0,L|110:288,1,85,2|0,0:0|0:0,0:0:0:0:
339,321,19736,1,10,0:0:0:0:
231,271,19903,1,0,0:0:0:0:
399,239,20070,2,0,L|483:226,2,85,2|0|10,0:0|0:0|0:0,0:0:0:0:
213,176,20570,6,0,P|195:135|199:92,1,85,0|2,0:0|0:0,0:0:0:0:
295,25,20903,1,0,0:0:0:0:
436,118,21070,2,0,L|347:108,1,85,10|0,0:0|0:0,0:0:0:0:
218,25,21403,1,8,0:3:0:0:
85,157,21570,1,2,0:0:0:0:
78,190,21653,1,0,0:0:0:0:
75,223,21736,1,10,0:0:0:0:
71,257,21820,1,0,0:0:0:0:
66,290,21903,1,2,0:0:0:0:
61,323,21986,1,0,0:0:0:0:
56,356,22070,6,0,P|98:341|140:334,1,85,6|0,0:0|0:0,0:0:0:0:
281,353,22403,2,0,P|307:321|314:279,1,85,2|0,0:0|0:0,0:0:0:0:
223,121,22736,1,2,0:0:0:0:
207,230,22903,1,0,0:0:0:0:
396,180,23070,2,0,P|353:172|311:175,1,85,2|0,0:0|0:0,0:0:0:0:
207,229,23403,6,0,L|121:243,2,85,2|0|2,0:0|0:0|0:0,0:0:0:0:
149,333,23903,1,0,0:0:0:0:
36,229,24070,2,0,P|29:183|36:145,1,85,2|0,0:0|0:0,0:0:0:0:
143,20,24403,2,0,L|135:106,1,85,2|0,0:0|0:0,0:0:0:0:
123,242,24736,6,0,P|160:233|207:229,1,85,2|0,0:0|0:0,0:0:0:0:
369,282,25070,1,2,0:0:0:0:
280,346,25236,1,0,0:0:0:0:
248,160,25403,2,0,P|242:116|249:71,1,85,2|0,0:0|0:0,0:0:0:0:
421,132,25736,2,0,P|375:131|331:119,1,85,2|0,0:0|0:0,0:0:0:0:
204,16,26070,5,2,0:0:0:0:
101,90,26236,1,0,0:0:0:0:
290,57,26403,2,0,P|330:52|377:51,1,85,2|0,0:0|0:0,0:0:0:0:
226,167,26736,2,0,P|182:167|136:159,1,85,2|0,0:0|0:0,0:0:0:0:
30,54,27070,2,0,L|41:151,1,85,2|0,0:0|0:0,0:0:0:0:
67,332,27403,5,2,0:0:0:0:
124,237,27570,1,0,0:0:0:0:
265,345,27736,2,0,P|222:348|172:335,1,85,2|0,0:0|0:0,0:0:0:0:
38,247,28070,1,2,0:0:0:0:
226,167,28236,2,0,L|311:163,1,85,0|2,0:0|0:0,0:0:0:0:
410,213,28570,1,0,0:0:0:0:
344,360,28736,6,0,P|334:309|341:275,2,85,2|0|0,0:0|0:0|0:0,0:0:0:0:
241,320,29236,2,0,P|197:311|156:312,1,85,0|2,0:0|0:0,0:0:0:0:
46,374,29570,1,0,0:0:0:0:
125,238,29736,2,0,P|131:193|131:154,1,85,2|0,0:0|0:0,0:0:0:0:
14,79,30070,6,0,P|57:79|99:70,1,85,2|0,0:0|0:0,0:0:0:0:
240,12,30403,1,2,0:0:0:0:
203,134,30570,1,0,0:0:0:0:
353,56,30736,2,0,P|394:47|436:47,2,85,2|0|2,0:0|0:0|0:0,0:0:0:0:
173,58,31236,1,8,3:2:0:0:
173,58,31570,6,0,L|170:101,1,42.5
150,93,31736,2,0,L|147:136,1,42.5
126,129,31903,2,0,L|123:172,1,42.5
110,293,32070,5,8,0:0:0:0:
141,279,32153,1,0,0:0:0:0:
174,275,32236,1,8,0:0:0:0:
206,285,32320,1,0,0:0:0:0:
233,305,32403,1,8,0:0:0:0:
262,321,32486,1,0,0:0:0:0:
295,327,32570,1,4,0:3:0:0:
328,327,32653,1,0,0:0:0:0:
360,316,32736,6,0,P|392:291|411:252,1,85,6|0,0:0|0:0,0:0:0:0:
373,111,33070,2,0,L|285:91,1,85,10|0,0:0|0:0,0:0:0:0:
104,33,33403,1,2,0:0:0:0:
166,134,33570,1,0,0:0:0:0:
75,277,33736,2,0,P|68:235|86:179,1,85,10|0,0:0|0:0,0:0:0:0:
191,51,34070,5,2,0:0:0:0:
247,155,34236,2,0,L|240:241,1,85,0|10,0:0|0:0,0:0:0:0:
159,350,34570,1,0,0:0:0:0:
301,295,34736,2,0,P|344:288|385:291,1,85,2|0,0:0|0:0,0:0:0:0:
139,361,35070,2,0,P|121:319|125:276,1,85,10|0,0:0|0:0,0:0:0:0:
247,155,35403,5,2,0:0:0:0:
234,274,35570,1,0,0:0:0:0:
101,185,35736,2,0,P|57:174|9:177,1,85,10|0,0:0|0:0,0:0:0:0:
45,310,36070,1,2,0:0:0:0:
139,201,36236,1,0,0:0:0:0:
61,99,36403,2,0,P|52:61|56:12,1,85,10|0,0:0|0:0,0:0:0:0:
174,131,36736,6,0,P|215:128|264:121,1,85,2|0,0:0|0:0,0:0:0:0:
429,110,37070,2,0,P|391:90|349:82,1,85,10|0,0:0|0:0,0:0:0:0:
260,198,37403,1,2,0:0:0:0:
297,347,37570,1,0,0:0:0:0:
379,228,37736,1,10,0:0:0:0:
304,381,37903,1,0,0:0:0:0:
168,278,38070,6,0,P|145:242|140:199,1,85,2|0,0:0|0:0,0:0:0:0:
200,32,38403,1,10,0:0:0:0:
341,112,38570,2,0,P|297:110|254:101,1,85,0|2,0:0|0:0,0:0:0:0:
116,23,38903,2,0,L|127:109,2,85,0|10|0,0:0|0:0|0:0,0:0:0:0:
16,150,39403,6,0,P|12:192|20:236,1,85,2|0,0:0|0:0,0:0:0:0:
100,311,39736,1,10,0:0:0:0:
230,226,39903,2,0,L|316:218,1,85,0|2,0:0|0:0,0:0:0:0:
464,355,40236,1,0,0:0:0:0:
359,299,40403,1,10,0:0:0:0:
274,384,40570,1,0,0:0:0:0:
433,277,40736,6,0,P|445:236|443:183,1,85,2|0,0:0|0:0,0:0:0:0:
319,54,41070,1,10,0:0:0:0:
337,163,41236,1,0,0:0:0:0:
459,85,41403,1,2,0:0:0:0:
236,136,41570,2,0,P|212:92|208:52,1,85,8|8,0:3|0:0,0:0:0:0:
287,256,41903,6,0,L|272:341,1,85,6|0,0:0|0:0,0:0:0:0:
113,369,42236,1,2,0:0:0:0:
17,288,42403,2,0,P|55:274|98:277,1,85,12|0,0:0|0:0,0:0:0:0:
184,317,42653,2,0,L|191:275,1,42.5,0|8,0:0|0:0,0:0:0:0:
236,135,42903,1,8,0:3:0:0:
287,257,43070,1,4,0:3:0:0:
117,153,43236,1,4,0:3:0:0:
314,270,43403,6,0,P|346:275|382:269,1,68,6|0,0:0|0:0,0:0:0:0:
452,196,43736,2,0,L|461:124,1,68,0|2,0:0|0:0,0:0:0:0:
402,19,44070,1,8,0:0:0:0:
320,79,44236,2,0,P|285:80|250:74,1,68,0|0,0:0|0:0,0:0:0:0:
94,117,44570,6,0,P|127:111|161:112,1,68,0|2,0:0|0:0,0:0:0:0:
260,197,44903,1,8,0:0:0:0:
204,274,45070,2,0,P|175:242|168:210,1,68,0|2,0:0|0:0,0:0:0:0:
260,197,45403,1,8,0:0:0:0:
300,320,45570,2,0,P|294:354|278:385,2,68,0|0|0,0:0|0:0|0:0,0:0:0:0:
260,196,46070,6,0,P|241:132|259:66,1,136,4|0,0:0|0:0,0:0:0:0:
348,35,46570,1,2,0:0:0:0:
449,145,46736,2,0,P|414:142|373:133,1,68,8|0,0:0|0:0,0:0:0:0:
258,67,47070,1,0,0:0:0:0:
171,132,47236,2,0,L|159:214,1,68,0|2,0:0|0:0,0:0:0:0:
100,305,47570,6,0,P|167:292|236:300,1,136,8|2,0:3|0:0,0:0:0:0:
358,335,48070,2,0,L|439:329,2,68,8|8|8,0:0|0:3|0:3,0:0:0:0:
267,382,48570,1,0,0:0:0:0:
309,254,48736,6,0,P|317:207|311:166,1,68,6|0,0:0|0:0,0:0:0:0:
271,102,49070,1,0,0:0:0:0:
197,207,49236,2,0,L|121:199,1,68,2|8,0:0|0:0,0:0:0:0:
17,210,49570,2,0,P|21:240|40:272,2,68,0|0|0,0:0|0:0|0:0,0:0:0:0:
76,128,50070,6,0,L|152:120,1,68,2|8,0:0|0:0,0:0:0:0:
271,102,50403,1,0,0:0:0:0:
323,220,50570,1,2,0:0:0:0:
235,283,50736,2,0,P|223:249|221:207,1,68,8|0,0:0|0:0,0:0:0:0:
265,35,51070,2,0,P|272:68|271:102,1,68
108,147,51403,6,0,P|144:143|184:143,1,68,6|0,0:0|0:0,0:0:0:0:
323,220,51736,2,0,P|356:219|390:215,1,68,0|2,0:0|0:0,0:0:0:0:
511,103,52070,2,0,P|477:102|443:98,1,68,8|0,0:0|0:0,0:0:0:0:
266,35,52403,1,0,0:0:0:0:
349,134,52570,1,0,0:0:0:0:
199,247,52736,6,0,L|105:242,1,85,8|2,0:0|0:0,0:0:0:0:
71,239,52986,1,2,0:0:0:0:
71,239,53070,1,8,0:0:0:0:
154,357,53236,1,2,0:0:0:0:
308,254,53403,1,8,0:0:0:0:
138,173,53570,1,8,0:0:0:0:
118,156,53653,1,0,0:0:0:0:
101,136,53736,1,8,0:0:0:0:
89,112,53820,1,0,0:0:0:0:
81,86,53903,1,8,0:0:0:0:
76,61,53986,1,0,0:0:0:0:
74,35,54070,6,0,L|171:26,1,85,6|2,0:0|0:0,0:0:0:0:
277,10,54403,1,8,0:0:0:0:
220,154,54570,1,0,0:0:0:0:
220,154,54653,1,8,0:0:0:0:
220,154,54736,2,0,P|216:198|222:240,1,85,2|2,0:0|0:0,0:0:0:0:
404,314,55070,2,0,P|360:304|316:304,1,85,8|0,0:0|0:0,0:0:0:0:
205,340,55320,6,0,L|162:334,1,42.5,8|2,0:0|0:0,0:0:0:0:
16,234,55570,1,2,0:0:0:0:
59,344,55736,1,8,0:0:0:0:
138,174,55903,1,0,0:0:0:0:
138,174,55986,1,8,0:0:0:0:
138,174,56070,1,2,0:0:0:0:
241,262,56236,2,0,P|286:262|326:254,1,85,2|8,0:0|0:0,0:0:0:0:
436,123,56570,1,8,0:0:0:0:
436,123,56653,1,0,0:0:0:0:
436,123,56736,6,0,L|424:214,1,85,2|2,0:0|0:0,0:0:0:0:
307,122,57070,2,0,P|268:97|227:88,1,85,8|0,0:0|0:0,0:0:0:0:
91,109,57320,2,0,L|139:99,1,42.5,8|2,0:0|0:0,0:0:0:0:
231,182,57570,1,2,0:0:0:0:
133,287,57736,1,8,0:0:0:0:
262,353,57903,6,0,L|346:344,1,85,2|12,0:0|0:0,0:0:0:0:
511,277,58236,2,0,L|427:268,1,85,8|8,0:0|0:0,0:0:0:0:
231,182,58570,1,8,0:0:0:0:
319,274,58736,2,0,P|347:235|356:191,1,85,8|8,0:0|0:0,0:0:0:0:
289,16,59070,1,8,0:0:0:0:
231,182,59236,1,0,0:0:0:0:
402,103,59403,5,4,0:0:0:0:
201,68,59736,1,0,0:0:0:0:
402,103,60070,5,8,0:0:0:0:
238,75,60403,1,0,0:0:0:0:
402,103,60736,5,8,0:0:0:0:
277,83,61070,1,0,0:0:0:0:
402,103,61403,5,8,0:3:0:0:
266,288,61653,5,8,0:3:0:0:
201,68,61903,5,8,0:3:0:0:
347,230,62070,6,0,P|424:257|497:208,2,170,4|0|8,0:0|0:0|0:0,0:0:0:0:
201,68,62903,1,8,0:0:0:0:
190,178,63070,1,8,0:0:0:0:
178,287,63236,1,2,0:3:0:0:
178,287,63736,5,0,0:0:0:0:
190,178,64070,1,0,0:0:0:0:
201,68,64403,1,0,0:0:0:0:
263,247,64736,6,0,P|307:250|349:230,1,85,6|0,0:0|0:0,0:0:0:0:
437,84,65070,2,0,L|426:170,1,85,10|0,0:0|0:0,0:0:0:0:
407,277,65403,1,2,0:0:0:0:
291,174,65570,2,0,P|283:132|291:90,1,85,0|10,0:0|0:0,0:0:0:0:
306,328,65903,6,0,P|265:327|220:320,1,85,0|2,0:0|0:0,0:0:0:0:
37,354,66236,1,0,0:0:0:0:
127,290,66403,1,10,0:0:0:0:
63,170,66570,1,0,0:0:0:0:
63,170,66653,1,0,0:0:0:0:
63,170,66736,2,0,P|52:128|63:82,1,85,2|0,0:0|0:0,0:0:0:0:
151,23,67070,1,10,0:0:0:0:
225,146,67236,2,0,L|209:194,1,42.5
168,278,67403,6,0,P|206:267|252:266,1,85,2|0,0:0|0:0,0:0:0:0:
371,347,67736,2,0,P|397:313|402:263,1,85,10|0,0:0|0:0,0:0:0:0:
318,91,68070,1,2,0:0:0:0:
225,147,68236,2,0,P|256:181|294:198,1,85,0|10,0:0|0:0,0:0:0:0:
446,76,68570,6,0,L|360:68,1,85,0|2,0:0|0:0,0:0:0:0:
152,24,68903,1,0,0:0:0:0:
225,148,69070,1,10,0:0:0:0:
87,237,69236,2,0,P|68:197|70:143,1,85,0|2,0:0|0:0,0:0:0:0:
240,56,69570,1,0,0:0:0:0:
200,256,69736,2,0,P|182:302|152:335,1,85,10|0,0:0|0:0,0:0:0:0:
142,156,70070,6,0,L|230:147,1,85,6|0,0:0|0:0,0:0:0:0:
372,77,70403,1,10,0:0:0:0:
344,184,70570,2,0,P|340:230|344:283,1,85,0|2,0:0|0:0,0:0:0:0:
463,364,70903,1,0,0:0:0:0:
354,298,71070,1,10,0:0:0:0:
223,376,71236,1,0,0:0:0:0:
223,376,71320,1,0,0:0:0:0:
223,376,71403,6,0,L|136:355,1,85,2|0,0:0|0:0,0:0:0:0:
37,243,71736,1,10,0:0:0:0:
121,169,71903,2,0,P|127:126|120:77,1,85,0|2,0:0|0:0,0:0:0:0:
20,127,72236,1,0,0:0:0:0:
121,253,72403,2,0,P|166:251|215:253,1,85,10|0,0:0|0:0,0:0:0:0:
354,298,72736,6,0,P|319:267|299:234,1,85,2|0,0:0|0:0,0:0:0:0:
259,59,73070,2,0,L|255:155,1,85,10|0,0:0|0:0,0:0:0:0:
173,329,73403,2,0,P|132:343|86:339,1,85,2|0,0:0|0:0,0:0:0:0:
36,243,73736,1,10,0:0:0:0:
92,91,73903,1,0,0:0:0:0:
172,191,74070,6,0,P|219:191|268:184,1,85,6|0,0:0|0:0,0:0:0:0:
420,94,74403,1,10,0:0:0:0:
462,259,74570,1,8,0:0:0:0:
471,277,74653,1,0,0:0:0:0:
485,292,74736,1,10,0:0:0:0:
323,267,74903,5,8,0:0:0:0:
290,258,74986,1,0,0:0:0:0:
255,258,75070,1,10,0:0:0:0:
223,269,75153,1,0,0:0:0:0:
190,278,75236,1,8,0:0:0:0:
155,276,75320,1,0,0:0:0:0:
123,264,75403,5,6,0:0:0:0:
19,108,75570,1,2,0:0:0:0:
172,191,75736,2,0,P|227:175|297:172,1,127.5,10|0,0:0|0:0,0:0:0:0:
455,212,76070,2,0,P|413:214|370:204,1,85,2|0,0:0|0:0,0:0:0:0:
275,75,76403,1,10,0:0:0:0:
373,24,76570,6,0,P|385:72|379:111,1,85,0|2,0:0|0:0,0:0:0:0:
199,108,76903,2,0,P|161:108|114:100,1,85,2|8,0:0|0:0,0:0:0:0:
32,269,77236,1,0,0:0:0:0:
32,269,77320,1,0,0:0:0:0:
32,269,77403,2,0,P|82:259|133:253,1,85,2|0,0:0|0:0,0:0:0:0:
297,329,77736,2,0,P|260:311|222:273,1,85,10|0,0:0|0:0,0:0:0:0:
198,108,78070,5,2,0:0:0:0:
182,218,78236,1,2,0:0:0:0:
311,108,78403,2,0,P|352:102|402:108,1,85,8|0,0:0|0:0,0:0:0:0:
475,248,78736,1,2,0:0:0:0:
382,337,78903,2,0,L|271:327,1,85,0|8,0:0|0:0,0:0:0:0:
108,331,79236,6,0,P|154:331|194:313,1,85,0|2,0:0|0:0,0:0:0:0:
262,179,79570,1,2,0:0:0:0:
299,328,79736,1,10,0:0:0:0:
130,248,79903,2,0,P|117:203|119:158,1,85,0|2,0:0|0:0,0:0:0:0:
249,44,80236,1,0,0:0:0:0:
262,180,80403,1,10,0:0:0:0:
138,76,80570,1,0,0:0:0:0:
289,199,80736,6,0,L|379:199,1,85,6|2,0:0|0:0,0:0:0:0:
464,133,81070,1,8,0:0:0:0:
341,28,81236,1,0,0:0:0:0:
341,28,81320,1,0,0:0:0:0:
341,28,81403,2,0,P|331:80|337:114,1,85,2|0,0:0|0:0,0:0:0:0:
458,217,81736,1,10,0:0:0:0:
327,281,81903,6,0,P|282:282|231:268,1,85,0|2,0:0|0:0,0:0:0:0:
175,186,82236,1,2,0:0:0:0:
264,41,82403,2,0,L|256:133,1,85,8|0,0:0|0:0,0:0:0:0:
243,272,82736,1,2,0:0:0:0:
147,168,82903,2,0,P|101:159|63:162,2,85,0|10|0,0:0|0:0|0:0,0:0:0:0:
328,282,83403,6,0,P|362:255|378:217,1,85,2|2,0:0|0:0,0:0:0:0:
375,64,83736,1,8,0:0:0:0:
232,169,83903,2,0,L|139:168,1,85,0|2,0:0|0:0,0:0:0:0:
40,71,84236,1,0,0:0:0:0:
104,170,84403,1,10,0:0:0:0:
48,326,84570,1,0,0:0:0:0:
198,281,84736,5,10,0:0:0:0:
231,275,84820,1,0,0:0:0:0:
264,268,84903,1,8,0:0:0:0:
297,262,84986,1,0,0:0:0:0:
330,252,85070,2,0,L|377:241,1,42.5,10|0,0:0|0:0,0:0:0:0:
495,212,85236,2,0,L|448:201,1,42.5,2|0,0:0|0:0,0:0:0:0:
334,150,85403,6,0,P|326:110|334:66,1,85,12|8,0:0|0:0,0:0:0:0:
356,38,85653,1,8,0:0:0:0:
386,22,85736,2,0,L|434:17,2,42.5,8|0|8,0:0|0:0|0:0,0:0:0:0:
269,181,86070,6,0,P|232:204|189:225,1,85,6|2,0:0|0:0,0:0:0:0:
81,149,86403,1,2,0:0:0:0:
224,2,86570,6,0,P|249:36|263:75,1,85,12|2,0:0|0:0,0:0:0:0:
196,224,86903,1,2,0:0:0:0:
356,38,87070,5,12,0:0:0:0:
256,192,87153,12,0,88903,0:0:0:0:
