osu file format v14

[General]
AudioFilename: PV.mp3
AudioLeadIn: 1500
PreviewTime: 63436
Countdown: 0
SampleSet: Soft
StackLeniency: 0.7
Mode: 0
LetterboxInBreaks: 0
WidescreenStoryboard: 0

[Editor]
Bookmarks: 59186,84686,84853,85019,85186,85353,85519,85686,88532
DistanceSpacing: 1.6
BeatDivisor: 4
GridSize: 4
TimelineZoom: 2.899999

[Metadata]
Title:Ai no Scenario
TitleUnicode:アイのシナリオ
Artist:CHiCO with HoneyWorks
ArtistUnicode:CHiCO with HoneyWorks
Creator:Tenseki
Version:Insane
Source:まじっく快斗1412
Tags:Magic Kaito 1412 tv size opening A-1 Pictures Inc jieusieu Doyak
BeatmapID:624823
BeatmapSetID:275461

[Difficulty]
HPDrainRate:7
CircleSize:4
OverallDifficulty:7
ApproachRate:9
SliderMultiplier:1.64
SliderTickRate:2

[Events]
//Background and Video events
0,0,"BG.png",0,0
//Break Periods
//Storyboard Layer 0 (Background)
//Storyboard Layer 1 (Fail)
//Storyboard Layer 2 (Pass)
//Storyboard Layer 3 (Foreground)
//Storyboard Sound Samples

[TimingPoints]
520,333.333333333333,4,2,1,50,1,0
5186,-100,4,2,2,50,0,0
5269,-100,4,2,1,50,0,0
5353,-100,4,2,1,60,0,0
5853,-100,4,2,1,40,0,0
6519,-100,4,2,1,45,0,0
7186,-100,4,2,1,50,0,0
9519,-125,4,2,1,55,0,0
10769,-125,4,2,2,40,0,0
10936,-125,4,2,1,50,0,0
11186,-133.333333333333,4,2,1,55,0,0
13186,-133.333333333333,4,2,1,50,0,0
13853,-133.333333333333,4,2,1,40,0,0
15853,-100,4,2,1,70,0,0
16519,-100,4,2,1,60,0,0
21353,-100,4,2,1,40,0,0
21686,-100,4,2,1,60,0,0
21853,-100,4,2,1,50,0,0
23519,-100,4,2,2,50,0,0
23603,-100,4,2,1,50,0,0
32519,-100,4,2,1,60,0,0
34519,-100,4,2,2,60,0,0
34603,-100,4,2,1,60,0,0
41686,-100,4,2,1,40,0,0
42186,-100,4,2,1,50,0,0
42519,-100,4,2,1,60,0,0
43186,-125,4,2,1,50,0,0
44519,-125,4,2,2,50,0,0
44603,-125,4,2,1,50,0,0
50519,-100,4,2,1,50,0,0
53353,-100,4,2,1,40,0,0
53686,-100,4,2,1,50,0,0
53853,-100,4,2,1,60,0,0
57853,-100,4,2,1,40,0,0
58186,-100,4,2,1,50,0,0
58519,-100,4,2,1,60,0,0
58853,-100,4,2,1,70,0,0
59186,-100,4,2,1,40,0,0
59853,-133.333333333333,4,2,0,35,0,0
60519,-133.333333333333,4,2,1,30,0,0
61186,-133.333333333333,4,2,1,60,0,0
61853,-100,4,2,1,60,0,0
62853,-100,4,2,1,70,0,0
63519,-100,4,2,1,40,0,0
64519,-90.9090909090909,4,2,1,60,0,1
69353,-90.9090909090909,4,2,1,40,0,1
69686,-90.9090909090909,4,2,1,50,0,1
69853,-90.9090909090909,4,2,1,60,0,1
74686,-90.9090909090909,4,2,1,50,0,1
74853,-90.9090909090909,4,2,1,60,0,1
75019,-90.9090909090909,4,2,1,70,0,1
80019,-90.9090909090909,4,2,1,40,0,1
80353,-90.9090909090909,4,2,1,50,0,1
80519,-90.9090909090909,4,2,1,60,0,1
84686,-90.9090909090909,4,2,1,40,0,1
84853,-90.9090909090909,4,2,1,50,0,1
85019,-90.9090909090909,4,2,1,60,0,1
85186,-90.9090909090909,4,2,1,50,0,1
85353,-90.9090909090909,4,2,1,40,0,1
85519,-90.9090909090909,4,2,1,60,0,1
85686,-90.9090909090909,4,2,1,70,0,1
85853,-90.9090909090909,4,2,1,60,0,0
86853,-133.333333333333,4,2,1,60,0,0
88519,-133.333333333333,4,2,1,20,0,0

[Colours]
Combo1 : 153,0,0
Combo2 : 0,99,147
Combo3 : 234,234,0

[HitObjects]
256,191,520,6,0,B|168:151|145:238|145:238|155:254,1,164,4|2,0:0|0:0,0:0:0:0:
268,301,1019,1,0,0:0:0:0:
381,348,1186,2,0,L|462:350,1,82,2|0,0:0|0:0,0:0:0:0:
395,213,1519,1,2,0:0:0:0:
332,68,1686,1,0,0:0:0:0:
212,143,1853,6,0,P|252:149|292:143,1,82,2|0,0:0|0:0,0:0:0:0:
128,52,2186,1,2,0:0:0:0:
104,202,2353,1,0,0:0:0:0:
43,86,2519,2,0,P|33:49|48:7,1,82,2|0,0:0|0:0,0:0:0:0:
160,145,2853,2,0,P|182:180|179:220,1,82,2|0,0:0|0:0,0:0:0:0:
78,291,3186,6,0,P|143:341|238:331,1,164,2|2,0:0|0:0,0:0:0:0:
305,249,3686,1,0,0:0:0:0:
438,125,3853,2,0,P|442:171|426:206,1,82,2|0,0:0|0:0,0:0:0:0:
325,37,4186,1,2,0:0:0:0:
268,146,4353,6,0,P|307:157|359:155,1,82,0|2,0:0|0:0,0:0:0:0:
471,46,4686,1,0,0:0:0:0:
347,156,4853,1,2,0:0:0:0:
466,278,5019,2,0,P|431:263|316:315,1,164,0|8,0:0|0:0,0:0:0:0:
321,306,5519,1,2,0:0:0:0:
104,273,5686,1,8,0:0:0:0:
104,273,5769,1,2,0:0:0:0:
104,273,5853,6,0,P|174:293|228:237,1,123,12|0,0:0|0:0,0:0:0:0:
158,135,6186,2,0,P|151:175|157:216,1,82,2|0,0:0|0:0,0:0:0:0:
272,155,6519,1,2,0:0:0:0:
220,13,6686,1,0,0:0:0:0:
158,135,6853,1,2,0:0:0:0:
327,72,7019,1,0,0:0:0:0:
418,245,7186,6,0,P|417:205|406:166,1,82,2|0,0:0|0:0,0:0:0:0:
313,310,7519,1,2,0:0:0:0:
421,369,7686,1,0,0:0:0:0:
149,320,7853,2,0,L|230:338,1,82,2|0,0:0|0:0,0:0:0:0:
84,227,8186,2,0,P|56:258|42:296,1,82,4|0,0:0|0:0,0:0:0:0:
206,213,8519,5,8,0:0:0:0:
350,98,8686,1,2,0:0:0:0:
230,69,8853,1,2,0:0:0:0:
325,230,9019,5,8,0:0:0:0:
297,47,9186,1,2,0:0:0:0:
212,137,9353,1,2,0:0:0:0:
388,156,9519,6,0,B|444:164|480:124|480:124|428:180|452:256|452:256|392:240|344:248|320:284|316:324|316:324|364:336,1,459.2,4|0,0:0|0:0,0:0:0:0:
376,340,10769,1,2,0:0:0:0:
391,359,10853,2,0,L|272:375,1,98.4,2|0,0:0|0:0,0:0:0:0:
248,364,11186,5,8,0:0:0:0:
222,268,11353,2,0,L|232:190,1,61.5000023460389,2|0,0:0|0:0,0:0:0:0:
364,265,11686,1,0,0:0:0:0:
315,159,11853,2,0,L|325:81,1,61.5000023460389,2|0,0:0|0:0,0:0:0:0:
454,215,12186,1,0,0:0:0:0:
412,76,12353,2,0,L|422:-2,1,61.5000023460389,2|0,0:0|0:0,0:0:0:0:
471,157,12686,5,0,0:0:0:0:
471,157,12853,2,0,P|454:224|472:267,1,92.2500035190584,2|0,0:0|0:0,0:0:0:0:
402,316,13186,2,0,L|329:326,1,61.5000023460389,8|0,0:0|0:0,0:0:0:0:
175,292,13519,2,0,L|248:282,1,61.5000023460389,10|0,0:0|0:0,0:0:0:0:
373,249,13853,5,2,0:0:0:0:
253,215,14019,2,0,L|178:197,1,61.5000023460389,2|0,0:0|0:0,0:0:0:0:
373,249,14353,1,0,0:0:0:0:
299,139,14519,2,0,L|247:81,1,61.5000023460389,2|0,0:0|0:0,0:0:0:0:
373,249,14853,1,0,0:0:0:0:
368,76,15019,2,0,L|368:3,1,61.5000023460389,2|0,0:0|0:0,0:0:0:0:
373,249,15353,5,0,0:0:0:0:
466,161,15519,2,0,P|380:158|354:169,1,92.2500035190584,2|0,0:0|0:0,0:0:0:0:
300,208,15853,6,0,P|286:252|297:291,1,82,8|0,0:0|0:0,0:0:0:0:
167,251,16186,2,0,L|169:169,1,82,10|0,0:0|0:0,0:0:0:0:
254,79,16519,6,0,P|175:43|95:70,1,164,6|8,0:0|0:0,0:0:0:0:
29,171,17019,1,0,0:0:0:0:
96,285,17186,2,0,P|93:328|81:370,1,82,2|0,0:0|0:0,0:0:0:0:
188,260,17519,2,0,P|190:219|201:179,1,82,8|0,0:0|0:0,0:0:0:0:
280,84,17853,6,0,P|366:82|369:83,1,82,2|0,0:0|0:0,0:0:0:0:
397,197,18186,2,0,P|361:242|328:252,1,82,8|0,0:0|0:0,0:0:0:0:
190,216,18519,2,0,P|233:187|276:182,1,82,2|0,0:0|0:0,0:0:0:0:
369,116,18853,2,0,P|373:72|346:20,1,82,8|0,0:0|0:0,0:0:0:0:
252,96,19186,6,8,P|230:159|269:248,1,164,2|8,0:0|0:0,0:0:0:0:
356,161,19686,1,0,0:0:0:0:
233,173,19853,2,0,P|169:179|137:176,1,82,2|0,0:0|0:0,0:0:0:0:
39,125,20186,2,0,P|87:106|106:78,1,82,8|0,0:0|0:0,0:0:0:0:
193,179,20519,6,0,P|193:232|206:267,1,82,2|0,0:0|0:0,0:0:0:0:
303,330,20853,2,0,P|367:281|319:222,1,164,8|2,0:0|0:0,0:0:0:0:
212,283,21353,1,8,3:0:0:0:
212,283,21436,1,8,3:0:0:0:
212,283,21519,2,0,L|158:276,1,41,8|8,0:0|3:0,0:0:0:0:
128,300,21686,2,0,L|79:300,1,41,4|4,3:0|3:0,0:0:0:0:
53,340,21853,6,0,L|143:355,1,82,6|0,0:0|0:0,0:0:0:0:
256,210,22186,2,0,L|159:193,1,82,2|0,0:0|0:0,0:0:0:0:
319,343,22519,1,2,0:0:0:0:
419,224,22686,1,0,0:0:0:0:
336,120,22853,2,0,L|337:201,1,82,2|0,0:0|0:0,0:0:0:0:
477,342,23186,5,2,0:0:0:0:
290,274,23353,2,0,P|368:284|419:224,1,164
223,202,23853,1,2,0:0:0:0:
125,289,24019,1,0,0:0:0:0:
248,335,24186,2,0,L|330:335,1,82,2|0,0:0|0:0,0:0:0:0:
171,218,24519,5,2,0:0:0:0:
46,259,24686,1,0,0:0:0:0:
119,150,24853,2,0,L|124:44,1,82,2|0,0:0|0:0,0:0:0:0:
248,27,25186,1,2,0:0:0:0:
361,94,25353,1,0,0:0:0:0:
288,203,25519,2,0,L|283:309,1,82,2|0,0:0|0:0,0:0:0:0:
394,184,25853,6,0,P|454:116|427:31,1,164,2|2,0:0|0:0,0:0:0:0:
317,95,26353,1,0,0:0:0:0:
466,237,26519,2,0,L|466:325,1,82,2|0,0:0|0:0,0:0:0:0:
346,267,26853,2,0,P|306:242|303:175,1,82,2|0,0:0|0:0,0:0:0:0:
118,118,27186,6,0,L|200:118,1,82,2|0,0:0|0:0,0:0:0:0:
387,55,27519,1,2,0:0:0:0:
278,181,27686,1,0,0:0:0:0:
169,339,27853,2,0,P|168:270|171:258,1,82,2|0,0:0|0:0,0:0:0:0:
237,71,28186,1,2,0:0:0:0:
95,181,28353,1,0,0:0:0:0:
299,279,28519,6,0,P|236:327|165:283,1,164,2|2,0:0|0:0,0:0:0:0:
380,347,29019,1,0,0:0:0:0:
231,247,29186,2,0,L|224:160,1,82,2|0,0:0|0:0,0:0:0:0:
320,84,29519,1,2,0:0:0:0:
224,165,29686,1,0,0:0:0:0:
347,227,29853,6,0,P|421:230|439:221,1,82,2|0,0:0|0:0,0:0:0:0:
417,70,30186,2,0,P|391:101|388:141,1,82,2|0,0:0|0:0,0:0:0:0:
436,333,30519,1,2,0:0:0:0:
436,333,30686,2,0,P|455:297|453:257,1,82,2|0,0:0|0:0,0:0:0:0:
209,297,31019,6,0,P|299:305|348:223,1,164,8|2,0:0|0:0,0:0:0:0:
359,90,31519,1,8,0:0:0:0:
259,220,31686,1,2,0:0:0:0:
100,232,31853,5,8,0:0:0:0:
75,199,31936,1,2,0:0:0:0:
66,159,32019,1,8,0:0:0:0:
73,119,32103,1,2,0:0:0:0:
95,85,32186,1,8,0:0:0:0:
133,101,32269,1,2,0:0:0:0:
173,99,32353,1,8,0:0:0:0:
209,80,32436,1,2,0:0:0:0:
245,58,32519,6,0,P|285:51|325:56,1,82,6|0,0:0|0:0,0:0:0:0:
393,169,32853,2,0,P|346:193|291:180,1,82,8|0,0:0|0:0,0:0:0:0:
187,173,33186,1,2,0:0:0:0:
263,280,33353,1,0,0:0:0:0:
335,114,33519,2,0,P|346:70|393:26,1,82,8|0,0:0|0:0,0:0:0:0:
465,129,33853,5,2,0:0:0:0:
360,208,34019,1,0,0:0:0:0:
252,130,34186,1,8,0:0:0:0:
74,193,34353,2,0,B|136:208|184:173|184:173|165:228,1,164,0|0,0:0|0:0,0:0:0:0:
97,329,34853,1,8,0:0:0:0:
32,268,35019,1,0,0:0:0:0:
225,268,35186,6,0,P|267:278|319:303,1,82,2|0,0:0|0:0,0:0:0:0:
406,374,35519,1,8,0:0:0:0:
312,202,35686,1,0,0:0:0:0:
411,288,35853,1,2,0:0:0:0:
266,265,36019,1,0,0:0:0:0:
446,187,36186,2,0,P|455:93|462:80,1,82,8|0,0:0|0:0,0:0:0:0:
505,237,36519,6,0,P|442:265|370:206,1,164,2|8,0:0|0:0,0:0:0:0:
307,86,37019,1,0,0:0:0:0:
225,187,37186,2,0,P|210:226|213:266,1,82,2|0,0:0|0:0,0:0:0:0:
343,246,37519,2,0,P|358:207|355:167,1,82,8|0,0:0|0:0,0:0:0:0:
225,187,37853,6,0,P|179:199|119:172,1,82,2|0,0:0|0:0,0:0:0:0:
55,107,38186,1,8,0:0:0:0:
159,42,38353,1,0,0:0:0:0:
250,258,38519,2,0,P|285:236|299:199,1,82,2|0,0:0|0:0,0:0:0:0:
136,321,38853,1,8,0:0:0:0:
146,191,39019,1,0,0:0:0:0:
312,240,39186,6,0,B|372:275|435:225|435:225|420:287,1,164,2|8,0:0|0:0,0:0:0:0:
256,302,39686,1,0,0:0:0:0:
365,161,39853,2,0,L|271:161,1,82,2|0,0:0|0:0,0:0:0:0:
153,288,40186,1,8,0:0:0:0:
208,133,40353,5,0,0:0:0:0:
208,133,40436,1,0,0:0:0:0:
208,133,40519,2,0,L|222:49,1,82,2|0,0:0|0:0,0:0:0:0:
380,240,40853,1,8,0:0:0:0:
340,107,41019,1,0,0:0:0:0:
214,249,41186,1,2,0:0:0:0:
122,342,41353,1,8,3:0:0:0:
81,341,41436,1,8,3:0:0:0:
45,328,41519,1,8,0:0:0:0:
17,297,41602,1,2,0:0:0:0:
4,261,41686,6,0,P|41:191|62:94,1,164,6|8,0:0|0:0,0:0:0:0:
185,150,42186,2,0,L|241:229,1,82,6|2,0:0|0:0,0:0:0:0:
257,250,42436,1,0,0:0:0:0:
285,283,42519,5,8,0:0:0:0:
419,118,42686,1,8,0:0:0:0:
296,72,42853,1,8,0:0:0:0:
412,249,43019,1,2,0:0:0:0:
212,177,43186,6,0,P|151:196|88:180,1,131.2,6|0,0:0|0:0,0:0:0:0:
17,70,43686,1,2,0:0:0:0:
88,180,43853,2,0,P|97:211|103:243,1,65.6,8|0,0:0|0:0,0:0:0:0:
56,328,44186,1,0,0:0:0:0:
88,180,44353,6,0,P|146:219|182:278,1,131.2,0|8,0:0|0:0,0:0:0:0:
312,219,44853,2,0,L|247:220,1,65.6,2|2,0:0|0:0,0:0:0:0:
63,277,45186,1,8,0:0:0:0:
125,354,45353,2,0,P|188:365|247:340,1,131.2
391,233,45853,6,0,B|351:241|314:216|262:234,1,131.2,6|0,0:0|0:0,0:0:0:0:
103,270,46353,1,2,0:0:0:0:
186,248,46519,1,8,0:0:0:0:
37,200,46686,2,0,P|18:128|49:71,1,131.2
136,48,47186,5,2,0:0:0:0:
113,141,47353,1,8,0:0:0:0:
266,195,47519,2,0,P|233:192|201:197,1,65.6,8|0,0:0|0:0,0:0:0:0:
127,335,47853,1,8,0:0:0:0:
252,298,48019,1,8,0:0:0:0:
252,298,48103,1,0,0:0:0:0:
252,298,48186,1,8,0:0:0:0:
353,382,48353,2,0,L|398:351,1,32.8,8|0,0:0|0:0,0:0:0:0:
408,338,48519,6,0,P|407:281|343:211,1,131.2,6|0,0:0|0:0,0:0:0:0:
288,319,49019,1,2,0:0:0:0:
499,278,49186,2,0,P|478:214|425:155,1,131.2,8|0,0:0|0:0,0:0:0:0:
349,221,49686,5,0,0:0:0:0:
270,152,49853,2,0,L|259:87,1,65.6,2|8,0:0|0:0,0:0:0:0:
161,209,50186,2,0,L|172:145,1,65.6,0|2,0:0|0:0,0:0:0:0:
220,276,50519,2,0,P|145:300|80:254,1,164,8|0,0:0|0:0,0:0:0:0:
270,152,51019,1,0,0:0:0:0:
280,328,51186,6,0,P|205:352|142:297,1,164,4|0,0:0|0:0,0:0:0:0:
370,234,51686,1,2,0:0:0:0:
238,199,51853,2,0,P|221:236|221:277,1,82,8|0,0:0|0:0,0:0:0:0:
370,234,52186,2,0,P|387:197|387:156,1,82
287,69,52519,5,8,0:0:0:0:
287,69,52603,1,0,0:0:0:0:
287,69,52686,1,2,0:0:0:0:
126,182,52853,1,8,0:0:0:0:
306,260,53019,1,0,0:0:0:0:
189,101,53186,1,8,0:0:0:0:
215,296,53353,1,8,0:0:0:0:
215,296,53436,1,8,0:0:0:0:
215,296,53519,1,8,0:0:0:0:
332,139,53686,1,8,0:0:0:0:
332,139,53769,1,0,0:0:0:0:
332,139,53853,6,0,P|413:138|426:136,1,82,6|2,0:0|0:0,0:0:0:0:
364,15,54186,1,8,0:0:0:0:
254,86,54353,1,2,0:0:0:0:
254,86,54436,2,0,L|230:158,1,41,8|2,0:0|0:0,0:0:0:0:
305,268,54686,2,0,L|306:165,1,82,2|8,0:0|0:0,0:0:0:0:
433,131,55019,1,0,0:0:0:0:
433,131,55186,6,0,L|432:221,1,82,2|2,0:0|0:0,0:0:0:0:
305,268,55519,1,8,0:0:0:0:
99,225,55686,1,2,0:0:0:0:
99,225,55769,1,8,0:0:0:0:
99,225,55853,2,0,P|171:228|181:225,1,82,2|2,0:0|0:0,0:0:0:0:
276,136,56186,1,8,0:0:0:0:
160,73,56353,1,0,0:0:0:0:
160,73,56436,1,8,0:0:0:0:
160,73,56519,6,0,P|151:154|153:168,1,82,2|0,0:0|0:0,0:0:0:0:
234,255,56853,2,0,P|230:326|211:352,1,82,8|0,0:0|0:0,0:0:0:0:
328,257,57186,1,2,0:0:0:0:
143,288,57353,1,2,0:0:0:0:
244,130,57519,1,8,0:0:0:0:
233,256,57686,1,0,0:0:0:0:
326,163,57853,5,12,0:0:0:0:
436,118,58019,1,8,0:0:0:0:
437,89,58103,1,2,0:0:0:0:
436,60,58186,1,8,0:0:0:0:
326,163,58353,5,8,0:0:0:0:
215,92,58519,1,10,0:0:0:0:
171,215,58686,1,8,0:0:0:0:
362,167,58853,1,8,0:0:0:0:
214,92,59019,1,8,0:0:0:0:
194,244,59186,6,0,P|175:315|100:280,1,164,6|0,0:0|0:0,0:0:0:0:
89,270,59853,2,0,L|90:147,1,123.000004692078,2|2,0:0|0:0,0:0:0:0:
91,149,60519,1,0,0:0:0:0:
74,178,60853,1,0,0:0:0:0:
56,206,61186,5,10,0:0:0:0:
246,144,61436,5,8,0:0:0:0:
57,82,61686,5,8,0:0:0:0:
174,44,61853,6,0,P|256:51|347:38,1,164,4|0,0:0|0:0,0:0:0:0:
415,26,62519,5,8,0:0:0:0:
355,165,62686,1,2,0:0:0:0:
355,165,62769,1,0,0:0:0:0:
355,165,62853,1,2,0:0:0:0:
255,50,63019,1,8,0:0:0:0:
94,249,63519,5,0,0:0:0:0:
86,268,63853,1,0,0:0:0:0:
79,287,64186,1,0,0:0:0:0:
75,308,64519,6,0,B|99:334|129:326|129:326|187:287|242:322,1,180.400005505371,6|8,0:0|0:0,0:0:0:0:
340,254,65019,1,0,0:0:0:0:
217,240,65186,2,0,P|217:285|242:322,1,90.2000027526856,2|0,0:0|0:0,0:0:0:0:
355,175,65519,1,8,0:0:0:0:
280,52,65686,5,0,0:0:0:0:
280,52,65853,2,0,L|268:146,1,90.2000027526856,2|0,0:0|0:0,0:0:0:0:
324,328,66186,2,0,L|283:229,1,90.2000027526856,8|0,0:0|0:0,0:0:0:0:
186,195,66519,2,0,B|106:166|63:229|63:229|46:150,1,180.400005505371,2|8,0:0|0:0,0:0:0:0:
106,74,67019,1,0,0:0:0:0:
142,279,67186,6,0,B|200:268|225:305|269:307|334:275,1,180.400005505371,2|8,0:0|0:0,0:0:0:0:
458,317,67686,1,0,0:0:0:0:
358,218,67853,1,2,0:0:0:0:
358,218,68019,2,0,P|353:135|359:103,1,90.2000027526856,0|8,0:0|0:0,0:0:0:0:
436,44,68353,1,0,0:0:0:0:
353,128,68519,6,0,L|257:129,1,90.2000027526856,2|0,0:0|0:0,0:0:0:0:
164,192,68853,1,8,0:0:0:0:
218,24,69019,1,0,0:0:0:0:
304,129,69186,2,0,P|302:211|294:239,1,90.2000027526856,2|2,0:0|0:0,0:0:0:0:
224,275,69436,5,8,0:0:0:0:
217,292,69519,2,0,L|280:283,1,45.1000013763428,8|8,0:0|3:0,0:0:0:0:
318,336,69686,2,0,L|374:325,1,45.1000013763428,8|8,3:0|3:0,0:0:0:0:
375,309,69853,6,0,P|392:266|375:219,1,90.2000027526856,6|0,0:0|0:0,0:0:0:0:
180,257,70186,2,0,P|223:271|268:268,1,90.2000027526856,8|0,0:0|0:0,0:0:0:0:
199,169,70519,2,0,P|158:153|114:159,1,90.2000027526856,2|0,0:0|0:0,0:0:0:0:
12,249,70853,2,0,L|102:236,1,90.2000027526856,8|0,0:0|0:0,0:0:0:0:
262,141,71186,6,0,P|264:92|255:46,1,90.2000027526856,2|0,0:0|0:0,0:0:0:0:
61,106,71519,2,0,P|105:111|150:104,1,90.2000027526856,8|0,0:0|0:0,0:0:0:0:
256,51,71853,1,2,0:0:0:0:
174,199,72019,1,0,0:0:0:0:
314,240,72186,2,8,L|416:240,1,90.2000027526856,8|0,0:0|0:0,0:0:0:0:
404,240,72436,1,0,0:0:0:0:
404,240,72519,1,6,0:0:0:0:
479,329,72686,5,0,0:0:0:0:
436,167,72853,2,0,P|426:104|435:60,1,90.2000027526856,8|0,0:0|0:0,0:0:0:0:
315,105,73186,2,0,L|224:105,1,90.2000027526856,2|0,0:0|0:0,0:0:0:0:
138,186,73519,2,0,P|177:205|220:195,1,90.2000027526856,8|0,0:0|0:0,0:0:0:0:
88,107,73853,6,0,P|51:144|48:191,1,90.2000027526856,6|0,0:0|0:0,0:0:0:0:
45,179,74103,1,0,0:0:0:0:
45,179,74186,1,8,0:0:0:0:
126,353,74353,2,0,L|116:252,1,90.2000027526856,0|2,0:0|0:0,0:0:0:0:
220,207,74686,5,2,0:0:0:0:
222,180,74769,1,2,0:0:0:0:
220,153,74853,1,8,0:0:0:0:
212,127,74936,1,2,0:0:0:0:
204,98,75019,1,2,0:0:0:0:
186,74,75103,1,2,0:0:0:0:
160,59,75186,6,0,P|237:31|343:56,1,180.400005505371,6|8,0:0|0:0,0:0:0:0:
362,162,75686,1,0,0:0:0:0:
470,115,75853,2,0,L|468:14,1,90.2000027526856,2|0,0:0|0:0,0:0:0:0:
331,49,76186,1,8,0:0:0:0:
362,162,76353,6,0,P|361:254|359:261,1,90.2000027526856,0|2,0:0|0:0,0:0:0:0:
252,204,76686,2,0,P|237:161|247:118,1,90.2000027526856,0|8,0:0|0:0,0:0:0:0:
331,49,77019,1,0,0:0:0:0:
362,162,77186,1,2,0:0:0:0:
247,118,77353,1,0,0:0:0:0:
57,143,77519,2,0,P|101:151|147:151,1,90.2000027526856,8|0,0:0|0:0,0:0:0:0:
332,47,77853,6,0,P|277:118|252:204,1,180.400005505371,2|8,0:0|0:0,0:0:0:0:
324,296,78353,1,0,0:0:0:0:
276,174,78519,2,0,L|250:67,1,90.2000027526856,2|0,0:0|0:0,0:0:0:0:
147,38,78853,1,8,0:0:0:0:
57,143,79019,5,0,0:0:0:0:
123,252,79186,2,0,P|127:206|152:169,1,90.2000027526856,2|0,0:0|0:0,0:0:0:0:
268,72,79519,2,0,L|178:83,1,90.2000027526856,8|0,0:0|0:0,0:0:0:0:
73,29,79853,1,2,0:0:0:0:
117,155,80019,1,10,0:0:0:0:
124,177,80103,1,8,0:0:0:0:
131,198,80186,1,8,0:0:0:0:
222,327,80353,1,2,0:0:0:0:
228,304,80436,1,8,0:0:0:0:
236,283,80519,6,0,P|265:201|271:188,1,90.2000027526856,6|0,0:0|0:0,0:0:0:0:
412,114,80853,2,0,P|452:191|453:199,1,90.2000027526856,8|0,0:0|0:0,0:0:0:0:
354,329,81186,2,0,L|346:224,1,90.2000027526856,2|0,0:0|0:0,0:0:0:0:
372,41,81519,2,0,P|335:82|333:138,1,90.2000027526856,8|0,0:0|0:0,0:0:0:0:
263,212,81853,5,2,0:0:0:0:
147,233,82019,1,0,0:0:0:0:
44,353,82186,2,0,P|37:268|39:257,1,90.2000027526856,8|0,0:0|0:0,0:0:0:0:
150,156,82519,2,0,P|192:167|217:204,1,90.2000027526856,2|0,0:0|0:0,0:0:0:0:
160,322,82853,2,0,L|147:233,1,90.2000027526856,8|0,0:0|0:0,0:0:0:0:
142,198,83103,1,0,0:0:0:0:
130,166,83186,6,0,B|79:95|152:50|152:50|208:78,1,180.400005505371,6|8,0:0|0:0,0:0:0:0:
358,136,83686,1,0,0:0:0:0:
253,259,83853,2,0,P|243:215|245:171,1,90.2000027526856,2|0,0:0|0:0,0:0:0:0:
455,295,84186,1,8,0:0:0:0:
344,334,84353,1,0,0:0:0:0:
469,178,84519,5,8,0:0:0:0:
488,138,84603,1,2,0:0:0:0:
487,93,84686,1,8,0:0:0:0:
464,55,84769,1,2,0:0:0:0:
427,34,84853,1,10,0:0:0:0:
382,32,84936,1,2,0:0:0:0:
337,39,85019,1,8,0:0:0:0:
295,55,85103,1,2,0:0:0:0:
262,76,85186,6,0,B|187:67|139:86,1,90.2000027526856,10|8,0:0|0:0,0:0:0:0:
150,98,85436,1,2,0:0:0:0:
130,121,85519,2,0,L|113:190,1,45.1000013763428,10|2,0:0|0:0,0:0:0:0:
143,232,85686,2,0,L|153:302,1,45.1000013763428,8|0,0:0|0:0,0:0:0:0:
207,341,85853,6,0,P|233:307|231:250,1,90.2000027526856,6|0,0:0|0:0,0:0:0:0:
155,164,86186,1,8,0:0:0:0:
155,164,86353,2,0,L|149:49,1,90.2000027526856,6|0,0:0|0:0,0:0:0:0:
68,148,86686,1,0,0:0:0:0:
239,110,86853,6,0,B|273:137|314:131|314:131|398:118|379:45|456:35|456:35|501:127|461:189|407:209|407:209|496:295|378:330,1,615.000023460389,12|0,0:0|0:0,0:0:0:0:
360,340,88603,2,0,L|310:341,1,30.7500011730195
