osu file format v14

[General]
AudioFilename: PV.mp3
AudioLeadIn: 1500
PreviewTime: 63436
Countdown: 0
SampleSet: Soft
StackLeniency: 0.7
Mode: 0
LetterboxInBreaks: 0
WidescreenStoryboard: 0

[Editor]
Bookmarks: 84853,85019,85186,85353,85519,85686,88532
DistanceSpacing: 1.3
BeatDivisor: 4
GridSize: 8
TimelineZoom: 2.2

[Metadata]
Title:Ai no Scenario
TitleUnicode:アイのシナリオ
Artist:CHiCO with HoneyWorks
ArtistUnicode:CHiCO with HoneyWorks
Creator:Tenseki
Version:Hard
Source:まじっく快斗1412
Tags:Magic Kaito 1412 tv size opening A-1 Pictures Inc jieusieu Doyak
BeatmapID:634467
BeatmapSetID:275461

[Difficulty]
HPDrainRate:5.6
CircleSize:4
OverallDifficulty:6
ApproachRate:7.6
SliderMultiplier:1.46
SliderTickRate:2

[Events]
//Background and Video events
0,0,"BG.png",0,0
//Break Periods
//Storyboard Layer 0 (Background)
//Storyboard Layer 1 (Fail)
//Storyboard Layer 2 (Pass)
//Storyboard Layer 3 (Foreground)
//Storyboard Sound Samples

[TimingPoints]
520,333.333333333333,4,2,1,50,1,0
2519,-100,4,2,2,50,0,0
2603,-100,4,2,1,50,0,0
5186,-100,4,2,2,50,0,0
5269,-100,4,2,1,50,0,0
5353,-100,4,2,1,60,0,0
5853,-100,4,2,1,40,0,0
6519,-100,4,2,1,45,0,0
7186,-100,4,2,1,50,0,0
7853,-100,4,2,1,55,0,0
9519,-125,4,2,1,60,0,0
10769,-100,4,2,2,40,0,0
11186,-133.333333333333,4,2,1,40,0,0
13186,-133.333333333333,4,2,1,50,0,0
13853,-133.333333333333,4,2,1,40,0,0
15853,-100,4,2,1,70,0,0
16519,-100,4,2,1,60,0,0
17853,-100,4,2,2,60,0,0
17936,-100,4,2,1,60,0,0
20519,-100,4,2,2,60,0,0
20603,-100,4,2,1,60,0,0
21353,-100,4,2,1,40,0,0
21686,-100,4,2,1,60,0,0
21853,-100,4,2,1,50,0,0
23853,-100,4,2,2,50,0,0
23936,-100,4,2,1,50,0,0
29186,-100,4,2,2,50,0,0
29269,-100,4,2,1,50,0,0
32519,-100,4,2,1,60,0,0
41686,-100,4,2,1,40,0,0
42186,-100,4,2,1,50,0,0
42519,-100,4,2,1,60,0,0
43186,-125,4,2,1,50,0,0
44519,-125,4,2,2,50,0,0
44603,-125,4,2,1,50,0,0
50519,-100,4,2,1,50,0,0
53353,-100,4,2,1,40,0,0
53686,-100,4,2,1,50,0,0
53853,-100,4,2,1,60,0,0
54519,-100,4,2,2,60,0,0
54603,-100,4,2,1,60,0,0
55853,-100,4,2,2,60,0,0
55936,-100,4,2,1,60,0,0
57853,-100,4,2,1,40,0,0
58519,-100,4,2,1,60,0,0
58686,-100,4,2,3,60,0,0
58769,-100,4,2,1,60,0,0
58853,-100,4,2,1,70,0,0
59186,-133.333333333333,4,2,0,40,0,0
59853,-133.333333333333,4,2,0,35,0,0
60519,-133.333333333333,4,2,0,30,0,0
61186,-133.333333333333,4,2,1,60,0,0
61853,-100,4,2,1,60,0,0
62853,-100,4,2,1,70,0,0
63519,-100,4,2,1,40,0,0
64519,-100,4,2,1,60,0,1
65853,-100,4,2,2,60,0,1
65936,-100,4,2,1,60,0,1
68519,-100,4,2,2,60,0,1
68603,-100,4,2,1,60,0,1
69353,-100,4,2,1,40,0,1
69686,-100,4,2,1,50,0,1
69853,-100,4,2,1,60,0,1
74686,-100,4,2,1,50,0,1
74853,-100,4,2,1,60,0,1
75019,-100,4,2,1,70,0,1
77186,-100,4,2,2,70,0,1
77269,-100,4,2,1,70,0,1
79186,-100,4,2,2,70,0,1
79269,-100,4,2,1,70,0,1
80019,-100,4,2,1,40,0,1
80353,-100,4,2,1,50,0,1
80519,-100,4,2,1,60,0,1
84686,-100,4,2,3,40,0,1
84769,-100,4,2,1,40,0,1
84853,-100,4,2,1,50,0,1
85019,-100,4,2,1,60,0,1
85186,-100,4,2,1,50,0,1
85353,-100,4,2,1,40,0,1
85519,-100,4,2,1,60,0,1
85686,-100,4,2,1,70,0,1
85853,-100,4,2,1,60,0,0
86853,-133.333333333333,4,2,1,60,0,0
88519,-133.333333333333,4,2,1,20,0,0

[Colours]
Combo1 : 153,0,0
Combo2 : 0,99,147
Combo3 : 234,234,0

[HitObjects]
72,288,520,6,0,P|147:273|222:301,1,146,4|2,0:0|0:0,0:0:0:0:
287,350,1019,1,0,0:0:0:0:
287,350,1186,2,0,P|252:287|280:206,1,146,2|2,0:0|0:0,0:0:0:0:
338,275,1686,6,0,P|361:243|367:205,1,73,0|2,0:0|0:0,0:0:0:0:
327,130,2019,2,0,P|362:120|397:127,1,73,0|2,0:0|0:0,0:0:0:0:
360,47,2353,2,0,P|286:51|239:115,1,146
251,189,2853,2,0,L|258:276,1,73,2|0,0:0|0:0,0:0:0:0:
171,281,3186,6,0,P|103:315|37:280,1,146,2|2,0:0|0:0,0:0:0:0:
36,200,3686,1,0,0:0:0:0:
124,208,3853,2,0,P|207:199|254:268,1,146,2|2,0:0|0:0,0:0:0:0:
319,289,4353,6,0,L|333:201,1,73,0|2,0:0|0:0,0:0:0:0:
423,175,4686,2,0,L|412:248,1,73,0|2,0:0|0:0,0:0:0:0:
346,133,5019,2,0,P|296:55|325:-8,1,146,0|8,0:0|0:0,0:0:0:0:
223,26,5519,2,0,P|184:28|125:16,1,73,2|8,0:0|0:0,0:0:0:0:
62,22,5853,6,0,P|51:122|20:191,1,146,12|2,0:0|0:0,0:0:0:0:
78,240,6353,1,0,0:0:0:0:
149,190,6519,2,0,P|155:132|173:106,1,73,2|0,0:0|0:0,0:0:0:0:
236,167,6853,2,0,L|245:260,1,73,2|0,0:0|0:0,0:0:0:0:
315,301,7186,6,0,P|381:281|418:206,1,146,2|2,0:0|0:0,0:0:0:0:
322,200,7686,1,0,0:0:0:0:
249,261,7853,2,0,P|105:303|76:302,1,146,2|4,0:0|0:0,0:0:0:0:
28,255,8353,1,0,0:0:0:0:
5,163,8519,6,0,P|1:93|57:39,1,146,8|2,0:0|0:0,0:0:0:0:
144,26,9019,1,8,0:0:0:0:
305,127,9353,1,2,0:0:0:0:
336,196,9519,6,0,B|376:256|340:328|340:328|276:280|216:328|216:328|156:376|92:328,1,408.8,4|0,0:0|0:0,0:0:0:0:
50,307,10769,2,0,L|49:240,1,36.5,2|2,0:0|0:0,0:0:0:0:
147,221,11186,6,0,P|149:170|145:144,1,54.7500020885468,8|2,0:0|0:0,0:0:0:0:
73,150,11519,2,0,L|75:76,1,54.7500020885468
125,37,11853,2,0,P|203:40|229:84,1,109.500004177094,2|0,0:0|0:0,0:0:0:0:
235,134,12353,2,0,L|358:102,1,109.500004177094,2|0,0:0|0:0,0:0:0:0:
408,69,12853,1,2,0:0:0:0:
446,219,13186,2,0,L|446:289,1,54.7500020885468,8|0,0:0|0:0,0:0:0:0:
360,325,13519,2,0,L|360:255,1,54.7500020885468,10|0,0:0|0:0,0:0:0:0:
283,238,13853,6,0,P|206:234|161:250,1,109.500004177094,2|0,0:0|0:0,0:0:0:0:
109,292,14353,1,0,0:0:0:0:
43,242,14519,2,0,L|49:164,2,54.7500020885468,2|0|0,0:0|0:0|0:0,0:0:0:0:
109,292,15019,2,0,P|146:192|158:171,1,109.500004177094,2|0,0:0|0:0,0:0:0:0:
195,123,15519,2,0,L|198:55,1,54.7500020885468,2|0,0:0|0:0,0:0:0:0:
279,18,15853,6,0,L|302:115,1,73,8|0,0:0|0:0,0:0:0:0:
390,88,16186,2,0,L|395:195,1,73,10|0,0:0|0:0,0:0:0:0:
338,238,16519,6,0,P|270:276|245:352,1,146,6|8,0:0|0:0,0:0:0:0:
175,272,17019,1,0,0:0:0:0:
93,222,17186,2,0,P|88:153|91:137,2,73,2|0|8,0:0|0:0|0:0,0:0:0:0:
175,272,17686,2,0,P|323:270|346:277,1,146
401,220,18186,2,0,P|459:222|497:216,1,73,8|0,0:0|0:0,0:0:0:0:
438,140,18519,2,0,P|416:84|436:23,1,109.5,2|0,0:0|0:0,0:0:0:0:
382,42,18853,2,0,L|288:49,1,73,8|0,0:0|0:0,0:0:0:0:
219,97,19186,6,0,P|145:112|72:77,1,146,2|8,0:0|0:0,0:0:0:0:
127,169,19686,1,0,0:0:0:0:
182,246,19853,2,0,L|176:332,2,73,2|0|8,0:0|0:0|0:0,0:0:0:0:
258,189,20353,2,0,P|276:284|310:349,1,146
361,258,20853,2,0,L|367:159,1,73,8|0,0:0|0:0,0:0:0:0:
335,94,21186,1,2,0:0:0:0:
247,56,21353,1,8,3:0:0:0:
247,56,21437,1,8,3:0:0:0:
247,56,21519,2,0,P|220:79|186:93,1,73,8|4,0:0|3:0,0:0:0:0:
122,164,21853,6,0,P|109:263|83:315,1,146,6|2,0:0|0:0,0:0:0:0:
8,254,22353,1,0,0:0:0:0:
23,160,22519,2,0,L|20:82,1,73,2|0,0:0|0:0,0:0:0:0:
87,19,22853,1,2,0:0:0:0:
20,87,23019,1,0,0:0:0:0:
114,99,23186,6,0,P|227:82|270:52,1,146,2|2,0:0|0:0,0:0:0:0:
329,10,23686,2,0,P|342:101|378:164,1,146
451,191,24186,2,0,P|450:140|457:97,1,73,2|0,0:0|0:0,0:0:0:0:
366,148,24519,5,2,0:0:0:0:
366,148,24686,1,0,0:0:0:0:
359,242,24853,2,0,P|357:280|365:318,1,73,2|0,0:0|0:0,0:0:0:0:
273,284,25186,2,0,L|250:208,1,73,2|0,0:0|0:0,0:0:0:0:
181,150,25519,1,2,0:0:0:0:
153,241,25686,1,0,0:0:0:0:
251,214,25853,6,0,P|281:144|226:66,1,146,2|2,0:0|0:0,0:0:0:0:
181,150,26353,1,0,0:0:0:0:
104,94,26519,2,0,P|62:89|15:100,1,73,2|0,0:0|0:0,0:0:0:0:
68,179,26853,2,0,P|131:180|152:172,1,73,2|0,0:0|0:0,0:0:0:0:
202,248,27186,6,0,P|223:310|138:352,1,146,2|2,0:0|0:0,0:0:0:0:
263,349,27686,1,0,0:0:0:0:
340,293,27853,2,0,L|430:288,1,73,2|0,0:0|0:0,0:0:0:0:
490,234,28186,1,2,0:0:0:0:
405,190,28353,1,0,0:0:0:0:
381,98,28519,6,0,P|390:43|417:17,2,73,2|0|2,0:0|0:0|0:0,0:0:0:0:
293,135,29019,2,0,P|264:227|215:289,1,146
95,231,29519,2,0,L|167:224,1,73,2|0,0:0|0:0,0:0:0:0:
274,210,29853,6,0,L|293:292,2,73,2|0|2,0:0|0:0|0:0,0:0:0:0:
211,138,30353,1,0,0:0:0:0:
129,87,30519,2,0,P|64:75|45:138,1,146,2|2,0:0|0:0,0:0:0:0:
95,231,31019,6,0,P|106:296|53:362,1,146,8|2,0:0|0:0,0:0:0:0:
145,334,31519,2,0,L|236:331,1,73,2|2,0:0|0:0,0:0:0:0:
285,274,31853,1,8,0:0:0:0:
285,274,31936,1,0,0:0:0:0:
285,274,32019,1,2,0:0:0:0:
217,331,32186,1,8,0:0:0:0:
300,357,32353,1,0,0:0:0:0:
402,274,32519,6,0,L|435:121,1,146,6|8,0:0|0:0,0:0:0:0:
381,51,33019,1,0,0:0:0:0:
296,94,33186,2,0,P|340:138|376:137,1,73,2|0,0:0|0:0,0:0:0:0:
432,182,33519,2,0,L|445:259,1,73,8|0,0:0|0:0,0:0:0:0:
502,320,33853,2,0,P|410:289|345:302,1,146,2|8,0:0|0:0,0:0:0:0:
281,344,34353,1,0,0:0:0:0:
133,283,34519,2,0,P|170:295|208:288,1,73,2|0,0:0|0:0,0:0:0:0:
283,238,34853,2,0,L|252:166,1,73,8|0,0:0|0:0,0:0:0:0:
179,112,35186,6,0,P|78:113|34:153,1,146,2|8,0:0|0:0,0:0:0:0:
62,224,35686,1,0,0:0:0:0:
62,224,35853,2,0,P|59:294|53:321,1,73,2|0,0:0|0:0,0:0:0:0:
154,286,36186,2,0,P|165:237|197:195,1,73,8|0,0:0|0:0,0:0:0:0:
246,273,36519,2,0,P|333:234|396:271,1,146,2|8,0:0|0:0,0:0:0:0:
375,250,37019,1,0,0:0:0:0:
306,182,37186,2,0,P|301:145|301:109,1,73,2|0,0:0|0:0,0:0:0:0:
374,46,37519,2,0,P|400:90|393:132,1,73,8|0,0:0|0:0,0:0:0:0:
306,182,37853,6,0,P|209:173|151:198,1,146,2|8,0:0|0:0,0:0:0:0:
96,254,38353,1,0,0:0:0:0:
35,181,38519,2,0,L|27:96,1,73,2|0,0:0|0:0,0:0:0:0:
123,100,38853,2,0,L|125:22,1,73,8|0,0:0|0:0,0:0:0:0:
197,78,39186,6,0,P|170:162|109:177,1,146,2|8,0:0|0:0,0:0:0:0:
47,236,39686,1,0,0:0:0:0:
112,304,39853,2,0,P|246:330|268:341,1,146,2|8,0:0|0:0,0:0:0:0:
318,263,40353,1,0,0:0:0:0:
404,300,40519,6,0,L|416:384,2,73,2|0|8,0:0|0:0|0:0,0:0:0:0:
464,226,41019,1,0,0:0:0:0:
377,188,41186,2,0,P|394:69|417:40,1,146,2|8,0:0|0:0,0:0:0:0:
322,95,41686,6,0,L|162:92,1,146,6|8,0:0|0:0,0:0:0:0:
148,183,42186,2,0,L|54:194,1,73,6|2,0:0|0:0,0:0:0:0:
33,273,42519,2,0,P|-11:217|6:130,1,146,8|8,0:0|0:0,0:0:0:0:
62,78,43019,1,2,0:0:0:0:
75,191,43186,6,0,P|162:205|213:191,1,116.8,6|0,0:0|0:0,0:0:0:0:
258,168,43686,1,2,0:0:0:0:
294,234,43853,2,0,P|303:299|271:353,1,116.8,8|0,0:0|0:0,0:0:0:0:
205,337,44353,2,0,P|137:330|79:350,1,116.8,0|8,0:0|0:0,0:0:0:0:
26,304,44853,1,2,0:0:0:0:
82,253,45019,1,2,0:0:0:0:
82,253,45187,2,0,P|62:225|59:188,1,58.4,8|0,0:0|0:0,0:0:0:0:
28,132,45519,2,0,L|72:77,1,58.4
140,72,45853,6,0,L|144:189,1,116.8,6|0,0:0|0:0,0:0:0:0:
191,248,46353,1,2,0:0:0:0:
251,192,46519,2,0,P|317:183|381:200,1,116.8,8|0,0:0|0:0,0:0:0:0:
425,240,47019,1,0,0:0:0:0:
418,315,47186,6,0,L|334:314,1,58.4,2|8,0:0|0:0,0:0:0:0:
282,323,47519,2,0,L|202:338,1,58.4,8|0,0:0|0:0,0:0:0:0:
151,311,47853,2,0,P|69:315|48:330,2,87.6,8|2|0,0:0|0:0|0:0,0:0:0:0:
11,254,48519,6,0,P|5:171|17:122,1,116.8,6|0,0:0|0:0,0:0:0:0:
86,60,49019,2,0,L|82:122,1,58.4,2|8,0:0|0:0,0:0:0:0:
158,247,49519,6,0,L|162:185,1,58.4
219,112,49853,2,0,L|247:191,1,58.4,2|8,0:0|0:0,0:0:0:0:
297,214,50186,2,0,L|366:209,1,58.4,0|2,0:0|0:0,0:0:0:0:
446,182,50519,2,0,P|389:233|382:309,1,146,8|0,0:0|0:0,0:0:0:0:
295,254,51019,1,0,0:0:0:0:
340,170,51186,6,0,L|345:14,1,146,4|0,0:0|0:0,0:0:0:0:
254,54,51686,2,0,L|235:140,1,73,2|8,0:0|0:0,0:0:0:0:
134,284,52186,2,0,L|109:205,1,73
28,168,52519,6,0,L|5:218,2,36.5,8|0|2,0:0|0:0|0:0,0:0:0:0:
94,100,52853,2,0,L|195:100,1,73,8|0,0:0|0:0,0:0:0:0:
240,160,53186,1,8,0:0:0:0:
313,220,53353,2,0,L|293:273,2,36.5,8|8|8,0:0|0:0|0:0,0:0:0:0:
391,166,53686,1,8,0:0:0:0:
391,166,53769,1,0,0:0:0:0:
391,166,53853,6,0,L|390:88,1,73,6|2,0:0|0:0,0:0:0:0:
469,40,54186,1,8,0:0:0:0:
496,131,54353,2,0,P|491:215|428:273,1,146,0|2,0:0|0:0,0:0:0:0:
378,319,54853,2,0,L|481:344,2,73,8|0|2,0:0|0:0|0:0,0:0:0:0:
283,309,55353,5,2,0:0:0:0:
190,327,55519,1,8,0:0:0:0:
109,275,55686,2,0,P|76:342|-1:373,1,146,2|2,0:0|0:0,0:0:0:0:
8,271,56186,2,0,L|-2:177,1,73,8|0,0:0|0:0,0:0:0:0:
95,196,56519,6,0,P|53:125|-17:106,1,146,2|8,0:0|0:0,0:0:0:0:
71,47,57019,1,0,0:0:0:0:
166,38,57186,2,0,P|248:38|256:36,1,73,2|2,0:0|0:0,0:0:0:0:
333,38,57519,1,8,0:0:0:0:
422,5,57686,1,0,0:0:0:0:
491,70,57853,1,12,0:0:0:0:
400,97,58019,6,0,P|388:166|400:193,2,73,8|8|8,0:0|0:0|0:0,0:0:0:0:
478,149,58519,2,0,P|493:229|444:286,1,146,10|8,0:0|0:0,0:0:0:0:
370,239,59019,1,8,0:0:0:0:
301,304,59186,6,0,L|183:307,1,109.500004177094,6|0,0:0|0:0,0:0:0:0:
77,220,59853,1,2,0:0:0:0:
208,166,60186,1,2,0:0:0:0:
60,237,60519,1,2,0:0:0:0:
184,240,60853,1,2,0:0:0:0:
104,130,61186,2,0,P|63:131|20:142,2,82.1250031328202,8|8|8,0:0|0:0|0:0,0:0:0:0:
194,106,61853,6,0,P|313:92|345:75,1,146,4|0,0:0|0:0,0:0:0:0:
491,188,62519,1,8,0:0:0:0:
411,136,62686,1,2,0:0:0:0:
411,136,62769,1,0,0:0:0:0:
411,136,62853,1,2,0:0:0:0:
334,81,63019,1,8,0:0:0:0:
334,81,63519,5,0,0:0:0:0:
288,147,63852,1,0,0:0:0:0:
244,209,64186,1,0,0:0:0:0:
199,270,64519,6,0,P|132:290|56:253,1,146,6|8,0:0|0:0,0:0:0:0:
39,169,65019,1,0,0:0:0:0:
135,166,65186,2,0,P|148:132|153:96,1,73,2|0,0:0|0:0,0:0:0:0:
219,28,65519,1,8,0:0:0:0:
219,28,65686,6,0,P|241:122|268:170,1,146
350,205,66186,2,0,P|407:210|445:194,1,73,8|0,0:0|0:0,0:0:0:0:
456,117,66519,1,2,0:0:0:0:
507,196,66686,1,0,0:0:0:0:
457,277,66853,2,0,L|449:363,1,73,8|0,0:0|0:0,0:0:0:0:
362,315,67186,6,0,P|260:304|209:333,1,146,2|8,0:0|0:0,0:0:0:0:
130,302,67686,1,0,0:0:0:0:
35,328,67853,2,0,P|30:296|54:240,2,73,2|0|8,0:0|0:0|0:0,0:0:0:0:
130,301,68353,6,0,P|137:230|94:175,1,146
143,107,68853,2,0,L|217:113,1,73,8|0,0:0|0:0,0:0:0:0:
274,187,69186,2,0,L|377:174,2,73,2|2|8,0:0|0:0|0:0,0:0:0:0:
196,242,69686,1,8,0:0:0:0:
196,242,69769,1,0,0:0:0:0:
196,242,69853,6,0,P|234:296|252:304,1,73,6|0,0:0|0:0,0:0:0:0:
332,311,70186,2,0,P|404:307|431:314,1,73,8|0,0:0|0:0,0:0:0:0:
496,329,70519,1,2,0:0:0:0:
470,237,70686,1,0,0:0:0:0:
404,307,70853,1,8,0:0:0:0:
496,329,71019,1,0,0:0:0:0:
470,237,71186,6,0,P|460:169|461:86,1,146,2|8,0:0|0:0,0:0:0:0:
370,122,71686,1,0,0:0:0:0:
370,122,71853,2,0,L|358:207,1,73,2|0,0:0|0:0,0:0:0:0:
295,264,72186,2,0,P|275:229|267:185,1,73,8|0,0:0|0:0,0:0:0:0:
286,104,72519,6,0,P|223:69|155:90,1,146,6|8,0:0|0:0,0:0:0:0:
89,159,73019,1,0,0:0:0:0:
160,222,73186,2,0,L|178:310,2,73,2|0|8,0:0|0:0|0:0,0:0:0:0:
89,159,73686,1,0,0:0:0:0:
113,69,73853,6,0,P|175:75|209:70,1,73,6|0,0:0|0:0,0:0:0:0:
275,42,74186,2,0,P|359:31|427:44,1,146,8|2,0:0|0:0,0:0:0:0:
477,115,74686,1,2,0:0:0:0:
477,115,74769,1,2,0:0:0:0:
477,115,74853,2,0,L|474:195,1,73,8|2,0:0|0:0,0:0:0:0:
406,254,75186,6,0,P|390:183|350:100,1,146,6|8,0:0|0:0,0:0:0:0:
265,122,75686,1,0,0:0:0:0:
192,183,75853,2,0,L|96:189,1,73,2|0,0:0|0:0,0:0:0:0:
38,237,76186,1,8,0:0:0:0:
101,307,76353,6,0,L|180:327,1,73,0|2,0:0|0:0,0:0:0:0:
262,296,76686,2,0,L|353:291,1,73,0|8,0:0|0:0,0:0:0:0:
419,248,77019,2,0,B|421:235|421:235|399:193|347:173|296:194,1,146
206,178,77519,2,0,P|137:190|105:193,1,73,8|0,0:0|0:0,0:0:0:0:
40,168,77853,6,0,P|30:114|98:52,1,146,2|8,0:0|0:0,0:0:0:0:
178,88,78353,1,0,0:0:0:0:
206,178,78519,2,0,L|214:278,1,73,2|0,0:0|0:0,0:0:0:0:
149,323,78853,1,8,0:0:0:0:
149,323,79019,6,0,P|217:294|301:308,1,146
363,358,79519,1,8,0:0:0:0:
426,287,79686,2,0,L|429:196,1,73,0|2,0:0|0:0,0:0:0:0:
491,142,80019,2,0,L|486:45,2,73,10|8|2,0:0|0:0|0:0,0:0:0:0:
428,214,80519,6,0,P|410:304|420:369,1,146,6|8,0:0|0:0,0:0:0:0:
337,304,81019,1,0,0:0:0:0:
253,349,81186,2,0,L|151:350,1,73,2|0,0:0|0:0,0:0:0:0:
89,321,81519,2,0,L|32:378,2,73,8|0|2,0:0|0:0|0:0,0:0:0:0:
98,226,82019,5,0,0:0:0:0:
98,226,82186,2,0,B|136:192|120:160|104:120|104:120|89:80,1,146,8|2,0:0|0:0,0:0:0:0:
14,141,82686,2,0,L|1:231,1,73,0|8,0:0|0:0,0:0:0:0:
39,301,83019,1,0,0:0:0:0:
98,226,83186,6,0,P|145:249|240:224,1,146,6|8,0:0|0:0,0:0:0:0:
302,164,83686,2,0,L|306:88,1,73,0|2,0:0|0:0,0:0:0:0:
398,111,84019,2,0,L|417:25,1,73,0|8,0:0|0:0,0:0:0:0:
485,103,84353,1,0,0:0:0:0:
437,184,84519,6,0,P|439:273|471:326,1,146,8|8,0:0|0:0,0:0:0:0:
371,320,85019,2,0,L|351:373,2,36.5,8|2|8,0:0|0:0|0:0,0:0:0:0:
284,277,85353,2,0,L|228:299,2,36.5,8|2|8,0:0|0:0|0:0,0:0:0:0:
354,214,85686,1,8,0:0:0:0:
354,214,85769,1,0,0:0:0:0:
354,214,85853,6,0,L|358:133,1,73,6|0,0:0|0:0,0:0:0:0:
279,86,86186,1,8,0:0:0:0:
369,57,86353,2,0,L|450:57,1,73,6|0,0:0|0:0,0:0:0:0:
500,132,86686,1,0,0:0:0:0:
456,212,86853,6,0,B|416:259|456:319|456:319|333:262|338:345|338:345|260:362|230:309|230:309|226:291|297:256|251:188|174:236,1,547.500020885468,12|0,0:0|0:0,0:0:0:0:
160,251,88603,2,0,L|112:254,1,27.3750010442734
