osu file format v14

[General]
AudioFilename: Kaito.mp3
AudioLeadIn: 0
PreviewTime: 63588
Countdown: 0
SampleSet: Normal
StackLeniency: 0.7
Mode: 1
LetterboxInBreaks: 0
WidescreenStoryboard: 0

[Editor]
DistanceSpacing: 1.6
BeatDivisor: 4
GridSize: 32
TimelineZoom: 1.8

[Metadata]
Title:Ai no Scenario
TitleUnicode:アイのシナリオ
Artist:CHiCO with HoneyWorks
ArtistUnicode:CHiCO with HoneyWorks
Creator:-Sh1n1-
Version:Futsuu
Source:まじっく快斗1412
Tags:opening A-1 Pictures Inc Kuroba Kaito 1412 TV Size Nardoxyribonucleic JUDYDANNY game_rock
BeatmapID:729810
BeatmapSetID:329188

[Difficulty]
HPDrainRate:7
CircleSize:4
OverallDifficulty:3
ApproachRate:5
SliderMultiplier:1.4
SliderTickRate:1

[Events]
//Background and Video events
0,0,"BG.jpg",0,90
//Break Periods
//Storyboard Layer 0 (Background)
//Storyboard Layer 1 (Fail)
//Storyboard Layer 2 (Pass)
//Storyboard Layer 3 (Foreground)
//Storyboard Sound Samples

[TimingPoints]
672,333.333333333333,4,1,0,70,1,0
64671,-100,4,1,0,70,0,1
86005,-100,4,1,0,70,0,0

[HitObjects]
256,192,672,5,4,0:0:0:0:
256,192,1338,1,0,0:0:0:0:
256,192,1671,1,8,0:0:0:0:
256,192,2005,1,0,0:0:0:0:
256,192,2505,1,8,0:0:0:0:
256,192,2838,1,8,0:0:0:0:
256,192,3338,1,0,0:0:0:0:
256,192,4005,1,0,0:0:0:0:
256,192,4338,1,8,0:0:0:0:
256,192,4671,1,0,0:0:0:0:
256,192,5171,1,8,0:0:0:0:
256,192,5504,1,0,0:0:0:0:
256,192,6005,1,8,0:0:0:0:
256,192,6671,1,0,0:0:0:0:
256,192,6838,1,0,0:0:0:0:
256,192,7005,1,0,0:0:0:0:
256,192,7338,1,8,0:0:0:0:
256,192,8005,1,0,0:0:0:0:
256,192,8171,1,0,0:0:0:0:
256,192,8338,1,0,0:0:0:0:
256,192,8671,1,4,0:0:0:0:
256,192,9171,1,12,0:0:0:0:
256,192,9671,1,12,0:0:0:0:
256,192,10838,1,2,0:0:0:0:
256,192,11338,1,0,0:0:0:0:
256,192,12005,1,8,0:0:0:0:
256,192,12505,1,8,0:0:0:0:
256,192,13005,1,8,0:0:0:0:
256,192,13338,1,8,0:0:0:0:
256,192,13505,1,8,0:0:0:0:
256,192,13671,1,0,0:0:0:0:
256,192,14005,1,0,0:0:0:0:
256,192,14671,1,8,0:0:0:0:
256,192,15171,1,8,0:0:0:0:
256,192,15671,1,0,0:0:0:0:
256,192,16005,1,8,0:0:0:0:
256,192,16671,1,4,0:0:0:0:
256,192,17338,1,8,0:0:0:0:
256,192,18005,1,0,0:0:0:0:
256,192,18338,1,8,0:0:0:0:
256,192,18671,1,0,0:0:0:0:
256,192,18838,1,0,0:0:0:0:
256,192,19005,1,8,0:0:0:0:
256,192,19338,1,0,0:0:0:0:
256,192,20005,1,8,0:0:0:0:
256,192,20505,1,8,0:0:0:0:
256,192,21005,1,8,0:0:0:0:
256,192,21338,1,0,0:0:0:0:
256,192,21505,1,0,0:0:0:0:
256,192,21671,1,8,0:0:0:0:
256,192,22005,1,4,0:0:0:0:
256,192,23338,1,0,0:0:0:0:
256,192,23671,1,8,0:0:0:0:
256,192,24005,1,8,0:0:0:0:
256,192,24671,1,0,0:0:0:0:
256,192,25005,1,8,0:0:0:0:
256,192,25338,1,0,0:0:0:0:
256,192,25671,1,8,0:0:0:0:
256,192,26005,1,0,0:0:0:0:
256,192,26671,1,8,0:0:0:0:
256,192,27005,1,8,0:0:0:0:
256,192,27338,1,0,0:0:0:0:
256,192,27671,1,8,0:0:0:0:
256,192,28005,1,0,0:0:0:0:
256,192,28338,1,8,0:0:0:0:
256,192,28671,1,0,0:0:0:0:
256,192,29338,1,8,0:0:0:0:
256,192,29671,1,8,0:0:0:0:
256,192,30005,1,0,0:0:0:0:
256,192,30671,1,0,0:0:0:0:
256,192,31171,1,12,0:0:0:0:
256,192,32005,1,8,0:0:0:0:
256,192,32671,1,4,0:0:0:0:
256,192,33671,1,8,0:0:0:0:
256,192,34005,1,0,0:0:0:0:
256,192,34338,1,8,0:0:0:0:
256,192,34671,1,8,0:0:0:0:
256,192,35338,1,0,0:0:0:0:
256,192,35505,1,0,0:0:0:0:
256,192,35671,1,8,0:0:0:0:
256,192,36005,1,0,0:0:0:0:
256,192,36338,1,8,0:0:0:0:
256,192,36671,1,0,0:0:0:0:
256,192,37338,1,8,0:0:0:0:
256,192,37671,1,8,0:0:0:0:
256,192,38005,1,0,0:0:0:0:
256,192,38338,1,8,0:0:0:0:
256,192,38505,1,8,0:0:0:0:
256,192,38671,1,0,0:0:0:0:
256,192,39005,1,8,0:0:0:0:
256,192,39338,1,0,0:0:0:0:
256,192,40005,1,8,0:0:0:0:
256,192,40338,1,8,0:0:0:0:
256,192,40671,1,0,0:0:0:0:
256,192,41338,1,0,0:0:0:0:
256,192,41838,1,4,0:0:0:0:
256,192,42338,1,8,0:0:0:0:
256,192,42671,1,0,0:0:0:0:
256,192,43005,1,8,0:0:0:0:
256,192,43338,1,12,0:0:0:0:
256,192,44005,1,0,0:0:0:0:
256,192,44505,1,8,0:0:0:0:
256,192,45005,1,0,0:0:0:0:
256,192,45338,1,8,0:0:0:0:
256,192,46005,1,12,0:0:0:0:
256,192,47005,1,8,0:0:0:0:
256,192,47338,1,0,0:0:0:0:
256,192,47671,1,0,0:0:0:0:
256,192,48005,1,8,0:0:0:0:
256,192,48671,1,12,0:0:0:0:
256,192,49171,1,8,0:0:0:0:
256,192,49671,1,8,0:0:0:0:
256,192,50671,1,0,0:0:0:0:
256,192,51005,1,8,0:0:0:0:
256,192,51338,1,12,0:0:0:0:
256,192,52005,1,0,0:0:0:0:
256,192,52338,1,8,0:0:0:0:
256,192,52671,1,0,0:0:0:0:
256,192,54005,1,0,0:0:0:0:
256,192,54171,1,8,0:0:0:0:
256,192,54505,1,8,0:0:0:0:
256,192,54838,1,0,0:0:0:0:
256,192,55338,1,0,0:0:0:0:
256,192,55671,1,0,0:0:0:0:
256,192,55838,1,8,0:0:0:0:
256,192,56171,1,8,0:0:0:0:
256,192,56671,1,0,0:0:0:0:
256,192,57005,1,8,0:0:0:0:
256,192,57338,1,0,0:0:0:0:
256,192,58005,1,8,0:0:0:0:
256,192,58338,1,8,0:0:0:0:
256,192,58671,1,0,0:0:0:0:
256,192,59005,1,8,0:0:0:0:
256,192,59338,1,12,0:0:0:0:
256,192,60005,1,8,0:0:0:0:
256,192,60671,1,8,0:0:0:0:
256,192,61338,1,0,0:0:0:0:
256,192,62005,1,4,0:0:0:0:
256,192,62672,1,8,0:0:0:0:
256,192,63171,1,12,0:0:0:0:
256,192,64671,1,4,0:0:0:0:
256,192,65338,1,0,0:0:0:0:
256,192,65505,1,0,0:0:0:0:
256,192,65671,1,8,0:0:0:0:
256,192,66005,1,0,0:0:0:0:
256,192,66338,1,8,0:0:0:0:
256,192,66671,1,0,0:0:0:0:
256,192,67005,1,8,0:0:0:0:
256,192,67338,1,0,0:0:0:0:
256,192,68005,1,8,0:0:0:0:
256,192,68671,1,0,0:0:0:0:
256,192,69005,1,8,0:0:0:0:
256,192,69338,1,0,0:0:0:0:
256,192,69505,1,0,0:0:0:0:
256,192,69671,1,8,0:0:0:0:
256,192,70005,1,4,0:0:0:0:
256,192,70671,1,0,0:0:0:0:
256,192,71005,1,8,0:0:0:0:
256,192,71338,1,0,0:0:0:0:
256,192,72005,1,0,0:0:0:0:
256,192,72338,1,8,0:0:0:0:
256,192,72671,1,0,0:0:0:0:
256,192,73338,1,0,0:0:0:0:
256,192,73671,1,8,0:0:0:0:
256,192,74005,1,12,0:0:0:0:
256,192,74671,1,8,0:0:0:0:
256,192,75005,1,8,0:0:0:0:
256,192,75338,1,4,0:0:0:0:
256,192,76005,1,0,0:0:0:0:
256,192,76171,1,0,0:0:0:0:
256,192,76338,1,8,0:0:0:0:
256,192,76671,1,0,0:0:0:0:
256,192,77005,1,8,0:0:0:0:
256,192,77338,1,0,0:0:0:0:
256,192,77671,1,8,0:0:0:0:
256,192,78005,1,0,0:0:0:0:
256,192,78671,1,8,0:0:0:0:
256,192,79338,1,0,0:0:0:0:
256,192,79671,1,8,0:0:0:0:
256,192,80005,1,0,0:0:0:0:
256,192,80171,1,0,0:0:0:0:
256,192,80338,1,8,0:0:0:0:
256,192,80671,1,4,0:0:0:0:
256,192,81338,1,0,0:0:0:0:
256,192,81671,1,8,0:0:0:0:
256,192,82005,1,0,0:0:0:0:
256,192,82671,1,0,0:0:0:0:
256,192,83005,1,8,0:0:0:0:
256,192,83338,1,0,0:0:0:0:
256,192,83838,1,8,0:0:0:0:
256,192,84338,1,8,0:0:0:0:
256,192,84671,1,0,0:0:0:0:
256,192,85171,1,8,0:0:0:0:
256,192,85671,1,8,0:0:0:0:
256,192,86005,1,4,0:0:0:0:
256,192,86505,1,12,0:0:0:0:
256,192,87005,1,12,0:0:0:0:
