osu file format v13

[General]
AudioFilename: THOMAS THE PARTY LELGINE (VIP).mp3
AudioLeadIn: 0
PreviewTime: 0
Countdown: 0
SampleSet: None
StackLeniency: 0.2
Mode: 0
LetterboxInBreaks: 1
WidescreenStoryboard: 0

[Editor]
Bookmarks: 29327
DistanceSpacing: 1.2
BeatDivisor: 4
GridSize: 8
TimelineZoom: 3.199999

[Metadata]
Title:THOMAS THE PARTY LELGINE (VIP MIX)
TitleUnicode:THOMAS THE PARTY LELGINE (VIP MIX)
Artist:CHURCH OF LEL
ArtistUnicode:CHURCH OF LEL
Creator:vidya
Version:LEL
Source:
Tags:
BeatmapID:548929
BeatmapSetID:237107

[Difficulty]
HPDrainRate:8
CircleSize:4
OverallDifficulty:9
ApproachRate:10
SliderMultiplier:2.4
SliderTickRate:4

[Events]
//Background and Video events
0,0,"artworks-000075387895-gsdwzt-t500x500.jpg",0,0
//Break Periods
//Storyboard Layer 0 (Background)
//Storyboard Layer 1 (Fail)
//Storyboard Layer 2 (Pass)
//Storyboard Layer 3 (Foreground)
//Storyboard Sound Samples
//Background Colour Transformations
3,100,163,162,255

[TimingPoints]
7.27304044484471,434.782608695652,4,1,0,100,1,0
2615,431.654676258993,4,1,0,100,1,0
6931,428.571428571429,4,1,0,100,1,0
9931,422.535211267606,4,1,0,100,1,0
13522,416.666666666667,4,1,0,100,1,0
16855,405.405405405405,4,1,0,100,1,0
18293,400,4,1,0,100,1,0
19893,384.615384615385,4,1,0,100,1,0
21451,361.44578313253,4,1,0,100,1,0
23077,352.941176470588,4,1,0,100,1,0
23177,-62.5,4,1,0,100,0,0
25018,-50,4,1,0,100,0,0
26077,250,4,1,0,100,1,0
26077,-50,4,1,0,100,0,0
42327,4000,4,1,0,100,1,0

[HitObjects]
288,184,7,5,0,0:0:0:0:
184,128,442,2,0,P|136:112|80:192,1,120,0|0,0:0|0:0,0:0:0:0:
184,128,877,2,0,P|248:96|416:160,1,240
432,224,1529,1,0,0:0:0:0:
376,320,1746,1,0,0:0:0:0:
280,264,1964,1,0,0:0:0:0:
336,168,2181,1,0,0:0:0:0:
120,152,2615,1,0,0:0:0:0:
120,152,3046,1,0,0:0:0:0:
216,88,3262,1,0,0:0:0:0:
336,72,3478,6,0,P|384:128|368:208,2,120,0|0|0,0:0|0:0|0:0,0:0:0:0:
328,248,4125,1,0,0:0:0:0:
192,168,4341,2,0,P|192:240|248:272,1,120
328,248,4773,1,0,0:0:0:0:
328,248,4881,1,0,0:0:0:0:
328,248,4989,1,0,0:0:0:0:
352,128,5204,5,0,0:0:0:0:
240,216,5420,1,0,0:0:0:0:
216,72,5636,1,0,0:0:0:0:
240,216,5852,1,0,0:0:0:0:
352,128,6068,1,0,0:0:0:0:
352,128,6499,1,0,0:0:0:0:
408,320,6931,6,0,P|296:328|288:296,1,120
176,296,7359,1,0,0:0:0:0:
96,176,7573,1,0,0:0:0:0:
224,112,7788,2,0,P|272:72|416:168,2,240,0|0|0,0:0|0:0|0:0,0:0:0:0:
280,248,8859,1,0,0:0:0:0:
424,256,9073,1,0,0:0:0:0:
280,248,9288,1,0,0:0:0:0:
136,272,9502,2,0,B|184:320|184:320|256:320,1,120
152,120,9931,6,0,L|296:120,1,120
416,120,10353,1,0,0:0:0:0:
352,248,10564,1,0,0:0:0:0:
416,120,10776,1,0,0:0:0:0:
296,40,10987,1,0,0:0:0:0:
248,176,11198,2,0,B|320:176|320:176|320:128,1,120
160,176,11621,1,0,0:0:0:0:
328,176,11832,1,0,0:0:0:0:
160,176,12043,1,0,0:0:0:0:
328,176,12254,1,0,0:0:0:0:
328,176,12466,1,0,0:0:0:0:
160,176,12677,1,0,0:0:0:0:
248,320,12888,2,0,L|248:176,1,120
248,200,13522,5,0,0:0:0:0:
112,96,13730,2,0,P|224:56|336:136,1,240
408,256,14563,2,0,P|344:328|184:296,1,240
88,208,15188,1,0,0:0:0:0:
224,112,15397,1,0,0:0:0:0:
384,168,15813,1,0,0:0:0:0:
216,312,16230,2,0,P|160:352|72:216,1,240
164,203,16855,1,0,0:0:0:0:
336,236,17057,1,0,0:0:0:0:
217,108,17260,1,0,0:0:0:0:
238,282,17463,1,0,0:0:0:0:
323,129,17665,1,0,0:0:0:0:
323,129,17868,1,0,0:0:0:0:
88,88,18293,6,0,L|88:224,1,120
168,352,18693,1,0,0:0:0:0:
168,264,18893,1,0,0:0:0:0:
168,176,19093,1,0,0:0:0:0:
168,88,19293,2,0,L|312:88,1,120
328,240,19893,5,0,0:0:0:0:
320,96,20085,1,0,0:0:0:0:
192,160,20277,1,0,0:0:0:0:
192,160,20469,1,0,0:0:0:0:
136,288,20662,2,0,P|176:328|272:296,2,120,0|0|0,0:0|0:0|0:0,0:0:0:0:
384,144,21451,1,0,0:0:0:0:
96,176,21812,1,0,0:0:0:0:
352,312,22173,1,0,0:0:0:0:
208,312,22354,1,0,0:0:0:0:
280,184,22535,1,0,0:0:0:0:
280,184,22716,1,0,0:0:0:0:
224,88,23077,5,0,0:0:0:0:
88,88,23253,1,0,0:0:0:0:
88,88,23429,2,0,L|232:224,1,192
224,88,23782,2,0,L|80:224,1,192
312,232,24135,1,0,0:0:0:0:
312,232,24312,1,0,0:0:0:0:
96,320,24488,2,0,P|80:192|200:168,2,192,0|0|0,0:0|0:0|0:0,0:0:0:0:
312,232,25018,2,0,B|266:196|232:160|232:160|336:128|336:128|296:80|248:88|248:88|200:112|152:96|152:96|128:128|96:112|96:112|-8:120,1,480
312,232,25547,1,0,0:0:0:0:
304,80,25724,1,0,0:0:0:0:
320,64,25900,1,0,0:0:0:0:
32,64,26077,2,0,P|80:160|320:240,2,360,0|0|0,0:0|0:0|0:0,0:0:0:0:
256,192,26139,12,0,26202,0:0:0:0:
184,232,26202,6,0,L|184:360,1,120
304,128,26389,5,0,0:0:0:0:
224,96,26577,1,0,0:0:0:0:
224,96,26639,1,0,0:0:0:0:
224,96,26702,1,0,0:0:0:0:
248,240,26764,2,0,L|248:24,1,120
136,368,26827,2,0,P|8:128|352:88,1,720
152,288,27327,2,0,P|104:176|352:192,1,480
296,88,27452,5,0,0:0:0:0:
296,88,27514,1,0,0:0:0:0:
296,88,27577,1,0,0:0:0:0:
464,24,27702,1,0,0:0:0:0:
256,192,27827,12,0,27889,0:0:0:0:
32,360,27827,5,0,0:0:0:0:
24,8,27952,1,0,0:0:0:0:
512,256,28014,1,0,0:0:0:0:
256,192,28077,12,0,28139,0:0:0:0:
464,376,28139,5,0,0:0:0:0:
16,152,28202,1,0,0:0:0:0:
504,144,28264,1,0,0:0:0:0:
256,192,28327,12,0,28389,0:0:0:0:
192,16,28389,5,0,0:0:0:0:
320,16,28452,1,0,0:0:0:0:
224,320,28514,1,0,0:0:0:0:
256,192,28577,12,0,28639,0:0:0:0:
176,208,28577,5,0,0:0:0:0:
24,264,28702,1,0,0:0:0:0:
496,80,28764,1,0,0:0:0:0:
488,312,28827,1,0,0:0:0:0:
80,136,28889,2,0,P|168:232|264:184,1,240
256,192,28952,5,0,0:0:0:0:
256,192,29014,1,0,0:0:0:0:
256,192,29077,2,0,P|321:170|88:16,2,600,0|0|0,0:0|0:0|0:0,0:0:0:0:
256,192,29139,12,0,29202,0:0:0:0:
256,192,29264,6,0,L|88:16,2,240,0|0|0,0:0|0:0|0:0,0:0:0:0:
272,112,29389,1,0,0:0:0:0:
424,256,29452,2,0,L|280:272,1,120
256,192,29827,2,0,P|136:216|272:304,3,360,0|0|0|0,0:0|0:0|0:0|0:0,0:0:0:0:
288,304,30452,1,0,0:0:0:0:
395,260,30514,1,0,0:0:0:0:
435,150,30577,1,0,0:0:0:0:
379,48,30639,1,0,0:0:0:0:
265,22,30702,1,0,0:0:0:0:
184,32,30764,1,0,0:0:0:0:
128,88,30827,2,0,P|64:200|176:280,1,240
224,328,31077,2,0,P|304:336|400:8,1,480
264,224,31452,2,0,L|96:240,1,120
360,112,31577,2,0,L|320:-8,3,120,0|0|0|0,0:0|0:0|0:0|0:0,0:0:0:0:
40,256,31827,2,0,L|64:80,1,120
280,80,31952,2,0,L|232:232,1,120
40,256,32077,2,0,L|64:80,1,120
280,80,32202,2,0,L|232:232,1,120
40,256,32327,2,0,L|64:80,1,120
280,80,32452,2,0,L|232:232,1,120
376,320,32577,2,0,L|352:144,1,120
136,144,32702,2,0,L|184:296,1,120
376,320,32827,2,0,L|352:144,1,120
136,144,32952,2,0,L|184:296,1,120
376,320,33077,2,0,L|352:144,1,120
264,256,33139,2,0,L|288:80,1,120
504,80,33264,2,0,L|456:232,1,120
264,256,33389,2,0,L|288:80,1,120
504,80,33514,2,0,L|456:232,1,120
264,256,33639,2,0,L|288:80,1,120
504,80,33764,2,0,L|456:232,1,120
264,256,33827,2,0,L|288:80,1,120
504,80,33952,2,0,L|456:232,1,120
136,168,34077,2,0,L|160:-8,2,120,0|0|0,0:0|0:0|0:0,0:0:0:0:
72,64,34327,5,0,0:0:0:0:
72,64,34452,1,0,0:0:0:0:
32,152,34577,6,0,P|160:376|472:104,1,720
128,360,34702,1,0,0:0:0:0:
64,304,35327,2,0,P|40:160|488:192,1,720
72,72,35452,1,0,0:0:0:0:
168,312,35952,2,0,B|-120:264|8:296,1,240
384,56,36327,2,0,L|424:280,1,120
232,160,36452,1,0,0:0:0:0:
56,144,36577,2,0,L|88:400,1,240
224,344,36827,5,0,0:0:0:0:
328,328,36952,1,0,0:0:0:0:
424,280,37139,1,0,0:0:0:0:
344,232,37327,6,0,L|472:16,2,240,0|0|0,0:0|0:0|0:0,0:0:0:0:
272,192,37702,1,0,0:0:0:0:
272,192,37764,1,0,0:0:0:0:
272,192,37827,1,0,0:0:0:0:
90,189,37952,1,0,0:0:0:0:
94,110,38014,1,0,0:0:0:0:
137,44,38077,1,0,0:0:0:0:
207,7,38139,1,0,0:0:0:0:
286,9,38202,1,0,0:0:0:0:
353,50,38264,1,0,0:0:0:0:
392,120,38327,1,0,0:0:0:0:
408,200,38389,1,0,0:0:0:0:
404,279,38451,1,0,0:0:0:0:
361,345,38514,1,0,0:0:0:0:
291,382,38576,1,0,0:0:0:0:
212,380,38639,1,0,0:0:0:0:
145,339,38701,1,0,0:0:0:0:
106,269,38764,1,0,0:0:0:0:
256,192,38827,12,0,38952,0:0:0:0:
464,312,39077,6,0,P|8:360|464:32,1,1440
256,192,40077,12,0,41577,0:0:0:0:
256,200,40202,5,0,0:0:0:0:
256,200,40327,1,0,0:0:0:0:
256,200,40452,1,0,0:0:0:0:
256,200,40577,1,0,0:0:0:0:
256,200,40702,1,0,0:0:0:0:
256,200,40827,1,0,0:0:0:0:
256,200,40952,1,0,0:0:0:0:
256,200,41077,1,0,0:0:0:0:
256,200,41202,1,0,0:0:0:0:
256,200,41327,1,0,0:0:0:0:
256,200,41452,1,0,0:0:0:0:
144,296,41702,2,0,L|48:56,1,240
168,56,41952,2,0,P|384:64|424:304,1,480
344,352,42327,2,0,L|152:160,1,240
