osu file format v14

[General]
AudioFilename: Kuai Zi Xiong Di - Xiao Ping Guo.mp3
AudioLeadIn: 0
PreviewTime: 124656
Countdown: 1
SampleSet: Normal
StackLeniency: 0.7
Mode: 0
LetterboxInBreaks: 0
WidescreenStoryboard: 0

[Editor]
DistanceSpacing: 1.24
BeatDivisor: 4
GridSize: 4
TimelineZoom: 1

[Metadata]
Title:Xiao Ping Guo
TitleUnicode:小苹果
Artist:CHOPSTICKS BRO.
ArtistUnicode:筷子兄弟
Creator:-N a n a k o-
Version:Apple
Source:OLD BOYS The Way of the Dragon
Tags:Little Apple Brother Kuai Zi Xiong Di 肖央 王太利 老男孩猛龙过江
BeatmapID:453258
BeatmapSetID:186048

[Difficulty]
HPDrainRate:6
CircleSize:4
OverallDifficulty:6
ApproachRate:7
SliderMultiplier:1.8
SliderTickRate:1

[Events]
//Background and Video events
0,0,"1.jpg",0,0
//Break Periods
//Storyboard Layer 0 (Background)
//Storyboard Layer 1 (Fail)
//Storyboard Layer 2 (Pass)
//Storyboard Layer 3 (Foreground)
//Storyboard Sound Samples

[TimingPoints]
17136,480,4,1,1,40,1,0
45936,-80,4,1,0,40,0,0
47856,-100,4,1,1,40,0,1
78576,-100,4,1,1,30,0,0
93456,-100,4,1,1,40,0,0
122736,-80,4,1,0,40,0,0
124656,-100,4,1,1,40,0,1
155376,-100,4,1,0,40,0,0
170736,-100,4,1,1,40,0,1
201456,-100,4,1,1,40,0,0

[Colours]
Combo1 : 240,225,120
Combo2 : 195,120,240
Combo3 : 120,195,240
Combo4 : 255,120,80

[HitObjects]
40,72,17136,6,0,P|88:64|152:84,1,90
212,144,17616,1,8,0:0:0:0:
320,168,17856,1,0,0:0:0:0:
432,136,18096,2,0,L|448:24,1,90
332,78,18576,2,0,L|316:190,1,90,8|0,0:0|0:0,0:0:0:0:
220,216,19056,6,0,P|168:228|108:188,1,90
184,116,19536,2,0,P|236:104|296:144,1,90,8|0,0:0|0:0,0:0:0:0:
312,220,20016,2,0,L|284:348,1,90
196,364,20496,1,8,0:0:0:0:
100,304,20736,1,0,0:0:0:0:
161,223,20976,6,0,P|173:159|157:115,1,90
264,80,21456,2,0,P|252:144|268:188,1,90,8|0,0:0|0:0,0:0:0:0:
344,236,21936,1,0,0:0:0:0:
440,180,22176,1,0,0:0:0:0:
344,236,22416,1,8,0:0:0:0:
440,180,22656,1,0,0:0:0:0:
484,76,22896,6,0,P|420:44|372:52,1,90
338,135,23376,2,0,P|274:167|226:159,1,90,8|0,0:0|0:0,0:0:0:0:
172,96,23856,1,0,0:0:0:0:
88,172,24096,1,0,0:0:0:0:
168,236,24336,2,0,P|172:312|144:348,1,90,8|0,0:0|0:0,0:0:0:0:
272,364,24816,6,0,L|388:316,1,90
384,224,25296,2,0,L|268:272,1,90,8|0,0:0|0:0,0:0:0:0:
192,284,25776,1,0,0:0:0:0:
192,284,26016,1,0,0:0:0:0:
83,251,26256,1,8,0:0:0:0:
83,251,26496,1,0,0:0:0:0:
28,156,26736,6,0,P|36:100|84:64,1,90
113,172,27216,2,0,P|105:228|57:264,1,90,8|0,0:0|0:0,0:0:0:0:
140,348,27696,1,0,0:0:0:0:
248,372,27936,1,0,0:0:0:0:
360,360,28176,1,8,0:0:0:0:
456,300,28416,1,0,0:0:0:0:
488,192,28656,6,0,L|512:80,1,90
400,140,29136,2,0,L|368:28,1,90,8|0,0:0|0:0,0:0:0:0:
268,28,29616,1,0,0:0:0:0:
192,108,29856,1,0,0:0:0:0:
260,196,30096,1,8,0:0:0:0:
180,272,30336,1,0,0:0:0:0:
100,348,30576,6,0,P|36:352|4:332,1,90
94,264,31056,2,0,P|158:260|190:280,1,90,8|0,0:0|0:0,0:0:0:0:
284,312,31536,2,0,L|372:360,1,90
440,272,32016,2,0,L|352:224,1,90,8|0,0:0|0:0,0:0:0:0:
456,172,32496,6,0,P|456:108|416:56,1,90
348,32,32976,1,8,0:0:0:0:
236,44,33216,1,0,0:0:0:0:
160,128,33456,2,0,L|112:40,1,90
40,132,33936,2,0,L|88:220,1,90,8|0,0:0|0:0,0:0:0:0:
136,308,34416,5,0,0:0:0:0:
228,248,34656,1,0,0:0:0:0:
136,308,34896,1,8,0:0:0:0:
228,248,35136,1,0,0:0:0:0:
312,320,35376,2,0,L|400:272,1,90
416,168,35856,2,0,L|328:216,1,90,12|0,0:0|0:0,0:0:0:0:
264,128,36336,6,0,P|240:76|252:40,1,90
148,96,36816,2,0,P|172:148|160:184,1,90,8|0,0:0|0:0,0:0:0:0:
88,260,37296,1,0,0:0:0:0:
152,352,37536,1,0,0:0:0:0:
240,284,37776,1,8,0:0:0:0:
316,364,38016,1,0,0:0:0:0:
424,336,38256,6,0,L|472:244,1,90
388,176,38736,2,0,L|340:268,1,90,8|0,0:0|0:0,0:0:0:0:
240,284,39216,1,0,0:0:0:0:
136,244,39456,1,0,0:0:0:0:
240,204,39696,1,12,0:0:0:0:
140,160,39936,1,0,0:0:0:0:
240,112,40176,6,0,L|328:72,1,90
420,124,40656,2,0,L|332:164,1,90,8|0,0:0|0:0,0:0:0:0:
412,244,41136,1,0,0:0:0:0:
368,348,41376,1,0,0:0:0:0:
260,372,41616,1,8,0:0:0:0:
156,328,41856,1,0,0:0:0:0:
112,224,42096,6,0,P|96:184|112:128,1,90
212,104,42576,2,0,P|228:144|212:200,1,90,8|0,0:0|0:0,0:0:0:0:
219,188,42936,1,0,0:0:0:0:
219,188,43056,1,0,0:0:0:0:
284,280,43296,1,0,0:0:0:0:
396,280,43536,2,0,P|436:236|436:172,1,90,12|0,0:0|0:0,0:0:0:0:
360,128,44016,6,0,L|280:52,1,90
192,24,44496,1,8,0:0:0:0:
84,56,44736,1,0,0:0:0:0:
32,156,44976,2,0,P|28:232|56:260,1,90
128,304,45456,1,8,0:0:0:0:
204,220,45696,1,0,0:0:0:0:
312,280,45936,6,2,L|444:328,1,112.5
480,208,46416,2,2,L|348:160,1,112.5,10|2,0:0|0:0,0:0:0:0:
248,168,46896,2,2,L|116:216,1,112.5
68,104,47376,2,2,L|200:56,1,112.5,10|2,0:0|0:0,0:0:0:0:
284,92,47856,6,0,P|348:64|372:32,1,90,4|0,0:0|0:0,0:0:0:0:
428,140,48336,2,0,P|364:168|340:200,1,90,8|0,0:0|0:0,0:0:0:0:
360,292,48816,1,0,0:0:0:0:
268,356,49056,1,0,0:0:0:0:
156,340,49296,1,8,0:0:0:0:
76,260,49536,1,0,0:0:0:0:
60,148,49776,6,0,L|164:120,1,90
88,28,50256,2,0,L|192:0,1,90,8|0,0:0|0:0,0:0:0:0:
244,92,50736,1,0,0:0:0:0:
348,52,50976,1,0,0:0:0:0:
388,156,51216,1,8,0:0:0:0:
488,108,51456,1,0,0:0:0:0:
508,216,51696,6,0,L|488:328,1,90,4|0,0:0|0:0,0:0:0:0:
384,332,52176,1,8,0:0:0:0:
316,244,52416,1,0,0:0:0:0:
388,156,52656,2,0,P|356:88|308:76,1,90
248,132,53136,1,8,0:0:0:0:
164,60,53376,1,0,0:0:0:0:
80,132,53616,6,0,L|120:240,1,90
36,300,54096,2,0,L|-4:192,1,90,8|0,0:0|0:0,0:0:0:0:
4,104,54576,1,0,0:0:0:0:
112,80,54816,1,0,0:0:0:0:
220,100,55056,1,8,0:0:0:0:
312,164,55296,1,0,0:0:0:0:
380,252,55536,6,0,P|428:216|436:180,1,90
367,101,56016,2,0,P|319:137|311:173,1,90,8|0,0:0|0:0,0:0:0:0:
380,252,56496,1,0,0:0:0:0:
336,356,56736,1,0,0:0:0:0:
228,384,56976,1,8,0:0:0:0:
128,340,57216,1,0,0:0:0:0:
88,240,57456,6,0,L|0:212,1,90,4|0,0:0|0:0,0:0:0:0:
24,104,57936,2,0,L|112:132,1,90,8|0,0:0|0:0,0:0:0:0:
200,68,58416,1,0,0:0:0:0:
296,124,58656,1,0,0:0:0:0:
316,232,58896,1,8,0:0:0:0:
248,320,59136,1,0,0:0:0:0:
140,340,59376,6,0,P|68:344|40:336,1,90
0,248,59856,2,0,P|72:244|100:252,1,90,8|0,0:0|0:0,0:0:0:0:
188,300,60336,1,0,0:0:0:0:
300,292,60576,1,0,0:0:0:0:
360,200,60816,1,8,0:0:0:0:
396,92,61056,6,0,P|476:140|456:236,1,180
408,312,61776,2,0,L|334:234,1,90,8|0,0:0|0:0,0:0:0:0:
236,276,62256,2,0,L|140:240,1,90
128,356,62736,2,0,L|32:352,1,90,8|0,0:0|0:0,0:0:0:0:
48,240,63216,6,0,P|68:180|56:140,1,90,4|0,0:0|0:0,0:0:0:0:
96,48,63696,1,8,0:0:0:0:
204,20,63936,1,0,0:0:0:0:
304,72,64176,2,0,L|404:40,1,90
460,132,64656,2,0,L|360:164,1,90,8|0,0:0|0:0,0:0:0:0:
344,268,65136,6,0,P|336:312|352:360,1,90
236,348,65616,2,0,P|248:305|240:261,1,90,8|0,0:0|0:0,0:0:0:0:
128,292,66096,2,0,L|16:236,2,90,0|0|8,0:0|0:0|0:0,0:0:0:0:
240,261,66816,1,0,0:0:0:0:
296,164,67056,6,0,L|384:96,1,90,4|0,0:0|0:0,0:0:0:0:
460,172,67536,2,0,L|372:240,1,90,8|0,0:0|0:0,0:0:0:0:
309,302,68016,2,0,P|255:288|239:236,1,90
140,312,68496,2,0,P|109:236|128:209,1,90,8|0,0:0|0:0,0:0:0:0:
132,128,68976,5,4,0:0:0:0:
212,52,69216,1,0,0:0:0:0:
324,36,69456,1,8,0:0:0:0:
428,76,69696,1,0,0:0:0:0:
480,176,69936,2,0,P|484:244|460:288,1,90
380,320,70416,2,0,P|376:252|400:208,1,90,8|0,0:0|0:0,0:0:0:0:
320,136,70896,6,0,L|228:120,1,90
140,184,71376,2,0,L|24:164,1,90,8|0,0:0|0:0,0:0:0:0:
44,280,71856,1,0,0:0:0:0:
124,356,72096,1,0,0:0:0:0:
232,376,72336,1,8,0:0:0:0:
344,368,72576,1,0,0:0:0:0:
440,312,72816,6,0,L|476:196,1,90,4|0,0:0|0:0,0:0:0:0:
356,208,73296,2,0,L|332:104,1,90,8|0,0:0|0:0,0:0:0:0:
268,212,73776,1,0,0:0:0:0:
168,260,74016,1,0,0:0:0:0:
68,212,74256,1,8,0:0:0:0:
56,100,74496,1,0,0:0:0:0:
140,28,74736,6,0,L|244:8,1,90
284,108,75216,2,0,L|384:92,1,90,8|0,0:0|0:0,0:0:0:0:
440,184,75696,2,0,L|340:200,1,90
360,308,76176,2,0,L|256:328,1,90,8|0,0:0|0:0,0:0:0:0:
168,284,76656,6,0,P|112:264|52:284,1,90
72,156,77136,2,0,P|128:176|188:156,1,90,8|0,0:0|0:0,0:0:0:0:
260,124,77616,2,0,L|220:232,1,90
336,172,78096,2,0,L|376:64,1,90,8|0,0:0|0:0,0:0:0:0:
456,156,78576,6,0,P|464:216|444:256,2,90,4|0|8,0:0|0:0|0:0,0:0:0:0:
372,228,79296,1,0,0:0:0:0:
380,260,79416,1,0,0:0:0:0:
388,292,79536,1,0,0:0:0:0:
292,348,79776,2,0,L|196:324,1,90,0|8,0:0|0:0,0:0:0:0:
96,296,80256,1,0,0:0:0:0:
68,188,80496,6,0,L|164:212,1,90
240,136,80976,2,0,L|144:112,1,90,8|0,0:0|0:0,0:0:0:0:
256,312,81696,5,0,0:0:0:0:
340,240,81936,1,8,0:0:0:0:
225,47,82416,6,0,L|241:147,2,90,0|0|8,0:0|0:0|0:0,0:0:0:0:
112,52,83136,1,0,0:0:0:0:
112,52,83256,1,0,0:0:0:0:
112,52,83376,1,0,0:0:0:0:
68,156,83616,1,0,0:0:0:0:
84,268,83856,1,8,0:0:0:0:
176,332,84096,1,0,0:0:0:0:
284,352,84336,6,0,P|344:360|396:352,1,90
432,260,84816,2,0,P|372:252|320:260,1,90,8|0,0:0|0:0,0:0:0:0:
256,48,85536,5,0,0:0:0:0:
196,144,85776,1,8,0:0:0:0:
16,276,86256,6,0,P|76:280|120:268,1,90
136,268,86616,1,0,0:0:0:0:
164,256,86736,1,8,0:0:0:0:
260,312,86976,1,0,0:0:0:0:
364,276,87216,2,0,L|396:164,1,90
308,112,87696,2,0,L|276:224,1,90,8|0,0:0|0:0,0:0:0:0:
176,164,88176,6,0,L|80:136,2,90,0|0|8,0:0|0:0|0:0,0:0:0:0:
256,84,88896,1,0,0:0:0:0:
356,32,89136,1,0,0:0:0:0:
436,108,89376,1,0,0:0:0:0:
336,160,89616,1,8,0:0:0:0:
244,364,90096,6,0,P|272:376|352:352,1,90
432,328,90576,1,8,0:0:0:0:
488,236,90816,1,0,0:0:0:0:
476,208,90936,1,0,0:0:0:0:
464,180,91056,1,0,0:0:0:0:
388,96,91296,1,0,0:0:0:0:
284,140,91536,1,8,0:0:0:0:
240,244,91776,1,0,0:0:0:0:
232,356,92016,6,0,L|120:312,1,90
156,211,92496,2,0,L|268:255,1,90,8|0,0:0|0:0,0:0:0:0:
360,56,93216,5,0,0:0:0:0:
384,164,93456,1,8,0:0:0:0:
456,376,93936,6,0,P|480:320|472:268,1,90,4|0,0:0|0:0,0:0:0:0:
384,236,94416,2,0,P|388:281|408:320,1,90,8|0,0:0|0:0,0:0:0:0:
296,320,94896,2,0,L|176:368,1,90
132,276,95376,2,0,L|252:228,1,90,8|0,0:0|0:0,0:0:0:0:
180,136,95856,5,0,0:0:0:0:
260,60,96096,1,0,0:0:0:0:
372,68,96336,1,8,0:0:0:0:
452,144,96576,1,0,0:0:0:0:
460,256,96816,2,0,L|504:372,1,90
384,368,97296,2,0,L|340:252,1,90,8|0,0:0|0:0,0:0:0:0:
240,304,97776,6,0,P|188:308|132:296,2,90,0|0|8,0:0|0:0|0:0,0:0:0:0:
352,283,98496,1,0,0:0:0:0:
424,196,98736,2,0,L|476:104,1,90
356,112,99216,2,0,L|324:16,1,90,8|0,0:0|0:0,0:0:0:0:
220,64,99696,6,0,P|160:72|104:56,2,90,0|0|8,0:0|0:0|0:0,0:0:0:0:
268,164,100416,1,0,0:0:0:0:
160,192,100656,2,0,P|108:204|68:244,2,90,0|0|8,0:0|0:0|0:0,0:0:0:0:
228,280,101376,1,0,0:0:0:0:
324,336,101616,6,0,L|444:316,1,90
372,216,102096,2,0,L|416:124,1,90,8|0,0:0|0:0,0:0:0:0:
300,108,102576,1,0,0:0:0:0:
192,136,102816,1,0,0:0:0:0:
124,224,103056,1,8,0:0:0:0:
96,332,103296,1,0,0:0:0:0:
16,256,103536,6,0,L|0:164,1,90
108,135,104016,2,0,L|124:227,1,90,8|0,0:0|0:0,0:0:0:0:
208,296,104496,2,0,P|280:300|320:280,2,90,0|0|8,0:0|0:0|0:0,0:0:0:0:
232,188,105216,1,0,0:0:0:0:
256,80,105456,6,0,L|368:112,1,90
318,212,105936,2,0,L|206:180,1,90,8|0,0:0|0:0,0:0:0:0:
248,300,106416,2,0,L|152:328,1,90
52,340,106896,2,0,L|88:232,1,90,8|0,0:0|0:0,0:0:0:0:
32,152,107376,6,0,L|120:112,1,90
216,160,107856,1,8,0:0:0:0:
260,56,108096,1,0,0:0:0:0:
344,128,108336,2,0,L|468:104,1,90
492,204,108816,1,8,0:0:0:0:
468,312,109056,1,0,0:0:0:0:
360,340,109296,6,0,P|336:284|356:220,1,90
228,244,109776,2,0,P|252:300|232:364,1,90,8|0,0:0|0:0,0:0:0:0:
338,256,110256,1,0,0:0:0:0:
428,192,110496,1,0,0:0:0:0:
338,256,110736,1,8,0:0:0:0:
428,192,110976,1,0,0:0:0:0:
472,88,111216,6,0,P|420:56|372:72,1,90
308,132,111696,2,0,P|263:131|229:103,1,90,8|0,0:0|0:0,0:0:0:0:
124,72,112176,2,0,P|60:92|36:128,2,90,0|0|12,0:0|0:0|0:0,0:0:0:0:
160,176,112896,1,0,0:0:0:0:
240,252,113136,6,0,L|336:196,1,90
392,288,113616,2,0,L|508:268,1,90,8|0,0:0|0:0,0:0:0:0:
512,164,114096,1,0,0:0:0:0:
468,60,114336,1,0,0:0:0:0:
360,40,114576,1,8,0:0:0:0:
260,88,114816,1,0,0:0:0:0:
164,28,115056,6,0,P|136:100|144:140,1,90
232,170,115536,2,0,P|260:98|252:58,1,90,8|0,0:0|0:0,0:0:0:0:
260,88,115896,1,0,0:0:0:0:
260,88,116016,1,0,0:0:0:0:
360,40,116256,1,0,0:0:0:0:
448,108,116496,2,0,P|460:160|440:212,1,90,12|0,0:0|0:0,0:0:0:0:
360,260,116976,6,0,L|252:296,1,90
184,356,117456,2,0,L|96:324,1,90,8|0,0:0|0:0,0:0:0:0:
4,256,117936,1,0,0:0:0:0:
24,148,118176,1,0,0:0:0:0:
116,88,118416,1,8,0:0:0:0:
228,88,118656,1,0,0:0:0:0:
312,160,118896,6,0,L|288:272,1,90
209,176,119376,2,0,L|233:64,1,90,8|0,0:0|0:0,0:0:0:0:
340,76,119856,1,0,0:0:0:0:
420,156,120096,1,0,0:0:0:0:
420,268,120336,2,0,P|376:328|324:328,1,90,12|0,0:0|0:0,0:0:0:0:
252,340,120816,5,0,0:0:0:0:
148,304,121056,1,0,0:0:0:0:
36,288,121296,2,0,L|0:172,1,90,8|0,0:0|0:0,0:0:0:0:
84,120,121776,2,0,L|120:236,1,90
220,232,122256,1,8,0:0:0:0:
284,140,122496,1,0,0:0:0:0:
392,200,122736,6,2,P|444:204|492:256,1,112.5
388,328,123216,2,2,P|336:324|280:252,1,112.5,10|2,0:0|0:0,0:0:0:0:
160,332,123696,2,2,L|68:236,1,112.5
108,120,124176,2,2,L|200:216,1,112.5,10|2,0:0|0:0,0:0:0:0:
272,120,124656,6,0,P|300:68|292:16,1,90,4|0,0:0|0:0,0:0:0:0:
396,96,125136,2,0,P|368:148|384:196,1,90,8|0,0:0|0:0,0:0:0:0:
416,280,125616,2,0,L|320:264,1,90
232,324,126096,1,8,0:0:0:0:
220,212,126336,1,0,0:0:0:0:
128,276,126576,6,0,L|20:332,1,90
32,208,127056,2,0,L|140:156,1,90,8|0,0:0|0:0,0:0:0:0:
220,212,127536,2,0,P|272:160|276:116,2,90,0|0|8,0:0|0:0|0:0,0:0:0:0:
308,280,128256,1,0,0:0:0:0:
420,284,128496,6,0,L|464:188,1,90,4|0,0:0|0:0,0:0:0:0:
360,148,128976,2,0,L|352:20,1,90,8|0,0:0|0:0,0:0:0:0:
248,24,129456,1,0,0:0:0:0:
136,36,129696,1,0,0:0:0:0:
80,132,129936,1,8,0:0:0:0:
100,240,130176,1,0,0:0:0:0:
180,320,130416,6,0,P|148:372|96:384,2,90,0|0|8,0:0|0:0|0:0,0:0:0:0:
284,356,131136,1,0,0:0:0:0:
388,312,131376,2,0,L|448:236,1,90
384,148,131856,2,0,L|324:224,1,90,8|0,0:0|0:0,0:0:0:0:
232,272,132336,5,0,0:0:0:0:
128,236,132576,1,0,0:0:0:0:
44,164,132816,1,8,0:0:0:0:
16,56,133056,1,0,0:0:0:0:
44,164,133296,2,0,L|64:280,1,90
172,252,133776,2,0,L|224:344,1,90,8|0,0:0|0:0,0:0:0:0:
328,348,134256,5,4,0:0:0:0:
440,348,134496,1,0,0:0:0:0:
492,248,134736,1,8,0:0:0:0:
380,248,134976,1,0,0:0:0:0:
312,160,135216,2,0,P|292:104|316:64,1,90
196,44,135696,2,0,P|216:100|192:140,1,90,8|0,0:0|0:0,0:0:0:0:
100,88,136176,5,0,0:0:0:0:
20,164,136416,1,0,0:0:0:0:
28,276,136656,1,8,0:0:0:0:
124,336,136896,1,0,0:0:0:0:
232,364,137136,2,0,P|280:368|332:352,1,90
408,288,137616,1,8,0:0:0:0:
332,208,137856,6,0,P|352:144|476:152,1,180
400,32,138576,2,0,L|276:28,1,90,8|0,0:0|0:0,0:0:0:0:
204,64,139056,1,0,0:0:0:0:
164,168,139296,1,0,0:0:0:0:
192,276,139536,1,8,0:0:0:0:
284,336,139776,1,0,0:0:0:0:
392,312,140016,6,0,L|504:284,1,90,4|0,0:0|0:0,0:0:0:0:
412,200,140496,2,0,L|524:172,1,90,8|0,0:0|0:0,0:0:0:0:
460,72,140976,1,0,0:0:0:0:
360,24,141216,1,0,0:0:0:0:
248,16,141456,1,8,0:0:0:0:
136,24,141696,1,0,0:0:0:0:
36,72,141936,6,0,L|64:196,1,90
164,128,142416,2,0,L|192:248,1,90,8|0,0:0|0:0,0:0:0:0:
288,172,142896,2,0,P|340:164|388:184,2,90,0|0|8,0:0|0:0|0:0,0:0:0:0:
292,284,143616,1,0,0:0:0:0:
216,364,143856,6,0,L|108:344,1,90,4|0,0:0|0:0,0:0:0:0:
44,276,144336,1,8,0:0:0:0:
127,347,144576,1,0,0:0:0:0:
188,256,144816,2,0,L|228:148,1,90
324,200,145296,2,0,L|280:312,1,90,8|0,0:0|0:0,0:0:0:0:
216,364,145776,5,0,0:0:0:0:
104,368,146016,1,0,0:0:0:0:
8,312,146256,1,8,0:0:0:0:
0,200,146496,1,0,0:0:0:0:
52,104,146736,2,0,P|96:36|124:32,1,90
184,108,147216,2,0,P|140:176|112:180,1,90,8|0,0:0|0:0,0:0:0:0:
212,260,147696,6,0,L|316:212,1,90
392,172,148176,1,8,0:0:0:0:
352,68,148416,1,0,0:0:0:0:
240,48,148656,2,0,P|192:24|120:36,1,90
94,120,149136,2,0,L|206:104,1,90,8|0,0:0|0:0,0:0:0:0:
120,200,149616,5,4,0:0:0:0:
140,308,149856,1,0,0:0:0:0:
240,360,150096,1,8,0:0:0:0:
352,364,150336,1,0,0:0:0:0:
456,324,150576,2,0,P|500:288|464:160,1,180,0|8,0:0|0:0,0:0:0:0:
486,175,151296,1,0,0:0:0:0:
376,188,151536,6,0,L|340:68,1,90
240,108,152016,2,0,L|136:40,1,90,8|0,0:0|0:0,0:0:0:0:
108,156,152496,2,0,L|-20:160,1,90
72,260,152976,2,0,L|36:348,1,90,8|0,0:0|0:0,0:0:0:0:
148,344,153456,6,0,P|228:356|268:332,1,90
324,288,153936,2,0,P|244:276|204:300,1,90,8|0,0:0|0:0,0:0:0:0:
184,180,154416,2,0,P|168:116|204:68,1,90
276,44,154896,2,0,P|292:108|260:156,1,90,8|0,0:0|0:0,0:0:0:0:
176,96,155376,5,4,0:0:0:0:
100,180,155616,1,0,0:0:0:0:
112,208,155736,1,0,0:0:0:0:
124,236,155856,1,8,0:0:0:0:
192,324,156096,1,0,0:0:0:0:
296,300,156336,2,0,L|412:348,1,90,2|2,0:0|0:0,0:0:0:0:
464,264,156816,2,0,L|364:224,1,90,10|2,0:0|0:0,0:0:0:0:
280,184,157296,5,0,0:0:0:0:
336,88,157536,1,0,0:0:0:0:
328,60,157656,1,0,0:0:0:0:
320,32,157776,1,8,0:0:0:0:
208,28,158016,1,0,0:0:0:0:
104,72,158256,2,0,P|92:144|124:184,1,90,2|2,0:0|0:0,0:0:0:0:
184,232,158736,2,0,P|196:160|168:120,1,90,10|2,0:0|0:0,0:0:0:0:
296,108,159216,5,4,0:0:0:0:
396,160,159456,1,0,0:0:0:0:
388,188,159576,1,0,0:0:0:0:
380,216,159696,1,8,0:0:0:0:
448,304,159936,1,0,0:0:0:0:
340,336,160176,2,0,L|232:284,1,90,2|2,0:0|0:0,0:0:0:0:
271,185,160656,2,0,L|163:133,1,90,10|2,0:0|0:0,0:0:0:0:
96,88,161136,5,0,0:0:0:0:
16,164,161376,1,0,0:0:0:0:
28,192,161496,1,0,0:0:0:0:
40,220,161616,1,8,0:0:0:0:
144,252,161856,1,0,0:0:0:0:
220,332,162096,2,0,P|152:368|108:364,1,90,2|2,0:0|0:0,0:0:0:0:
64,288,162576,2,0,P|132:252|176:256,1,90,10|2,0:0|0:0,0:0:0:0:
244,204,163056,5,4,0:0:0:0:
248,92,163296,1,0,0:0:0:0:
280,80,163416,1,0,0:0:0:0:
312,68,163536,1,8,0:0:0:0:
420,100,163776,1,0,0:0:0:0:
468,200,164016,2,0,L|420:300,1,90,2|2,0:0|0:0,0:0:0:0:
316,296,164496,2,0,L|364:200,1,90,10|2,0:0|0:0,0:0:0:0:
244,204,164976,5,0,0:0:0:0:
164,280,165216,1,0,0:0:0:0:
132,276,165336,1,0,0:0:0:0:
100,272,165456,1,8,0:0:0:0:
36,180,165696,1,0,0:0:0:0:
124,112,165936,2,0,P|128:64|164:24,1,90,2|2,0:0|0:0,0:0:0:0:
264,12,166416,2,0,P|260:56|224:100,1,90,10|2,0:0|0:0,0:0:0:0:
244,204,166896,5,4,0:0:0:0:
296,304,167136,1,0,0:0:0:0:
328,308,167256,1,0,0:0:0:0:
360,312,167376,1,8,0:0:0:0:
480,300,167616,1,0,0:0:0:0:
504,192,167856,2,0,L|468:72,1,90,2|2,0:0|0:0,0:0:0:0:
388,172,168336,2,0,L|352:52,1,90,10|2,0:0|0:0,0:0:0:0:
260,40,168816,5,0,0:0:0:0:
164,100,169056,1,0,0:0:0:0:
176,128,169176,1,0,0:0:0:0:
188,156,169296,1,8,0:0:0:0:
128,248,169536,1,0,0:0:0:0:
196,336,169776,2,8,P|260:352|308:316,1,90,10|10,0:0|0:0,0:0:0:0:
392,336,170256,1,12,0:0:0:0:
404,308,170376,1,0,0:0:0:0:
416,280,170496,1,0,0:0:0:0:
428,252,170616,1,0,0:0:0:0:
440,224,170736,6,0,P|456:164|436:112,1,90,4|0,0:0|0:0,0:0:0:0:
348,92,171216,2,0,P|332:152|352:204,1,90,8|0,0:0|0:0,0:0:0:0:
268,264,171696,2,0,L|148:312,1,90
88,236,172176,2,0,L|204:192,1,90,8|0,0:0|0:0,0:0:0:0:
124,104,172656,5,0,0:0:0:0:
200,28,172896,1,0,0:0:0:0:
276,112,173136,1,8,0:0:0:0:
368,48,173376,1,0,0:0:0:0:
436,136,173616,2,0,P|456:184|432:236,1,90
436,248,173976,1,0,0:0:0:0:
416,272,174096,1,8,0:0:0:0:
316,324,174336,1,0,0:0:0:0:
212,288,174576,6,0,L|88:328,1,90,4|0,0:0|0:0,0:0:0:0:
44,236,175056,1,8,0:0:0:0:
104,140,175296,1,0,0:0:0:0:
208,176,175536,2,0,L|336:208,1,90
376,120,176016,2,0,L|252:88,1,90,8|0,0:0|0:0,0:0:0:0:
208,20,176496,5,0,0:0:0:0:
96,36,176736,1,0,0:0:0:0:
12,112,176976,1,8,0:0:0:0:
4,224,177216,1,0,0:0:0:0:
104,180,177456,2,0,L|220:220,2,90,0|0|8,0:0|0:0|0:0,0:0:0:0:
72,288,178176,1,0,0:0:0:0:
160,356,178416,6,0,P|228:380|280:356,1,90
328,304,178896,2,0,P|260:280|208:304,1,90,8|0,0:0|0:0,0:0:0:0:
168,204,179376,1,0,0:0:0:0:
212,100,179616,1,0,0:0:0:0:
300,172,179856,1,8,0:0:0:0:
388,100,180096,1,0,0:0:0:0:
460,188,180336,6,0,L|428:304,1,90,4|0,0:0|0:0,0:0:0:0:
328,304,180816,2,0,L|364:184,1,90,8|0,0:0|0:0,0:0:0:0:
248,252,181296,2,0,P|180:272|108:172,1,180,0|8,0:0|0:0,0:0:0:0:
84,92,182016,1,0,0:0:0:0:
184,44,182256,6,0,L|300:20,1,90
252,136,182736,2,0,L|364:164,1,90,8|0,0:0|0:0,0:0:0:0:
340,268,183216,1,0,0:0:0:0:
448,244,183456,1,0,0:0:0:0:
508,148,183696,1,8,0:0:0:0:
484,40,183936,6,0,P|388:36|360:128,1,180
264,168,184656,2,0,L|144:112,1,90,8|0,0:0|0:0,0:0:0:0:
100,204,185136,2,0,L|220:260,1,90
248,332,185616,1,8,0:0:0:0:
360,344,185856,1,0,0:0:0:0:
464,300,186096,6,0,L|480:168,1,90,4|0,0:0|0:0,0:0:0:0:
368,248,186576,2,0,L|324:136,1,90,8|0,0:0|0:0,0:0:0:0:
228,128,187056,1,0,0:0:0:0:
132,180,187296,1,0,0:0:0:0:
32,132,187536,1,8,0:0:0:0:
8,24,187776,1,0,0:0:0:0:
32,132,188016,6,0,L|12:252,1,90
116,268,188496,2,0,L|136:152,1,90,8|0,0:0|0:0,0:0:0:0:
220,112,188976,2,0,P|260:96|312:124,1,90
320,136,189336,1,0,0:0:0:0:
332,164,189456,1,8,0:0:0:0:
396,256,189696,1,0,0:0:0:0:
488,188,189936,6,0,L|516:64,1,90,4|0,0:0|0:0,0:0:0:0:
440,12,190416,2,0,L|412:136,1,90,8|0,0:0|0:0,0:0:0:0:
328,36,190896,2,0,P|232:20|152:88,1,180,0|8,0:0|0:0,0:0:0:0:
104,156,191616,1,0,0:0:0:0:
136,264,191856,6,0,L|252:240,1,90
300,328,192336,2,0,P|368:296|404:176,1,180,8|0,0:0|0:0,0:0:0:0:
416,92,193056,1,0,0:0:0:0:
320,36,193296,1,8,0:0:0:0:
208,44,193536,1,0,0:0:0:0:
124,116,193776,6,0,L|12:148,1,90
20,252,194256,2,0,L|132:220,1,90,8|0,0:0|0:0,0:0:0:0:
144,332,194736,1,0,0:0:0:0:
256,340,194976,1,0,0:0:0:0:
364,304,195216,1,8,0:0:0:0:
432,216,195456,1,0,0:0:0:0:
448,104,195696,6,0,L|464:-8,1,90,4|0,0:0|0:0,0:0:0:0:
352,40,196176,2,0,P|268:12|168:56,1,180,8|0,0:0|0:0,0:0:0:0:
88,96,196896,1,0,0:0:0:0:
40,196,197136,1,8,0:0:0:0:
72,304,197376,1,0,0:0:0:0:
176,348,197616,6,0,L|288:376,1,90
248,260,198096,2,0,L|360:288,1,90,8|0,0:0|0:0,0:0:0:0:
312,172,198576,2,0,L|200:144,1,90
276,52,199056,2,0,L|164:24,1,90,8|0,0:0|0:0,0:0:0:0:
80,64,199536,6,0,P|64:108|88:160,1,90
180,192,200016,2,0,P|196:148|172:96,1,90,8|0,0:0|0:0,0:0:0:0:
292,128,200496,2,0,L|412:160,1,90
436,248,200976,2,0,L|316:216,1,90,8|0,0:0|0:0,0:0:0:0:
268,300,201456,6,0,P|236:372|196:380,2,90,4|0|8,0:0|0:0|0:0,0:0:0:0:
192,220,202176,1,0,0:0:0:0:
100,284,202416,2,0,L|0:236,1,90
4,136,202896,1,8,0:0:0:0:
196,24,203376,5,0,0:0:0:0:
260,116,203616,1,0,0:0:0:0:
372,124,203856,1,8,0:0:0:0:
460,56,204096,1,0,0:0:0:0:
484,164,204336,2,0,L|452:280,1,90
360,304,204816,1,8,0:0:0:0:
136,320,205296,6,0,L|24:352,2,90,0|0|8,0:0|0:0|0:0,0:0:0:0:
240,364,206016,1,0,0:0:0:0:
332,300,206256,2,0,P|388:288|444:320,1,90
512,360,206736,1,8,0:0:0:0:
432,152,207216,6,0,L|412:36,2,90,0|0|8,0:0|0:0|0:0,0:0:0:0:
356,232,207936,1,0,0:0:0:0:
256,184,208176,1,0,0:0:0:0:
144,176,208416,1,0,0:0:0:0:
40,220,208656,1,12,0:0:0:0:
