osu file format v14

[General]
AudioFilename: Choche Flowers~[1].mp3
AudioLeadIn: 0
PreviewTime: -1
Countdown: 1
SampleSet: Normal
StackLeniency: 0.7
Mode: 0
LetterboxInBreaks: 1
WidescreenStoryboard: 0

[Editor]
DistanceSpacing: 1
BeatDivisor: 4
GridSize: 4
TimelineZoom: 1

[Metadata]
Title:Choche Ultimate Compilation
TitleUnicode:Choche Ultimate Compilation
Artist:CHOCHE 007
ArtistUnicode:CHOCHE 007
Creator:Revengexsoyah
Version:Yuuki Katsuki’s Choche Flowers
Source:
Tags:
BeatmapID:769136
BeatmapSetID:348455

[Difficulty]
HPDrainRate:7
CircleSize:4
OverallDifficulty:7
ApproachRate:9
SliderMultiplier:2.3
SliderTickRate:2

[Events]
//Background and Video events
0,0,"flowers.jpg",0,0
//Break Periods
//Storyboard Layer 0 (Background)
//Storyboard Layer 1 (Fail)
//Storyboard Layer 2 (Pass)
//Storyboard Layer 3 (Foreground)
//Storyboard Sound Samples

[TimingPoints]
86,346.820809248555,4,1,0,30,1,0

[HitObjects]
72,48,86,5,0,0:0:0:0:
184,80,259,1,0,0:0:0:0:
100,160,432,1,0,0:0:0:0:
204,208,606,1,0,0:0:0:0:
300,144,779,2,0,B|343:103|321:18|321:18,1,115,0|0,0:3|0:3,0:3:0:0:
392,132,1126,2,0,L|462:234,1,115
364,296,1473,5,0,0:0:0:0:
364,296,1646,1,0,0:0:0:0:
252,324,1820,1,0,0:0:0:0:
180,232,1993,1,0,0:0:0:0:
68,204,2166,2,0,L|100:184,1,28.75
68,172,2253,2,0,L|108:160,1,28.75
80,140,2340,2,0,L|120:148,1,28.75
104,116,2427,2,0,L|140:140,1,28.75
132,104,2513,2,0,B|260:92|212:196|356:164,1,230
296,60,3033,5,0,0:0:0:0:
408,84,3207,2,0,L|304:156,1,115
428,176,3554,2,0,L|324:248,1,115
444,280,3901,2,0,L|340:352,1,115
256,192,4247,12,0,5288,0:0:0:0:
295,253,5808,5,0,0:0:0:0:
185,192,5981,1,0,0:0:0:0:
291,121,6155,1,0,0:0:0:0:
237,277,6502,5,0,0:0:0:0:
196,132,6675,1,0,0:0:0:0:
345,162,6849,1,0,0:0:0:0:
175,256,7195,5,0,0:0:0:0:
245,92,7368,1,0,0:0:0:0:
360,231,7542,1,0,0:0:0:0:
144,197,7889,5,0,0:0:0:0:
309,98,8062,1,0,0:0:0:0:
322,292,8236,1,0,0:0:0:0:
108,112,8583,5,0,0:0:0:0:
396,113,8756,1,0,0:0:0:0:
263,372,8930,1,0,0:0:0:0:
256,44,9276,5,0,0:0:0:0:
391,279,9449,1,0,0:0:0:0:
100,283,9623,1,0,0:0:0:0:
393,96,9970,5,0,0:0:0:0:
261,353,10143,1,0,0:0:0:0:
92,117,10317,1,0,0:0:0:0:
344,156,10664,5,0,0:0:0:0:
412,236,10837,1,0,0:0:0:0:
412,236,11010,1,0,0:0:0:0:
316,276,11184,1,0,0:0:0:0:
224,232,11357,1,0,0:0:0:0:
224,232,11531,1,0,0:0:0:0:
256,136,11704,1,0,0:0:0:0:
448,56,12051,5,0,0:0:0:0:
428,156,12224,1,0,0:0:0:0:
344,92,12398,1,0,0:0:0:0:
483,251,12744,5,0,0:0:0:0:
394,300,12917,1,0,0:0:0:0:
389,195,13091,1,0,0:0:0:0:
260,356,13438,5,0,0:0:0:0:
176,297,13611,1,0,0:0:0:0:
269,246,13785,1,0,0:0:0:0:
64,224,14132,5,0,0:0:0:0:
84,123,14305,1,0,0:0:0:0:
172,180,14479,1,0,0:0:0:0:
312,40,14825,5,0,0:0:0:0:
416,48,14999,1,0,0:0:0:0:
488,120,15172,2,0,B|460:172|460:172|360:200|360:200|308:256,1,230
412,284,15692,1,0,0:0:0:0:
324,336,15866,1,0,0:0:0:0:
224,304,16039,2,0,L|224:256,1,28.75
200,288,16126,2,0,L|200:332,1,28.75
176,304,16213,2,0,L|176:252,1,28.75
152,288,16299,2,0,L|152:340,1,28.75
128,304,16386,1,0,0:0:0:0:
76,216,16559,2,0,L|40:96,1,115
148,60,16906,5,0,0:0:0:0:
240,132,17079,1,0,0:0:0:0:
240,132,17195,1,0,0:0:0:0:
368,48,17426,1,0,0:0:0:0:
404,60,17542,1,0,0:0:0:0:
428,92,17658,2,0,L|408:212,1,115
400,244,17946,1,0,0:0:0:0:
308,312,18120,1,0,0:0:0:0:
196,332,18294,5,0,0:0:0:0:
92,284,18467,1,0,0:0:0:0:
92,284,18583,1,0,0:0:0:0:
28,144,18814,1,0,0:0:0:0:
44,108,18930,1,0,0:0:0:0:
72,84,19046,2,0,P|136:101|171:154,1,115
180,172,19334,1,0,0:0:0:0:
256,84,19507,1,0,0:0:0:0:
332,176,19681,5,0,0:0:0:0:
396,80,19854,2,0,L|420:168,1,76.6666666666667
456,304,20201,1,0,0:0:0:0:
456,304,20317,2,0,L|374:266,1,76.6666666666667
276,240,20606,1,0,0:0:0:0:
276,240,20721,2,0,L|176:320,1,115
100,236,21068,5,0,0:0:0:0:
100,236,21184,1,0,0:0:0:0:
36,140,21357,1,0,0:0:0:0:
36,140,21473,1,0,0:0:0:0:
124,64,21646,5,0,0:0:0:0:
160,48,21732,1,0,0:0:0:0:
200,60,21819,1,0,0:0:0:0:
240,48,21906,1,0,0:0:0:0:
280,60,21993,1,0,0:0:0:0:
320,48,22079,1,0,0:0:0:0:
360,60,22166,1,0,0:0:0:0:
448,232,22455,5,0,0:0:0:0:
336,212,22628,1,0,0:0:0:0:
336,212,22744,1,0,0:0:0:0:
408,348,22975,1,0,0:0:0:0:
444,336,23091,1,0,0:0:0:0:
468,304,23207,2,0,L|448:184,1,115
440,152,23495,1,0,0:0:0:0:
344,88,23669,1,0,0:0:0:0:
232,64,23843,5,0,0:0:0:0:
276,172,24016,1,0,0:0:0:0:
276,172,24132,1,0,0:0:0:0:
136,108,24363,1,0,0:0:0:0:
113,140,24479,1,0,0:0:0:0:
108,177,24595,2,0,P|156:222|219:223,1,115
240,224,24883,1,0,0:0:0:0:
296,324,25056,1,0,0:0:0:0:
352,224,25230,5,0,0:0:0:0:
420,316,25403,2,0,L|444:228,1,76.6666666666667
472,92,25750,1,0,0:0:0:0:
472,92,25866,2,0,L|390:130,1,76.6666666666667
288,136,26155,1,0,0:0:0:0:
288,136,26270,2,0,L|188:56,1,115
88,104,26617,5,0,0:0:0:0:
88,104,26733,1,0,0:0:0:0:
198,64,26906,1,0,0:0:0:0:
198,64,27022,1,0,0:0:0:0:
288,136,27195,5,0,0:0:0:0:
293,175,27281,1,0,0:0:0:0:
324,202,27368,1,0,0:0:0:0:
335,242,27455,1,0,0:0:0:0:
367,270,27542,1,0,0:0:0:0:
378,310,27628,1,0,0:0:0:0:
409,338,27715,1,0,0:0:0:0:
456,280,27831,6,0,P|480:200|396:72,1,230
300,56,28351,1,0,0:0:0:0:
252,160,28525,1,0,0:0:0:0:
364,140,28698,1,0,0:0:0:0:
428,44,28872,2,0,L|472:152,1,115
392,236,29218,5,0,0:0:0:0:
348,344,29392,2,0,L|299:279,1,76.6666666666667
196,324,29681,2,0,L|92:292,1,76.6666666666667
88,192,29970,1,0,0:0:0:0:
84,152,30057,1,0,0:0:0:0:
104,120,30144,1,0,0:0:0:0:
140,104,30231,1,0,0:0:0:0:
180,108,30317,1,0,0:0:0:0:
212,132,30403,1,0,0:0:0:0:
224,160,30490,2,0,P|239:203|279:223,1,76.6666666666667
360,280,30779,5,0,0:0:0:0:
360,280,30895,1,0,0:0:0:0:
420,184,31068,1,0,0:0:0:0:
420,184,31184,1,0,0:0:0:0:
324,124,31357,2,0,L|286:181,2,57.5
284,84,31617,2,0,L|317:24,2,57.5
152,52,31993,5,0,0:0:0:0:
128,64,32080,1,0,0:0:0:0:
108,84,32166,1,0,0:0:0:0:
92,108,32253,1,0,0:0:0:0:
88,136,32340,1,0,0:0:0:0:
96,164,32427,1,0,0:0:0:0:
112,188,32513,2,0,L|248:168,1,115
232,200,32774,1,0,0:0:0:0:
232,228,32860,1,0,0:0:0:0:
226,257,32947,1,0,0:0:0:0:
209,279,33034,1,0,0:0:0:0:
184,293,33121,1,0,0:0:0:0:
156,299,33207,1,0,0:0:0:0:
392,148,33380,5,0,0:0:0:0:
348,40,33554,2,0,L|299:104,1,76.6666666666667
196,60,33843,2,0,L|92:92,1,76.6666666666667
88,192,34132,1,0,0:0:0:0:
84,232,34219,1,0,0:0:0:0:
104,264,34306,1,0,0:0:0:0:
140,280,34393,1,0,0:0:0:0:
180,276,34479,1,0,0:0:0:0:
212,252,34565,1,0,0:0:0:0:
224,224,34652,2,0,P|239:180|279:160,1,76.6666666666667
360,104,34941,5,0,0:0:0:0:
360,104,35057,1,0,0:0:0:0:
420,200,35230,1,0,0:0:0:0:
420,200,35346,1,0,0:0:0:0:
324,260,35519,2,0,L|286:202,2,57.5
284,300,35779,2,0,L|317:359,2,57.5
160,348,36155,5,0,0:0:0:0:
76,272,36328,1,0,0:0:0:0:
76,272,36444,1,0,0:0:0:0:
136,176,36617,1,0,0:0:0:0:
136,176,36733,1,0,0:0:0:0:
252,172,36906,2,0,L|214:229,2,57.5
304,192,37166,2,0,L|337:132,2,57.5
352,316,37542,5,0,0:0:0:0:
328,304,37629,1,0,0:0:0:0:
308,284,37715,1,0,0:0:0:0:
292,260,37802,1,0,0:0:0:0:
288,232,37889,1,0,0:0:0:0:
296,204,37976,1,0,0:0:0:0:
312,180,38062,2,0,L|448:200,1,115
432,168,38323,1,0,0:0:0:0:
432,140,38409,1,0,0:0:0:0:
426,111,38496,1,0,0:0:0:0:
409,89,38583,1,0,0:0:0:0:
384,75,38670,1,0,0:0:0:0:
356,69,38756,1,0,0:0:0:0:
240,80,38929,5,0,0:0:0:0:
176,176,39103,1,0,0:0:0:0:
176,176,39218,1,0,0:0:0:0:
88,100,39392,1,0,0:0:0:0:
88,100,39507,1,0,0:0:0:0:
44,208,39681,2,0,L|48:284,5,57.5
172,320,40317,5,0,0:0:0:0:
236,224,40490,1,0,0:0:0:0:
236,224,40606,1,0,0:0:0:0:
324,300,40779,1,0,0:0:0:0:
324,300,40895,1,0,0:0:0:0:
368,192,41069,2,0,L|364:116,5,57.5
424,256,41704,5,0,0:0:0:0:
339,177,41878,1,0,0:0:0:0:
339,177,41993,1,0,0:0:0:0:
428,102,42167,1,0,0:0:0:0:
428,102,42282,1,0,0:0:0:0:
320,64,42455,2,0,L|248:44,1,57.5
236,40,42629,2,0,L|160:76,1,57.5
156,68,42802,2,0,L|76:52,1,57.5
36,176,43091,5,0,0:0:0:0:
152,184,43265,1,0,0:0:0:0:
152,184,43380,1,0,0:0:0:0:
88,280,43554,1,0,0:0:0:0:
88,280,43669,1,0,0:0:0:0:
200,264,43842,2,0,L|272:284,1,57.5
284,288,44016,2,0,L|360:252,1,57.5
364,260,44189,2,0,L|444:276,1,57.5
296,168,44479,5,0,0:0:0:0:
384,64,44652,1,0,0:0:0:0:
384,64,44768,1,0,0:0:0:0:
248,44,44941,1,0,0:0:0:0:
248,44,45057,1,0,0:0:0:0:
124,204,45172,5,0,0:0:0:0:
36,308,45345,1,0,0:0:0:0:
36,308,45461,1,0,0:0:0:0:
172,328,45634,1,0,0:0:0:0:
172,328,45750,1,0,0:0:0:0:
484,224,45866,5,0,0:0:0:0:
349,247,46039,1,0,0:0:0:0:
349,247,46155,1,0,0:0:0:0:
441,349,46328,1,0,0:0:0:0:
441,349,46444,1,0,0:0:0:0:
148,32,46559,5,0,0:0:0:0:
49,126,46732,1,0,0:0:0:0:
49,126,46848,1,0,0:0:0:0:
182,160,47021,1,0,0:0:0:0:
182,160,47137,1,0,0:0:0:0:
316,48,47253,5,0,0:0:0:0:
348,64,47340,1,0,0:0:0:0:
380,80,47427,1,0,0:0:0:0:
408,96,47513,1,0,0:0:0:0:
440,112,47600,1,0,0:0:0:0:
412,132,47687,5,0,0:0:0:0:
420,164,47773,1,0,0:0:0:0:
428,196,47860,1,0,0:0:0:0:
436,228,47947,1,0,0:0:0:0:
444,260,48033,1,0,0:0:0:0:
408,256,48120,5,0,0:0:0:0:
376,264,48207,1,0,0:0:0:0:
344,276,48294,1,4,0:0:0:0:
120,80,48640,6,0,L|88:52,1,28.75
392,304,48901,6,0,L|424:332,1,28.75
92,127,49161,6,0,L|52:110,1,28.75
419,256,49421,6,0,L|459:273,1,28.75
100,324,49681,6,0,L|66:350,1,28.75
400,84,49941,6,0,L|433:57,1,28.75
400,56,50027,5,0,0:0:0:0:
364,28,50114,1,0,0:0:0:0:
316,32,50201,1,0,0:0:0:0:
280,60,50287,1,0,0:0:0:0:
268,104,50374,1,0,0:0:0:0:
284,148,50461,1,0,0:0:0:0:
324,172,50547,1,0,0:0:0:0:
372,168,50634,1,0,0:0:0:0:
356,212,50721,5,0,0:0:0:0:
392,240,50807,1,0,0:0:0:0:
404,284,50894,1,0,0:0:0:0:
380,324,50981,1,0,0:0:0:0:
328,332,51068,1,0,0:0:0:0:
284,312,51155,1,0,0:0:0:0:
260,272,51242,2,0,L|288:208,1,57.5
220,272,51415,5,0,0:0:0:0:
192,308,51502,1,0,0:0:0:0:
152,328,51588,1,0,0:0:0:0:
108,336,51675,1,0,0:0:0:0:
64,324,51762,1,0,0:0:0:0:
32,292,51849,1,0,0:0:0:0:
24,248,51935,1,0,0:0:0:0:
40,204,52022,1,0,0:0:0:0:
76,236,52109,5,0,0:0:0:0:
120,224,52195,1,0,0:0:0:0:
156,196,52282,1,0,0:0:0:0:
176,156,52369,1,0,0:0:0:0:
172,112,52455,1,0,0:0:0:0:
148,72,52542,1,0,0:0:0:0:
112,44,52629,2,0,L|60:80,2,57.5
152,24,52889,5,0,0:0:0:0:
196,12,52976,1,0,0:0:0:0:
236,32,53062,1,0,0:0:0:0:
256,72,53149,1,0,0:0:0:0:
256,120,53236,1,0,0:0:0:0:
244,164,53322,1,0,0:0:0:0:
256,208,53409,1,0,0:0:0:0:
292,236,53496,1,0,0:0:0:0:
340,236,53583,1,0,0:0:0:0:
376,208,53669,1,0,0:0:0:0:
388,164,53756,1,0,0:0:0:0:
424,196,53843,5,0,0:0:0:0:
444,236,53929,1,0,0:0:0:0:
452,280,54016,1,0,0:0:0:0:
436,324,54103,1,0,0:0:0:0:
392,336,54190,2,0,L|368:268,1,57.5
344,340,54363,1,0,0:0:0:0:
300,328,54450,2,0,L|264:372,1,57.5
264,304,54623,1,0,0:0:0:0:
256,260,54710,5,0,0:0:0:0:
276,220,54796,1,0,0:0:0:0:
280,176,54883,1,0,0:0:0:0:
264,132,54970,1,0,0:0:0:0:
232,100,55057,1,0,0:0:0:0:
188,84,55143,1,0,0:0:0:0:
144,88,55230,2,0,L|88:48,2,57.5
116,124,55490,5,0,0:0:0:0:
104,168,55577,1,0,0:0:0:0:
104,216,55664,1,0,0:0:0:0:
120,260,55750,1,0,0:0:0:0:
156,292,55837,1,0,0:0:0:0:
200,304,55924,1,0,0:0:0:0:
244,300,56010,2,0,L|276:356,1,57.5
284,284,56184,5,0,0:0:0:0:
316,252,56271,1,0,0:0:0:0:
356,228,56357,1,0,0:0:0:0:
404,228,56444,1,0,0:0:0:0:
448,244,56531,1,0,0:0:0:0:
480,280,56618,1,0,0:0:0:0:
480,324,56704,1,0,0:0:0:0:
452,360,56791,1,0,0:0:0:0:
404,356,56878,2,0,L|328:356,1,57.5
368,316,57051,2,0,L|296:316,1,57.5
380,272,57225,5,0,0:0:0:0:
404,232,57312,1,0,0:0:0:0:
412,188,57398,1,0,0:0:0:0:
408,144,57485,1,0,0:0:0:0:
388,104,57572,1,0,0:0:0:0:
360,68,57658,1,0,0:0:0:0:
320,48,57745,1,0,0:0:0:0:
276,48,57831,1,0,0:0:0:0:
228,68,57918,6,0,L|248:140,2,57.5
184,84,58178,2,0,L|160:16,2,57.5
140,96,58438,1,0,0:0:0:0:
124,148,58524,1,0,0:0:0:0:
152,184,58611,1,0,0:0:0:0:
196,188,58698,1,0,0:0:0:0:
228,156,58784,1,0,0:0:0:0:
228,204,58871,5,0,0:0:0:0:
256,240,58958,1,0,0:0:0:0:
300,252,59044,1,0,0:0:0:0:
344,244,59131,1,0,0:0:0:0:
376,212,59218,1,0,0:0:0:0:
384,168,59305,1,0,0:0:0:0:
368,124,59391,1,0,0:0:0:0:
332,92,59478,1,0,0:0:0:0:
288,72,59565,6,0,L|284:152,2,57.5
244,84,59825,2,0,L|244:16,2,57.5
200,72,60086,1,0,0:0:0:0:
160,48,60172,1,0,0:0:0:0:
116,56,60259,1,0,0:0:0:0:
84,92,60346,1,0,0:0:0:0:
76,136,60432,2,0,L|-4:160,2,57.5
88,180,60692,2,0,L|168:156,2,57.5
44,260,61039,5,0,0:0:0:0:
60,304,61126,1,0,0:0:0:0:
96,332,61213,1,0,0:0:0:0:
140,344,61299,1,0,0:0:0:0:
184,332,61386,1,0,0:0:0:0:
212,296,61473,1,0,0:0:0:0:
216,252,61559,1,0,0:0:0:0:
260,268,61646,6,0,L|324:208,1,57.5
308,276,61820,1,0,0:0:0:0:
352,264,61906,1,0,0:0:0:0:
380,228,61993,1,0,0:0:0:0:
388,184,62080,1,0,0:0:0:0:
376,140,62166,1,0,0:0:0:0:
340,108,62253,2,0,L|376:40,2,57.5
296,96,62513,5,0,0:0:0:0:
248,100,62600,1,0,0:0:0:0:
212,128,62687,1,0,0:0:0:0:
196,92,62773,5,0,0:0:0:0:
152,80,62860,1,0,0:0:0:0:
108,88,62947,1,0,0:0:0:0:
72,116,63033,1,0,0:0:0:0:
56,160,63120,1,0,0:0:0:0:
60,208,63207,1,0,0:0:0:0:
88,244,63294,1,0,0:0:0:0:
132,256,63380,1,0,0:0:0:0:
104,292,63467,5,0,0:0:0:0:
124,336,63554,1,0,0:0:0:0:
168,348,63640,1,0,0:0:0:0:
208,324,63727,2,0,L|220:404,2,57.5
252,336,63987,5,0,0:0:0:0:
296,348,64074,1,0,0:0:0:0:
344,348,64161,1,0,0:0:0:0:
384,328,64247,1,0,0:0:0:0:
408,288,64334,1,0,0:0:0:0:
404,244,64421,1,0,0:0:0:0:
384,204,64507,1,0,0:0:0:0:
340,188,64594,1,0,0:0:0:0:
380,168,64681,5,0,0:0:0:0:
404,128,64768,1,0,0:0:0:0:
400,84,64854,1,0,0:0:0:0:
372,48,64941,1,0,0:0:0:0:
328,40,65028,1,0,0:0:0:0:
292,68,65114,1,0,0:0:0:0:
272,108,65201,2,0,L|216:80,2,57.5
248,148,65461,2,0,L|268:212,2,57.5
204,156,65721,5,0,0:0:0:0:
164,132,65808,1,0,0:0:0:0:
120,140,65895,1,0,0:0:0:0:
80,160,65981,2,0,L|40:93,2,57.5
60,204,66242,2,0,L|120:236,2,57.5
92,292,66589,5,0,0:0:0:0:
120,328,66675,1,0,0:0:0:0:
160,348,66762,1,0,0:0:0:0:
208,348,66849,1,0,0:0:0:0:
248,320,66936,1,0,0:0:0:0:
288,340,67022,1,0,0:0:0:0:
332,348,67109,1,0,0:0:0:0:
380,336,67196,1,0,0:0:0:0:
408,300,67282,6,0,L|348:248,1,57.5
412,256,67455,2,0,L|488:272,1,57.5
404,212,67629,1,0,0:0:0:0:
376,176,67716,1,0,0:0:0:0:
336,152,67802,1,0,0:0:0:0:
292,160,67889,1,0,0:0:0:0:
264,196,67976,1,0,0:0:0:0:
268,240,68062,1,0,0:0:0:0:
224,224,68149,5,0,0:0:0:0:
180,208,68236,1,0,0:0:0:0:
156,168,68322,1,0,0:0:0:0:
160,120,68409,1,0,0:0:0:0:
180,80,68496,1,0,0:0:0:0:
224,64,68583,1,0,0:0:0:0:
268,72,68669,1,0,0:0:0:0:
304,104,68756,1,0,0:0:0:0:
328,64,68843,5,0,0:0:0:0:
372,72,68929,1,0,0:0:0:0:
412,96,69016,1,0,0:0:0:0:
440,132,69103,1,0,0:0:0:0:
460,176,69190,1,0,0:0:0:0:
460,220,69276,1,0,0:0:0:0:
452,264,69363,1,0,0:0:0:0:
420,296,69450,1,0,0:0:0:0:
400,256,69536,5,0,0:0:0:0:
360,232,69623,1,0,0:0:0:0:
316,240,69710,1,0,0:0:0:0:
296,280,69796,1,0,0:0:0:0:
292,324,69883,1,0,0:0:0:0:
256,352,69970,1,0,0:0:0:0:
208,352,70057,1,0,0:0:0:0:
164,336,70143,1,0,0:0:0:0:
132,304,70230,5,0,0:0:0:0:
116,260,70317,1,0,0:0:0:0:
120,216,70403,1,0,0:0:0:0:
144,176,70490,1,0,0:0:0:0:
184,152,70577,1,0,0:0:0:0:
232,156,70664,1,0,0:0:0:0:
268,188,70750,1,0,0:0:0:0:
304,216,70837,6,0,L|352:160,2,57.5
344,240,71097,2,0,L|296:296,2,57.5
388,252,71357,1,0,0:0:0:0:
432,232,71444,1,0,0:0:0:0:
440,188,71531,2,0,L|392:132,2,57.5
472,152,71791,2,0,L|520:208,2,57.5
480,108,72051,2,0,L|432:52,1,57.5
396,60,72224,5,0,0:0:0:0:
140,292,72484,1,0,0:0:0:0:
420,176,72744,1,0,0:0:0:0:
136,104,73005,1,0,0:0:0:0:
356,328,73265,1,0,0:0:0:0:
284,236,73438,1,0,0:0:0:0:
168,228,73612,5,0,0:0:0:0:
76,156,73785,1,0,0:0:0:0:
56,116,73872,1,0,0:0:0:0:
80,76,73958,1,0,0:0:0:0:
188,112,74132,1,0,0:0:0:0:
232,128,74218,1,0,0:0:0:0:
276,112,74305,1,0,0:0:0:0:
304,76,74392,2,0,L|292:40,4,28.75
348,84,74652,2,0,P|424:128|444:184,1,115
448,197,74999,5,0,0:0:0:0:
103,180,75259,1,0,0:0:0:0:
383,296,75519,1,0,0:0:0:0:
233,44,75780,1,0,0:0:0:0:
230,358,76040,1,0,0:0:0:0:
244,242,76213,1,0,0:0:0:0:
168,155,76387,5,0,0:0:0:0:
231,93,76560,1,0,0:0:0:0:
245,50,76647,1,0,0:0:0:0:
290,39,76733,1,0,0:0:0:0:
341,141,76907,1,0,0:0:0:0:
361,183,76993,1,0,0:0:0:0:
403,203,77080,1,0,0:0:0:0:
448,197,77167,2,0,L|464:163,4,28.75
474,234,77427,2,0,P|496:318|471:372,1,115
400,316,77773,5,0,0:0:0:0:
144,84,78033,1,0,0:0:0:0:
424,200,78293,1,0,0:0:0:0:
140,272,78554,1,0,0:0:0:0:
360,48,78814,1,0,0:0:0:0:
288,140,78987,1,0,0:0:0:0:
172,148,79161,5,0,0:0:0:0:
80,220,79334,1,0,0:0:0:0:
60,260,79421,1,0,0:0:0:0:
84,300,79507,1,0,0:0:0:0:
192,264,79681,1,0,0:0:0:0:
236,248,79767,1,0,0:0:0:0:
280,264,79854,1,0,0:0:0:0:
308,300,79941,2,0,L|296:336,4,28.75
352,292,80201,2,0,P|428:248|448:192,1,115
438,130,80548,5,0,0:0:0:0:
113,247,80808,1,0,0:0:0:0:
347,54,81068,1,0,0:0:0:0:
277,339,81329,1,0,0:0:0:0:
182,39,81589,1,0,0:0:0:0:
230,146,81762,1,0,0:0:0:0:
182,252,81936,5,0,0:0:0:0:
252,316,82109,1,0,0:0:0:0:
277,352,82196,1,0,0:0:0:0:
324,350,82282,1,0,0:0:0:0:
372,244,82456,1,0,0:0:0:0:
378,198,82542,1,0,0:0:0:0:
413,167,82629,1,0,0:0:0:0:
458,159,82716,2,0,L|484:186,4,28.75
472,116,82976,2,0,P|468:28|428:-15,1,115
