osu file format v14

[General]
AudioFilename: choche 2 hea.mp3
AudioLeadIn: 0
PreviewTime: -1
Countdown: 1
SampleSet: None
StackLeniency: 0.7
Mode: 0
LetterboxInBreaks: 1
WidescreenStoryboard: 0

[Editor]
DistanceSpacing: 0.9
BeatDivisor: 4
GridSize: 4
TimelineZoom: 1

[Metadata]
Title:Choche Ultimate Compilation
TitleUnicode:Choche Ultimate Compilation
Artist:CHOCHE 007
ArtistUnicode:CHOCHE 007
Creator:Revengexsoyah
Version:Second Choche
Source:
Tags:
BeatmapID:768693
BeatmapSetID:348455

[Difficulty]
HPDrainRate:8
CircleSize:5
OverallDifficulty:7
ApproachRate:7
SliderMultiplier:1.4
SliderTickRate:1

[Events]
//Background and Video events
0,0,"second heaven.jpg",0,0
//Break Periods
//Storyboard Layer 0 (Background)
//Storyboard Layer 1 (Fail)
//Storyboard Layer 2 (Pass)
//Storyboard Layer 3 (Foreground)
//Storyboard Sound Samples

[TimingPoints]
4779,402.684563758389,4,2,0,100,1,0

[HitObjects]
256,192,3168,12,0,4577,0:0:0:0:
20,36,4778,5,8,0:0:0:0:
60,96,4980,1,0,0:0:0:0:
92,96,5081,1,8,0:0:0:0:
116,112,5181,1,0,0:0:0:0:
140,132,5282,1,8,0:0:0:0:
168,144,5383,1,0,0:0:0:0:
196,160,5483,1,8,0:0:0:0:
224,172,5584,1,0,0:0:0:0:
276,136,5785,1,8,0:0:0:0:
336,120,5987,1,0,0:0:0:0:
368,176,6188,5,8,0:0:0:0:
392,200,6289,1,0,0:0:0:0:
416,220,6389,1,0,0:0:0:0:
440,280,6591,1,8,0:0:0:0:
440,280,6691,1,0,0:0:0:0:
388,312,6893,1,0,0:0:0:0:
356,312,6993,1,8,0:0:0:0:
324,316,7094,1,0,0:0:0:0:
292,316,7195,1,0,0:0:0:0:
228,324,7396,1,8,0:0:0:0:
164,316,7597,1,0,0:0:0:0:
104,304,7799,1,8,0:0:0:0:
52,272,8000,1,0,0:0:0:0:
84,220,8201,5,8,0:0:0:0:
104,196,8302,1,0,0:0:0:0:
124,172,8403,1,0,0:0:0:0:
144,148,8503,1,8,0:0:0:0:
168,128,8604,1,0,0:0:0:0:
192,108,8705,1,8,0:0:0:0:
216,88,8805,1,0,0:0:0:0:
264,44,9007,1,8,0:0:0:0:
316,76,9208,5,0,0:0:0:0:
348,132,9409,1,8,0:0:0:0:
376,144,9510,1,0,0:0:0:0:
404,156,9611,1,0,0:0:0:0:
452,196,9812,1,8,0:0:0:0:
444,260,10013,1,0,0:0:0:0:
380,268,10215,1,8,0:0:0:0:
316,280,10416,1,0,0:0:0:0:
256,192,10517,12,4,11020,0:0:0:0:
44,84,11221,5,8,0:0:0:0:
104,68,11423,1,8,0:0:0:0:
124,92,11523,1,0,0:0:0:0:
144,116,11624,1,0,0:0:0:0:
164,140,11725,1,8,0:0:0:0:
188,160,11825,1,0,0:0:0:0:
208,184,11926,1,0,0:0:0:0:
228,208,12027,1,0,0:0:0:0:
292,204,12228,2,8,P|352:184|372:204,1,70
384,240,12631,6,0,L|440:272,1,35,8|8,0:0|0:0,0:0:0:0:
432,284,12832,1,0,0:0:0:0:
384,328,13034,2,0,L|328:344,1,35,8|0,0:0|0:0,0:0:0:0:
320,332,13235,1,0,0:0:0:0:
260,348,13436,5,8,0:0:0:0:
228,348,13537,1,0,0:0:0:0:
196,348,13638,2,0,P|136:332|136:312,3,70,0|8|0|8,0:0|0:0|0:0|0:0,0:0:0:0:
84,304,14443,1,0,0:0:0:0:
60,248,14644,5,8,0:0:0:0:
60,220,14745,1,0,0:0:0:0:
56,188,14846,1,0,0:0:0:0:
56,156,14946,1,8,0:0:0:0:
56,124,15047,1,0,0:0:0:0:
56,92,15148,1,0,0:0:0:0:
56,64,15248,1,0,0:0:0:0:
116,48,15450,1,8,0:0:0:0:
172,76,15651,1,0,0:0:0:0:
224,112,15852,1,8,0:0:0:0:
224,112,15953,1,0,0:0:0:0:
224,112,16054,1,0,0:0:0:0:
284,100,16255,1,8,0:0:0:0:
344,120,16456,5,0,0:0:0:0:
388,164,16658,5,8,0:0:0:0:
436,208,16859,5,0,0:0:0:0:
256,192,16960,12,4,17664,0:0:0:0:
