osu file format v14

[General]
AudioFilename: IM WATONMAN.mp3
AudioLeadIn: 0
PreviewTime: -1
Countdown: 1
SampleSet: Normal
StackLeniency: 0.7
Mode: 0
LetterboxInBreaks: 1
WidescreenStoryboard: 0

[Editor]
DistanceSpacing: 1
BeatDivisor: 8
GridSize: 4
TimelineZoom: 1

[Metadata]
Title:Choche Ultimate Compilation
TitleUnicode:Choche Ultimate Compilation
Artist:CHOCHE 007
ArtistUnicode:CHOCHE 007
Creator:Revengexsoyah
Version:IM WATONMAN
Source:
Tags:
BeatmapID:768792
BeatmapSetID:348455

[Difficulty]
HPDrainRate:8
CircleSize:4
OverallDifficulty:9
ApproachRate:8
SliderMultiplier:2
SliderTickRate:1

[Events]
//Background and Video events
0,0,"WATON MAN.jpg",0,0
//Break Periods
//Storyboard Layer 0 (Background)
//Storyboard Layer 1 (Fail)
//Storyboard Layer 2 (Pass)
//Storyboard Layer 3 (Foreground)
//Storyboard Sound Samples

[TimingPoints]
3198,441.111601235112,4,1,0,100,1,0
4411,442.811601235113,4,1,0,100,1,0

[HitObjects]
56,140,3198,6,0,P|144:116|176:128,1,100
288,136,3639,1,0,0:0:0:0:
400,128,3969,1,0,0:0:0:0:
460,264,4411,5,0,0:0:0:0:
416,284,4521,1,0,0:0:0:0:
368,300,4631,1,0,0:0:0:0:
320,308,4741,1,0,0:0:0:0:
272,300,4852,1,0,0:0:0:0:
172,308,5075,1,0,0:0:0:0:
92,248,5296,1,0,0:0:0:0:
64,204,5407,1,0,0:0:0:0:
104,112,5628,1,0,0:0:0:0:
444,60,6846,5,0,0:0:0:0:
364,120,7067,1,0,0:0:0:0:
320,144,7178,1,0,0:0:0:0:
220,136,7399,1,0,0:0:0:0:
56,92,7953,5,0,0:0:0:0:
72,140,8064,1,0,0:0:0:0:
100,180,8174,1,0,0:0:0:0:
144,204,8285,1,0,0:0:0:0:
192,220,8396,1,0,0:0:0:0:
128,296,8617,1,0,0:0:0:0:
208,332,8839,1,0,0:0:0:0:
256,328,8949,1,0,0:0:0:0:
352,300,9171,1,0,0:0:0:0:
424,200,10388,5,0,0:0:0:0:
348,136,10610,1,0,0:0:0:0:
308,108,10721,1,0,0:0:0:0:
216,68,10942,1,0,0:0:0:0:
36,136,11495,6,0,L|96:192,1,50
68,220,11717,2,0,L|124:260,1,50
160,252,11938,1,0,0:0:0:0:
248,296,12160,1,0,0:0:0:0:
344,324,12381,2,0,L|416:300,1,50
460,236,12713,1,0,0:0:0:0:
436,72,13931,5,0,0:0:0:0:
340,104,14152,1,0,0:0:0:0:
296,80,14263,1,0,0:0:0:0:
200,100,14484,1,0,0:0:0:0:
56,132,15038,5,0,0:0:0:0:
88,172,15149,1,0,0:0:0:0:
128,200,15259,1,0,0:0:0:0:
172,224,15370,1,0,0:0:0:0:
216,248,15481,1,0,0:0:0:0:
308,220,15702,1,0,0:0:0:0:
408,200,15924,1,0,0:0:0:0:
440,236,16034,1,0,0:0:0:0:
368,304,16256,1,0,0:0:0:0:
168,324,17473,5,0,0:0:0:0:
80,276,17695,1,0,0:0:0:0:
80,276,17806,1,0,0:0:0:0:
56,180,18027,5,0,0:0:0:0:
72,132,18138,1,0,0:0:0:0:
112,100,18248,1,0,0:0:0:0:
152,72,18359,1,0,0:0:0:0:
200,60,18470,1,0,0:0:0:0:
248,60,18580,1,0,0:0:0:0:
436,132,19023,1,0,0:0:0:0:
372,208,19245,1,0,0:0:0:0:
344,304,19466,1,0,0:0:0:0:
344,304,19577,1,0,0:0:0:0:
248,280,19798,1,0,0:0:0:0:
80,256,20795,6,0,L|96:192,1,50
100,160,21016,1,0,0:0:0:0:
176,96,21237,1,0,0:0:0:0:
220,72,21348,1,0,0:0:0:0:
316,92,21569,1,0,0:0:0:0:
436,132,22123,2,0,P|488:196|388:232,1,200
320,200,22787,1,0,0:0:0:0:
236,248,23009,1,0,0:0:0:0:
196,276,23119,1,0,0:0:0:0:
100,248,23341,1,0,0:0:0:0:
80,120,24337,5,0,0:0:0:0:
168,76,24558,1,0,0:0:0:0:
268,60,24780,1,0,0:0:0:0:
268,60,24891,1,0,0:0:0:0:
368,80,25112,1,0,0:0:0:0:
408,108,25223,1,0,0:0:0:0:
436,148,25333,1,0,0:0:0:0:
452,196,25444,1,0,0:0:0:0:
460,244,25555,1,0,0:0:0:0:
444,292,25665,1,0,0:0:0:0:
252,344,26108,5,0,0:0:0:0:
160,308,26330,1,0,0:0:0:0:
84,244,26551,1,0,0:0:0:0:
84,244,26662,1,0,0:0:0:0:
84,144,26883,1,0,0:0:0:0:
276,60,27880,5,0,0:0:0:0:
372,72,28101,1,0,0:0:0:0:
404,168,28322,1,0,0:0:0:0:
440,204,28433,1,0,0:0:0:0:
404,296,28654,1,0,0:0:0:0:
160,356,29208,6,0,P|88:332|144:248,1,200
84,164,29872,1,0,0:0:0:0:
64,64,30094,1,0,0:0:0:0:
112,64,30204,1,0,0:0:0:0:
208,88,30426,1,0,0:0:0:0:
456,72,30979,5,0,0:0:0:0:
324,224,31422,1,0,0:0:0:0:
484,344,31865,1,0,0:0:0:0:
392,168,32308,1,0,0:0:0:0:
256,316,32750,1,4,0:0:0:0:
220,188,34079,6,0,L|264:192,7,25
