osu file format v14

[General]
AudioFilename: CHOCHE007 ES GUATON Y BAILA CUMBIA.mp3
AudioLeadIn: 0
PreviewTime: -1
Countdown: 1
SampleSet: Normal
StackLeniency: 0.7
Mode: 0
LetterboxInBreaks: 1
WidescreenStoryboard: 0

[Editor]
DistanceSpacing: 1.4
BeatDivisor: 4
GridSize: 4
TimelineZoom: 1

[Metadata]
Title:Choche Ultimate Compilation
TitleUnicode:Choche Ultimate Compilation
Artist:CHOCHE 007
ArtistUnicode:CHOCHE 007
Creator:Revengexsoyah
Version:Choche Trujillo
Source:
Tags:
BeatmapID:768791
BeatmapSetID:348455

[Difficulty]
HPDrainRate:7.4
CircleSize:3.4
OverallDifficulty:8
ApproachRate:8
SliderMultiplier:1.8
SliderTickRate:1

[Events]
//Background and Video events
0,0,"CHECHO.png",0,0
//Break Periods
//Storyboard Layer 0 (Background)
//Storyboard Layer 1 (Fail)
//Storyboard Layer 2 (Pass)
//Storyboard Layer 3 (Foreground)
//Storyboard Sound Samples

[TimingPoints]
813,585.9375,4,1,0,100,1,0
11067,-50,4,1,0,100,0,0
28940,585.894726047466,4,1,0,100,1,0
28940,-100,4,1,0,100,0,0

[HitObjects]
284,316,813,5,0,0:0:0:0:
160,324,1105,2,0,P|108:324|80:276,1,90
124,132,1984,1,0,0:0:0:0:
212,40,2277,1,0,0:0:0:0:
280,148,2570,2,0,L|392:124,1,90
468,208,3156,1,0,0:0:0:0:
236,304,3742,5,0,0:0:0:0:
176,280,3889,1,0,0:0:0:0:
128,240,4035,1,0,0:0:0:0:
88,192,4182,1,0,0:0:0:0:
56,136,4328,2,0,P|72:80|104:80,1,90
344,36,5207,2,0,L|288:120,1,90
476,288,6086,6,0,L|396:288,1,45
380,252,6379,2,0,L|308:252,1,45
292,300,6672,2,0,L|224:300,1,45
192,272,6965,1,0,0:0:0:0:
100,188,7258,1,0,0:0:0:0:
124,128,7404,1,0,0:0:0:0:
184,112,7551,1,0,0:0:0:0:
236,80,7697,1,0,0:0:0:0:
292,56,7844,1,0,0:0:0:0:
424,92,8137,1,0,0:0:0:0:
456,212,8430,2,0,L|384:248,1,45
352,240,8723,1,0,0:0:0:0:
300,272,8869,1,0,0:0:0:0:
240,292,9016,1,0,0:0:0:0:
176,300,9162,1,0,0:0:0:0:
116,288,9309,1,0,0:0:0:0:
52,180,9602,6,0,L|100:148,1,45
124,104,9895,1,0,0:0:0:0:
244,64,10188,5,0,0:0:0:0:
308,52,10334,1,0,0:0:0:0:
368,64,10480,1,0,0:0:0:0:
420,100,10627,1,0,0:0:0:0:
448,156,10773,1,0,0:0:0:0:
448,280,11066,5,0,0:0:0:0:
328,324,11213,1,0,0:0:0:0:
204,308,11359,1,0,0:0:0:0:
36,120,11652,2,0,L|212:64,1,180
460,76,12238,1,0,0:0:0:0:
200,76,12531,1,0,0:0:0:0:
100,156,12678,1,0,0:0:0:0:
88,280,12824,1,0,0:0:0:0:
216,284,12971,1,0,0:0:0:0:
268,168,13117,1,0,0:0:0:0:
364,64,13410,6,0,L|464:184,1,90
480,248,13703,1,0,0:0:0:0:
244,340,13996,2,0,L|332:264,1,90
408,200,14289,1,0,0:0:0:0:
408,200,14582,1,0,0:0:0:0:
164,268,14875,6,0,L|80:216,1,90
44,100,15168,2,0,L|152:68,1,90
256,140,15461,1,0,0:0:0:0:
468,4,15754,2,0,L|496:120,1,90
472,216,16047,1,0,0:0:0:0:
472,216,16193,2,0,L|384:276,1,90
292,336,16486,1,0,0:0:0:0:
292,336,16633,2,0,L|136:280,1,90
120,212,16926,1,0,0:0:0:0:
72,76,17219,6,0,P|172:48|208:72,1,90
276,76,17512,1,0,0:0:0:0:
404,88,17658,1,0,0:0:0:0:
476,192,17805,2,0,P|352:280|280:240,1,180
260,180,18244,1,0,0:0:0:0:
136,180,18391,2,0,B|0:264|0:264|156:352,1,270
220,296,18977,1,0,0:0:0:0:
220,296,19270,1,0,0:0:0:0:
472,308,19563,5,0,0:0:0:0:
432,188,19709,1,0,0:0:0:0:
340,104,19855,1,0,0:0:0:0:
224,52,20002,1,0,0:0:0:0:
100,72,20148,1,0,0:0:0:0:
176,172,20295,1,0,0:0:0:0:
80,256,20441,1,0,0:0:0:0:
312,352,21027,1,0,0:0:0:0:
312,352,21174,2,0,L|312:212,1,90
440,136,21906,6,0,L|328:76,1,90
236,64,22199,2,0,L|104:108,1,90
68,188,22492,2,0,L|72:308,1,90
196,288,22785,1,0,0:0:0:0:
416,296,23371,5,0,0:0:0:0:
416,296,23518,2,0,L|412:188,1,90
156,72,24250,5,0,0:0:0:0:
284,80,24396,1,0,0:0:0:0:
212,180,24543,1,0,0:0:0:0:
112,256,24689,1,0,0:0:0:0:
216,324,24836,1,0,0:0:0:0:
320,252,24982,1,0,0:0:0:0:
212,180,25129,1,0,0:0:0:0:
428,72,25715,2,0,L|432:188,2,90
116,72,26594,6,0,L|48:148,1,90
264,84,26887,1,0,0:0:0:0:
260,192,27033,1,0,0:0:0:0:
396,72,27180,2,0,L|464:148,1,90
260,336,27473,1,0,0:0:0:0:
80,132,28059,1,0,0:0:0:0:
80,132,28205,2,0,L|188:128,1,90
