osu file format v14

[General]
AudioFilename: Dangdutstep.mp3
AudioLeadIn: 0
PreviewTime: 48026
Countdown: 0
SampleSet: Normal
StackLeniency: 0.7
Mode: 0
LetterboxInBreaks: 1
WidescreenStoryboard: 1

[Editor]
Bookmarks: 20598,34312,48026,61741,75455,89169,102883,116598,130312,144026,157741,171455,185169,198884
DistanceSpacing: 1
BeatDivisor: 6
GridSize: 4
TimelineZoom: 1.7

[Metadata]
Title:Onslaught
TitleUnicode:Onslaught
Artist:CENOB1TE
ArtistUnicode:CENOB1TE
Creator:inverness
Version:kyversible-insane_
Source:
Tags:dubstep drumstep dangdutstep foreverends winber1 charles445 hanzer kyshiro irreversible wendao2000 harez
BeatmapID:445187
BeatmapSetID:181979

[Difficulty]
HPDrainRate:6
CircleSize:4
OverallDifficulty:8
ApproachRate:9
SliderMultiplier:1.7
SliderTickRate:1

[Events]
//Background and Video events
0,0,"sunsetsoldier-does-it-matter-wallpaper.jpg",0,0
//Break Periods
2,103082,115997
//Storyboard Layer 0 (Background)
//Storyboard Layer 1 (Fail)
//Storyboard Layer 2 (Pass)
//Storyboard Layer 3 (Foreground)
Sprite,Foreground,Centre,"ok/c/bI.png",440,445 F,0,47163,,1 S,0,47163,,0.7 F,0,102878,,1
Sprite,Foreground,Centre,"ok/c/r.png",455,445 F,0,47235,,1 S,0,47235,,0.7 F,0,102806,,1
Sprite,Foreground,Centre,"ok/c/r.png",470,445 F,0,47306,,1 S,0,47306,,0.7 F,0,102735,,1
Sprite,Foreground,Centre,"ok/c/e.png",485,445 F,0,47378,,1 S,0,47378,,0.7 F,0,102663,,1
Sprite,Foreground,Centre,"ok/c/v.png",500,445 F,0,47449,,1 S,0,47449,,0.7 F,0,102592,,1
Sprite,Foreground,Centre,"ok/c/e.png",515,445 F,0,47520,,1 S,0,47520,,0.7 F,0,102520,,1
Sprite,Foreground,Centre,"ok/c/r.png",530,445 F,0,47592,,1 S,0,47592,,0.7 F,0,102449,,1
Sprite,Foreground,Centre,"ok/c/s.png",545,445 F,0,47663,,1 S,0,47663,,0.7 F,0,102378,,1
Sprite,Foreground,Centre,"ok/c/i.png",560,445 F,0,47735,,1 S,0,47735,,0.7 F,0,102306,,1
Sprite,Foreground,Centre,"ok/c/b.png",575,445 F,0,47806,,1 S,0,47806,,0.7 F,0,102235,,1
Sprite,Foreground,Centre,"ok/c/l.png",590,445 F,0,47878,,1 S,0,47878,,0.7 F,0,102163,,1
Sprite,Foreground,Centre,"ok/c/e.png",605,445 F,0,47949,,1 S,0,47949,,0.7 F,0,102092,,1
Sprite,Foreground,Centre,"ok/c/K.png",440,445 F,0,143306,,1 S,0,143306,,0.7 F,0,198878,,1
Sprite,Foreground,Centre,"ok/c/y.png",455,445 F,0,143378,,1 S,0,143378,,0.7 F,0,198806,,1
Sprite,Foreground,Centre,"ok/c/s.png",470,445 F,0,143449,,1 S,0,143449,,0.7 F,0,198735,,1
Sprite,Foreground,Centre,"ok/c/h.png",485,445 F,0,143520,,1 S,0,143520,,0.7 F,0,198663,,1
Sprite,Foreground,Centre,"ok/c/i.png",500,445 F,0,143592,,1 S,0,143592,,0.7 F,0,198592,,1
Sprite,Foreground,Centre,"ok/c/r.png",515,445 F,0,143663,,1 S,0,143663,,0.7 F,0,198520,,1
Sprite,Foreground,Centre,"ok/c/o.png",530,445 F,0,143735,,1 S,0,143735,,0.7 F,0,198449,,1
Animation,Foreground,Centre,"ok/c/_.png",440,445,2,143,LoopForever F,0,46303,,1 S,0,46303,,0.7 M,0,47163,47949,455,445,620,445 F,0,49735,,0 F,0,101163,,1 M,0,102092,102878,620,445,440,445 F,0,109735,,0 F,0,142306,,1 M,0,143306,143735,455,445,545,445 F,0,145735,,0 F,0,197163,,1 M,0,198449,198949,545,445,440,445 F,0,201449,,0
//Storyboard Sound Samples

[TimingPoints]
6883,428.571428571429,4,2,1,90,1,0
20597,-133.333333333333,4,2,1,60,0,0
34311,-133.333333333333,4,2,1,50,0,0
44597,-133.333333333333,4,1,1,55,0,0
45025,-133.333333333333,4,1,1,60,0,0
45454,-133.333333333333,4,1,1,65,0,0
45883,-133.333333333333,4,1,1,70,0,0
46311,-133.333333333333,4,1,1,75,0,0
47168,-133.333333333333,4,1,1,70,0,0
48025,-66.6666666666667,4,1,1,94,0,1
48311,-100,4,1,1,94,0,1
48454,-66.6666666666667,4,1,1,94,0,1
48740,-100,4,1,1,94,0,1
50597,-80,4,1,1,94,0,1
51454,-57.1428571428571,4,1,1,94,0,1
51668,-100,4,1,1,94,0,1
52025,-80,4,1,1,94,0,1
52168,-100,4,1,1,94,0,1
53168,-57.1428571428571,4,1,1,94,0,1
53740,-80,4,1,1,94,0,1
53883,-100,4,1,1,94,0,1
55311,-57.1428571428571,4,1,1,94,0,1
55597,-100,4,1,1,94,0,1
56597,-66.6666666666667,4,1,1,94,0,1
57454,-80,4,1,1,94,0,1
58311,-57.1428571428571,4,1,1,94,0,1
58525,-100,4,1,1,94,0,1
58883,-80,4,1,1,94,0,1
59025,-100,4,1,1,94,0,1
59740,-80,4,1,1,94,0,1
60025,-66.6666666666667,4,1,1,94,0,1
60240,-100,4,1,1,94,0,1
60597,-80,4,1,1,94,0,1
61168,-66.6666666666667,4,1,1,84,0,1
61454,-50,4,1,1,74,0,1
61740,-100,4,2,1,94,0,0
62168,-57.1428571428571,4,1,1,94,0,1
63454,-100,4,1,1,94,0,1
64311,-80,4,1,1,94,0,1
65168,-57.1428571428571,4,1,1,94,0,1
65383,-100,4,1,1,94,0,1
65740,-80,4,1,1,94,0,1
65883,-100,4,1,1,94,0,1
66883,-66.6666666666667,4,1,1,94,0,1
67097,-100,4,1,1,94,0,1
68597,-200,4,2,1,94,0,1
69454,-100,4,2,1,84,0,0
70311,-55.5555555555556,4,1,1,94,0,0
70454,-100,4,1,1,94,0,0
71168,-200,4,2,1,94,0,0
72025,-57.1428571428571,4,1,1,94,0,1
72240,-100,4,1,1,94,0,1
72597,-80,4,1,1,94,0,1
72740,-100,4,1,1,94,0,1
73454,-80,4,1,1,94,0,1
73597,-100,4,1,1,94,0,1
73740,-57.1428571428571,4,1,1,94,0,1
73954,-100,4,1,1,94,0,1
74597,-57.1428571428571,4,1,1,94,0,1
74883,-66.6666666666667,4,1,1,94,0,1
75168,-80,4,1,1,94,0,1
75383,-100,4,1,1,94,0,0
75454,-57.1428571428571,4,1,1,94,0,1
75740,-100,4,1,1,94,0,1
75883,-66.6666666666667,4,1,1,94,0,1
76168,-100,4,1,1,94,0,1
76311,-80,4,1,1,94,0,1
77168,-66.6666666666667,4,1,1,94,0,1
77454,-61.7283950617284,4,1,1,94,0,1
77740,-57.1428571428571,4,1,1,94,0,1
78025,-200,4,2,1,94,0,0
78883,-57.1428571428571,4,1,1,94,0,1
79597,-100,4,1,1,94,0,1
80597,-80,4,1,1,94,0,1
82311,-66.6666666666667,4,1,1,94,0,1
83025,-80,4,1,1,94,0,1
84025,-66.6666666666667,4,1,1,94,0,1
84240,-100,4,1,1,94,0,1
84311,-80,4,1,1,94,0,1
84454,-100,4,1,1,94,0,1
84525,-100,4,1,1,5,0,1
84597,-57.1428571428571,4,1,1,94,0,1
84740,-100,4,1,1,94,0,1
84883,-200,4,2,1,94,0,1
85740,-57.1428571428571,4,1,1,94,0,1
86454,-100,4,1,1,94,0,1
87454,-80,4,1,1,94,0,1
89097,-100,4,1,1,94,0,0
89168,-57.1428571428571,4,1,1,94,0,1
89454,-100,4,1,1,94,0,1
89597,-66.6666666666667,4,1,1,94,0,1
89883,-100,4,1,1,94,0,1
90025,-80,4,1,1,94,0,1
90883,-80,4,1,1,94,0,1
91168,-66.6666666666667,4,1,1,94,0,1
91454,-57.1428571428571,4,1,1,94,0,1
91668,-100,4,1,1,94,0,1
91740,-200,4,2,1,94,0,0
91954,-200,4,2,1,5,0,0
92025,-200,4,2,1,74,0,0
92240,-200,4,2,1,5,0,0
92311,-200,4,2,1,54,0,0
92525,-200,4,2,1,5,0,0
92597,-57.1428571428571,4,1,1,94,0,1
92883,-100,4,1,1,94,0,1
93025,-57.1428571428571,4,1,1,94,0,1
93311,-100,4,1,1,94,0,1
94311,-80,4,1,1,94,0,1
96025,-133.333333333333,4,1,1,94,0,1
96311,-100,4,1,1,94,0,1
96454,-133.333333333333,4,1,1,94,0,1
96740,-100,4,1,1,94,0,1
96883,-57.1428571428571,4,1,1,94,0,1
97740,-66.6666666666667,4,1,1,94,0,1
97954,-100,4,1,1,94,0,1
98025,-80,4,1,1,94,0,1
98597,-57.1428571428571,4,1,1,94,0,1
98811,-100,4,1,1,94,0,1
98883,-80,4,1,1,94,0,1
99168,-57.1428571428571,4,1,1,94,0,1
99311,-100,4,1,1,94,0,1
100740,-133.333333333333,4,1,1,94,0,1
101168,-80,4,1,1,94,0,1
102454,-57.1428571428571,4,1,1,80,0,1
102883,-100,4,1,1,94,0,0
116597,-133.333333333333,4,2,1,60,0,0
130311,-133.333333333333,4,2,1,50,0,0
142311,-133.333333333333,4,2,1,64,0,0
143168,-133.333333333333,4,2,1,78,0,0
144025,-57.1428571428571,4,1,1,94,0,1
144454,-80,4,1,1,94,0,1
144883,-100,4,1,1,94,0,1
146597,-66.6666666666667,4,1,1,94,0,1
147454,-58.8235294117647,4,1,1,94,0,1
147883,-76.9230769230769,4,1,1,94,0,1
149168,-58.8235294117647,4,1,1,94,0,1
149597,-76.9230769230769,4,1,1,94,0,1
150883,-58.8235294117647,4,1,1,94,0,1
151311,-133.333333333333,4,1,1,94,0,1
151740,-74.074074074074,4,1,1,94,0,1
153025,-133.333333333333,4,1,1,94,0,1
153454,-66.6666666666667,4,1,1,94,0,1
154311,-58.8235294117647,4,1,1,94,0,1
154740,-76.9230769230769,4,1,1,94,0,1
156025,-58.8235294117647,4,1,1,94,0,1
156454,-76.9230769230769,4,1,1,94,0,1
157168,-58.8235294117647,4,1,1,84,0,1
157454,-50,4,1,1,74,0,1
157740,-133.333333333333,4,1,1,94,0,0
158168,-57.1428571428571,4,1,1,94,0,1
158597,-100,4,1,1,94,0,1
159454,-66.6666666666667,4,1,1,94,0,1
159740,-100,4,1,1,94,0,1
160311,-66.6666666666667,4,1,1,94,0,1
161168,-100,4,1,1,94,0,1
164597,-133.333333333333,4,2,1,94,0,0
165383,-133.333333333333,4,1,1,5,0,0
165454,-100,4,1,1,94,0,0
166311,-50,4,1,1,94,0,0
167168,-133.333333333333,4,2,1,94,0,1
168025,-57.1428571428571,4,1,1,94,0,1
169740,-100,4,1,1,94,0,1
170168,-57.1428571428571,4,1,1,94,0,1
170597,-50,4,1,1,94,0,1
170883,-66.6666666666667,4,1,1,94,0,1
171168,-100,4,1,1,94,0,1
171383,-57.1428571428571,4,1,1,94,0,0
171454,-58.8235294117647,4,1,1,94,0,1
171811,-66.6666666666667,4,1,1,94,0,1
172240,-80,4,1,1,94,0,1
173097,-52.6315789473684,4,1,1,94,0,1
174025,-166.666666666667,4,2,1,94,0,0
174883,-62.5,4,1,1,94,0,1
175668,-80,4,1,1,94,0,1
178240,-57.1428571428571,4,1,1,94,0,1
179597,-57.1428571428571,4,1,1,74,0,1
179740,-57.1428571428571,4,1,1,84,0,1
179883,-57.1428571428571,4,1,1,94,0,1
180275,-71.4285714285714,4,1,1,94,0,1
180811,-133.333333333333,4,2,1,94,0,1
181704,-71.4285714285714,4,1,1,94,0,1
184275,-60.6060606060606,4,1,1,94,0,1
185097,-100,4,1,1,94,0,0
185168,-66.6666666666667,4,1,1,94,0,1
185597,-100,4,1,1,94,0,1
186883,-66.6666666666667,4,1,1,94,0,1
187168,-57.1428571428571,4,1,1,94,0,1
187454,-50,4,1,1,94,0,1
187740,-66.6666666666667,4,1,1,94,0,0
187954,-100,4,1,1,5,0,0
188025,-100,4,1,1,74,0,0
188311,-100,4,2,1,54,0,0
188454,-100,4,1,1,5,0,0
188597,-66.6666666666667,4,1,1,94,0,1
189025,-80,4,1,1,94,0,1
189454,-100,4,1,1,94,0,1
192025,-80,4,1,1,94,0,1
193740,-66.6666666666667,4,1,1,94,0,1
194597,-80,4,1,1,94,0,1
194811,-50,4,1,1,94,0,1
195168,-50,4,1,1,94,0,1
195454,-100,4,1,1,94,0,1
196311,-66.6666666666667,4,1,1,94,0,1
197168,-100,4,1,1,94,0,1
198025,-80,4,1,1,94,0,1
198311,-66.6666666666667,4,1,1,94,0,1
198597,-57.1428571428571,4,1,1,94,0,1
198883,-100,4,1,1,84,0,0
198936,-100,4,1,1,13,0,0
199311,-100,4,1,1,12,0,0
199740,-100,4,1,1,11,0,0
200168,-100,4,1,1,10,0,0
200597,-100,4,1,1,9,0,0
201025,-100,4,1,1,8,0,0
201454,-100,4,1,1,7,0,0
201883,-100,4,1,1,6,0,0
202311,-100,4,2,1,5,0,0

[Colours]
Combo1 : 206,200,176
Combo2 : 192,143,126
Combo3 : 199,185,137
Combo4 : 227,189,155

[HitObjects]
48,216,20597,6,0,P|92:200|176:252,1,127.500004863739,0|2,1:0|0:0,0:0:0:0:
232,324,21454,2,0,L|332:308,1,95.6250036478044,8|0,1:0|0:0,0:0:0:0:
344,296,21883,2,0,L|360:384,1,63.7500024318696,0|0,0:0|0:0,0:0:0:0:
460,280,22311,2,0,L|436:144,1,127.500004863739,0|2,0:0|0:0,0:0:0:0:
336,56,23168,2,0,P|292:40|240:64,1,95.6250036478044,8|0,1:0|0:0,0:0:0:0:
238,68,23597,2,0,P|202:84|158:72,1,63.7500024318696,0|0,0:0|0:0,0:0:0:0:
68,32,24025,5,0,1:0:0:0:
175,174,24454,1,2,0:0:0:0:
80,248,24668,1,0,0:0:0:0:
196,296,24883,2,0,L|300:268,1,95.6250036478044,8|0,1:0|0:0,0:0:0:0:
313,263,25311,1,0,0:0:0:0:
480,328,25525,1,0,0:0:0:0:
452,148,25740,2,0,L|456:88,2,42.5000016212464,0|0|0,0:0|0:0|0:0,0:0:0:0:
452,148,26168,2,0,P|408:104|364:96,1,95.6250036478044,2|0,0:0|0:0,0:0:0:0:
360,104,26597,5,8,1:0:0:0:
313,263,26811,1,0,0:0:0:0:
156,224,27025,1,0,0:0:0:0:
272,108,27240,1,0,0:0:0:0:
263,326,27454,6,0,P|231:278|267:198,1,127.500004863739,0|2,1:0|0:0,0:0:0:0:
452,148,28311,2,0,P|484:196|448:276,1,127.500004863739,8|0,1:0|0:0,0:0:0:0:
262,325,28954,1,0,0:0:0:0:
148,276,29168,6,0,L|12:300,1,127.500004863739,0|2,0:0|0:0,0:0:0:0:
359,166,30025,2,0,L|467:146,1,95.6250036478044,8|0,1:0|0:0,0:0:0:0:
472,144,30454,2,0,P|480:104|468:64,1,63.7500024318696
384,12,30883,5,0,1:0:0:0:
152,296,31311,2,0,B|160:372,2,42.5000016212464,2|0|0,0:0|0:0|0:0,0:0:0:0:
76,252,31740,2,0,P|112:216|168:212,1,95.6250036478044,8|0,1:0|0:0,0:0:0:0:
176,216,32168,1,0,0:0:0:0:
284,296,32383,1,0,0:0:0:0:
408,192,32597,6,0,P|394:149|332:110,1,95.6250036478044
328,192,33025,1,2,0:0:0:0:
468,100,33240,1,0,0:0:0:0:
256,40,33454,2,0,L|132:48,1,95.6250036478044,8|0,1:0|0:0,0:0:0:0:
140,40,33883,2,0,P|156:76|148:116,1,63.7500024318696
48,192,34311,5,0,1:0:0:0:
464,192,36025,1,2,1:2:0:0:
275,69,37740,5,0,1:0:0:0:
236,314,39454,1,2,1:2:0:0:
216,133,41168,5,0,1:0:0:0:
200,235,42025,1,2,1:2:0:0:
295,250,42883,1,0,1:0:0:0:
311,148,43740,1,2,1:2:0:0:
160,48,44597,5,0,1:0:0:0:
120,298,45025,1,2,1:2:0:0:
350,334,45454,1,0,1:0:0:0:
390,84,45883,1,2,1:2:0:0:
174,313,46311,5,2,0:2:0:0:
382,166,46525,1,0,0:0:0:0:
128,162,46740,1,2,0:2:0:0:
332,316,46954,1,0,0:0:0:0:
257,72,47168,5,8,0:0:0:0:
232,65,47275,1,0,0:0:0:0:
207,63,47383,1,8,0:0:0:0:
182,68,47490,1,0,0:0:0:0:
156,84,47597,1,8,0:0:0:0:
131,81,47704,1,0,0:0:0:0:
106,83,47811,1,8,0:0:0:0:
82,93,47918,1,0,0:0:0:0:
60,108,48025,6,0,B|28:148|44:188|44:188|24:208|24:208|56:248|44:292,1,170.000006484986,4|0,0:0|2:0,0:0:0:0:
184,336,48454,2,0,B|230:358|265:333|265:333|289:348|289:348|321:308|366:310,1,170.000006484986,4|0,2:0|2:2,0:0:0:0:
464,252,48883,6,0,P|479:275|483:303,2,56.6666666666667,8|2|2,0:0|3:0|3:0,0:0:0:0:
444,96,49311,2,0,P|447:68|463:44,2,56.6666666666667,0|2|2,3:0|3:0|3:0,0:0:0:0:
276,88,49740,6,0,B|216:68,1,56.6666666666667,0|2,0:0|3:2,0:0:0:0:
132,92,50025,1,2,3:2:0:0:
132,92,50168,2,0,B|120:124|120:124|144:208,1,113.333333333333,2|0,3:2|0:0,0:0:0:0:
176,292,50597,5,8,0:0:0:0:
96,348,50740,2,0,L|12:360,1,70.8333333333333,8|8,2:0|2:0,0:0:0:0:
176,292,51025,5,2,3:0:0:0:
256,368,51168,2,0,L|325:382,1,70.8333333333333,8|8,2:0|2:0,0:0:0:0:
452,312,51454,6,2,B|471:282|457:247|457:247|478:238|478:238|432:180|488:128,1,198.333335224787,4|2,0:2|3:0,0:0:0:0:
400,72,51883,6,0,B|380:68|380:68|336:88,1,56.6666666666667,0|2,3:0|3:0,0:0:0:0:
260,68,52168,1,0,0:0:0:0:
256,152,52311,2,0,L|272:184,2,28.3333333333333,8|0|0,0:0|3:0|3:0,0:0:0:0:
260,68,52597,1,2,3:0:0:0:
168,56,52740,2,0,L|108:80,1,56.6666666666667,0|2,3:0|3:0,0:0:0:0:
16,48,53025,1,2,3:2:0:0:
72,168,53168,6,2,B|68:196|44:208|44:208|48:252|-4:256|-4:256|40:288|36:336,1,198.333335224787,0|2,0:0|3:0,0:0:0:0:
158,341,53597,6,0,B|202:329|202:329|266:357,1,99.1666676123937,0|2,3:0|3:0,0:0:0:0:
341,377,53883,1,0,0:0:0:0:
369,375,53954,1,0,0:0:0:0:
397,372,54025,1,0,0:0:0:0:
439,287,54168,2,0,L|465:275,2,28.3333333333333,0|0|2,3:0|3:0|3:0,0:0:0:0:
392,196,54454,2,0,L|424:136,1,56.6666666666667,8|8,0:0|2:2,0:0:0:0:
456,68,54740,1,8,0:0:0:0:
376,24,54883,6,0,P|332:56|256:48,1,113.333333333333,0|0,0:0|2:0,0:0:0:0:
256,48,55311,6,0,B|208:64|160:40|160:40|160:52|160:52|112:40|56:84,1,198.333335224787,4|0,0:2|2:0,0:0:0:0:
8,260,55740,6,0,B|24:244|24:244|12:304|48:340,1,113.333333333333,8|0,0:0|3:0,0:0:0:0:
136,372,56168,2,0,P|164:360|200:364,1,56.6666666666667,2|0,3:0|3:0,0:0:0:0:
296,384,56454,1,2,3:0:0:0:
416,360,56597,5,0,0:0:0:0:
344,268,56740,1,2,3:2:0:0:
476,192,56883,1,2,3:2:0:0:
344,268,57025,6,0,B|280:280|233:224|233:224|212:248|236:276,1,170.000006484986,2|0,3:2|3:0,0:0:0:0:
324,168,57454,1,8,0:0:0:0:
284,76,57597,6,0,P|256:56|200:60,1,70.8333333333333,8|8,2:0|2:0,0:0:0:0:
124,40,57883,1,2,3:0:0:0:
72,128,58025,2,0,P|44:148|-12:144,1,70.8333333333333,8|8,2:0|2:0,0:0:0:0:
140,312,58311,6,2,B|170:324|206:301|206:301|220:322|248:319|248:319|282:360|325:346,1,198.333335224787,4|2,0:2|3:0,0:0:0:0:
420,328,58740,6,0,B|432:312|432:312|424:264,1,56.6666666666667,0|2,3:0|3:0,0:0:0:0:
408,184,59025,1,0,0:0:0:0:
444,104,59168,2,0,L|468:80,2,28.3333333333333,8|0|0,0:0|3:0|3:0,0:0:0:0:
424,96,59383,1,0,3:0:0:0:
400,92,59454,1,2,3:0:0:0:
376,96,59525,1,0,3:0:0:0:
352,108,59597,1,0,3:0:0:0:
336,124,59668,1,0,3:0:0:0:
324,144,59740,2,0,P|288:152|232:124,1,70.8333333333333,2|2,3:0|3:2,0:0:0:0:
156,92,60025,6,2,B|132:108|132:136|132:136|108:136|108:136|112:172|92:196|92:196|24:207,1,170.000006484986,0|2,0:0|3:0,0:0:0:0:
91,293,60454,6,0,B|148:288,1,56.6666666666667,0|2,3:0|3:0,0:0:0:0:
276,372,60740,1,0,0:0:0:0:
276,372,60811,1,0,0:0:0:0:
276,373,60883,6,0,L|364:365,1,70.8333333333333,8|0,0:0|0:0,0:0:0:0:
468,384,61168,6,0,L|460:292,1,85.0000032424928,2|0,3:0|3:0,0:0:0:0:
500,160,61454,6,0,L|348:176,1,113.333333333333,8|0,2:0|2:0,0:0:0:0:
200,308,61740,6,0,B|180:304|172:300|160:280|160:280|136:320|136:320|112:316|92:336,1,141.666666666667,0|0,2:0|0:0,0:0:0:0:
76,344,62168,6,0,B|44:360|44:360|80:256|80:256|56:204|56:204|72:136,1,247.916669030984,4|0,0:0|2:0,0:0:0:0:
72,136,62597,6,0,B|56:104|56:104|28:96|28:96|-4:60,2,99.1666676123937,8|2|2,0:0|3:0|3:0,0:0:0:0:
164,80,63025,2,0,B|180:48|180:48|208:40|208:40|240:4,2,99.1666676123937,0|2|2,3:0|3:0|3:0,0:0:0:0:
224,164,63454,5,0,0:0:0:0:
380,100,63597,1,2,3:2:0:0:
364,268,63740,1,2,3:2:0:0:
280,100,63883,6,0,P|310:158|268:236,1,141.666666666667,2|0,3:2|2:0,0:0:0:0:
276,240,64311,6,0,P|268:287|291:322,1,70.8333333333333,8|8,0:0|2:0,0:0:0:0:
410,350,64597,1,8,2:0:0:0:
436,212,64740,2,0,P|398:181|356:183,1,70.8333333333333,2|8,3:0|2:0,0:0:0:0:
364,268,65025,5,8,2:0:0:0:
308,116,65168,6,2,P|284:184|372:268,1,198.333335224787,4|2,0:2|3:0,0:0:0:0:
436,212,65597,6,0,L|456:136,1,56.6666666666667,0|2,3:0|3:0,0:0:0:0:
404,72,65883,1,0,0:0:0:0:
308,116,66025,2,0,L|300:152,2,28.3333333333333,8|0|0,0:0|3:0|3:0,0:0:0:0:
244,44,66311,1,2,3:0:0:0:
168,100,66454,2,0,P|130:111|100:95,2,56.6666666666667,0|2|2,3:0|3:0|3:2,0:0:0:0:
244,44,66883,6,2,B|272:68|272:68|280:96|280:96|308:116|308:116|320:156|320:156|364:184,1,170.000006484986,0|2,0:0|3:0,0:0:0:0:
464,164,67311,2,0,L|477:88,2,56.6666666666667,0|2|0,3:0|3:0|3:0,0:0:0:0:
440,280,67740,5,8,0:0:0:0:
416,292,67811,1,8,0:0:0:0:
392,304,67883,1,8,0:0:0:0:
368,316,67954,1,0,0:0:0:0:
344,328,68025,1,0,0:0:0:0:
256,240,68168,2,0,L|200:248,2,56.6666666666667,8|8|8,0:0|0:2|0:0,0:0:0:0:
248,364,68597,6,0,B|220:296|280:304|252:232,1,127.5,0|0,1:0|0:0,0:0:0:0:
192,144,69454,6,0,L|120:132,1,56.6666666666667,8|0,1:0|3:0,0:0:0:0:
80,16,69740,1,0,3:0:0:0:
180,56,69883,2,0,L|256:48,1,56.6666666666667,0|0,3:0|3:0,0:0:0:0:
376,32,70168,1,0,3:0:0:0:
252,228,70311,6,0,B|236:256|252:292|252:292|200:312|196:364,1,152.999995330811,0|0,0:0|2:0,0:0:0:0:
272,364,70597,1,2,3:0:0:0:
440,304,70740,2,0,L|472:308,4,28.3333333333333,0|0|0|0|0,3:0|3:0|3:0|3:0|0:0,0:0:0:0:
440,304,71168,6,0,B|468:244|424:332|348:292|332:248|336:232,1,155.833333333333,8|0,1:0|0:0,0:0:0:0:
340,220,72025,6,2,B|364:204|368:184|368:184|400:184|400:184|416:140|488:148,1,148.750001418591,4|0,0:2|2:0,0:0:0:0:
480,152,72311,5,2,3:0:0:0:
432,68,72454,2,0,B|416:60|416:60|368:84,1,56.6666666666667,0|2,3:0|3:0,0:0:0:0:
304,124,72740,1,0,0:0:0:0:
220,84,72883,2,0,L|216:48,2,28.3333333333333,8|0|0,0:0|3:0|3:0,0:0:0:0:
212,108,73097,1,0,3:0:0:0:
192,124,73168,1,2,3:0:0:0:
168,132,73240,1,0,3:0:0:0:
144,128,73311,1,0,3:0:0:0:
124,112,73383,1,0,3:0:0:0:
112,96,73454,2,0,B|92:88|92:88|32:112,1,70.8333333333333,2|0,3:0|3:0,0:0:0:0:
24,232,73740,6,2,B|39:262|74:266|74:266|88:300|88:300|152:288|188:348,1,198.333335224787,0|2,0:0|3:0,0:0:0:0:
109,380,74168,1,0,3:0:0:0:
184,228,74311,1,2,3:0:0:0:
112,384,74454,1,0,0:0:0:0:
268,288,74597,6,0,B|384:296|384:296|332:320,1,148.750001418591,8|0,0:0|2:0,0:0:0:0:
464,336,74883,2,0,P|468:273|404:212,1,127.500004863739,2|0,3:0|2:0,0:0:0:0:
472,168,75168,2,0,P|419:202|366:185,1,106.25,8|0,2:0|2:0,0:0:0:0:
300,108,75454,6,0,B|276:120|267:150|267:150|236:136|210:150|210:150|160:132|116:176,1,198.333335224787,4|0,0:0|2:0,0:0:0:0:
64,248,75883,2,0,P|7:261|42:196,1,170.000006484986,4|0,0:2|2:0,0:0:0:0:
268,288,76311,6,0,P|272:340|260:368,1,70.8333333333333,8|2,0:0|3:0,0:0:0:0:
188,320,76597,1,2,3:0:0:0:
336,232,76740,5,0,3:0:0:0:
452,252,76883,1,2,3:0:0:0:
336,232,77025,1,2,3:0:0:0:
452,252,77168,6,0,B|471:248|486:231|486:231|456:302|456:302|485:307|485:307|498:344,2,170.000006484986,2|0|2,0:2|0:0|0:2,0:0:0:0:
68,296,78025,6,0,B|53:292|41:279|41:279|64:334|64:334|42:338|42:338|32:367,1,141.666666666667,8|0,1:0|2:0,0:0:0:0:
344,240,78883,6,2,B|340:212|352:192|352:192|332:172|332:172|336:152|364:136|364:136|312:124|312:52,1,198.333335224787,4|0,0:2|2:0,0:0:0:0:
112,116,79311,2,2,B|116:144|104:164|104:164|124:184|124:184|120:204|92:220|92:220|144:232|144:304,1,198.333335224787,0|0,0:0|2:0,0:0:0:0:
236,312,79740,6,0,B|256:304|256:304|300:324,1,56.6666666666667,8|2,0:0|3:0,0:0:0:0:
344,240,80025,1,2,3:0:0:0:
448,268,80168,2,0,B|468:276|468:276|512:256,1,56.6666666666667,0|2,3:0|3:0,0:0:0:0:
484,72,80454,1,2,3:2:0:0:
484,72,80525,1,0,3:2:0:0:
484,72,80597,6,0,L|416:52,1,70.8333333333333,0|2,0:0|3:0,0:0:0:0:
304,112,80883,1,2,3:0:0:0:
228,44,81025,2,0,L|160:24,1,70.8333333333333,0|8,3:0|2:0,0:0:0:0:
40,80,81311,1,0,0:0:0:0:
40,80,81383,1,0,3:0:0:0:
40,80,81454,6,0,P|36:128|56:164,1,70.8333333333333,8|2,0:0|3:0,0:0:0:0:
184,224,81740,1,2,0:3:0:0:
101,205,81883,1,8,0:0:0:0:
256,176,82025,1,8,0:0:0:0:
200,328,82168,1,0,0:0:0:0:
200,328,82240,1,0,0:0:0:0:
200,328,82311,6,0,B|240:316|270:344|270:344|296:312|296:312|374:302,1,170.000006484986,4|0,0:2|2:0,0:0:0:0:
404,152,82740,2,0,B|364:164|334:136|334:136|308:168|308:168|230:178,1,170.000006484986,0|0,0:0|2:0,0:0:0:0:
100,204,83168,6,0,P|64:220|48:268,2,70.8333333333333,8|2|2,0:0|3:0|3:0,0:0:0:0:
264,376,83597,2,0,P|300:360|316:312,2,70.8333333333333,0|2|2,3:0|3:0|3:0,0:0:0:0:
120,272,84025,6,8,B|256:308,1,127.500004863739,0|0,0:0|2:0,0:0:0:0:
256,280,84311,2,0,P|308:252|368:280,1,106.25,2|2,0:2|0:3,0:0:0:0:
368,252,84597,1,0,0:0:0:0:
464,340,84740,1,0,0:0:0:0:
488,248,84883,6,0,B|492:228|480:208|480:208|488:192|488:192|464:152|481:109,1,141.666666666667,8|0,1:0|0:0,0:0:0:0:
480,36,85740,6,2,B|440:32|416:64|416:64|392:48|392:48|360:104|272:64,1,198.333335224787,4|0,0:2|2:0,0:0:0:0:
112,244,86168,2,2,B|165:263|197:215|197:215|221:231|221:231|240:200|285:203,1,198.333335224787,0|0,0:0|2:0,0:0:0:0:
352,336,86597,6,0,B|368:324|368:324|412:340,1,56.6666666666667,8|2,0:0|3:0,0:0:0:0:
488,280,86883,1,2,3:0:0:0:
416,200,87025,2,0,P|416:152|432:132,1,56.6666666666667,0|2,3:0|3:0,0:0:0:0:
472,60,87311,2,0,L|448:28,1,28.3333333333333,2|0,3:2|3:0,0:0:0:0:
440,20,87454,6,0,B|415:30|415:30|343:14,2,70.8333333333333,0|2|2,0:0|3:0|3:0,0:0:0:0:
284,101,87883,2,0,B|241:92|241:92|217:103,2,70.8333333333333,0|8|0,3:0|2:0|0:0,0:0:0:0:
312,108,88240,1,0,0:0:0:0:
328,124,88311,6,0,L|312:212,1,70.8333333333333,8|2,0:0|3:0,0:0:0:0:
392,268,88597,1,8,0:0:0:0:
216,348,88740,2,0,L|232:260,1,70.8333333333333,0|0,0:0|0:0,0:0:0:0:
157,193,89025,1,0,0:0:0:0:
312,108,89168,6,0,B|328:124|328:124|248:176|156:96|186:8,1,247.916669030984,4|0,0:0|2:0,0:0:0:0:
352,28,89597,2,0,B|328:16|328:16|416:-40|496:40|476:92,1,212.500008106232,4|0,0:2|2:0,0:0:0:0:
484,88,90025,6,0,B|480:136|452:155|452:155|475:191|464:234,1,141.666666666667,8|2,0:0|3:0,0:0:0:0:
216,348,90454,2,0,B|208:322|230:286|230:286|197:260|199:218,1,141.666666666667,2|2,3:0|3:0,0:0:0:0:
24,72,90883,5,2,0:2:0:0:
192,56,91168,1,0,0:0:0:0:
360,40,91454,1,2,0:2:0:0:
72,192,91740,5,8,1:0:0:0:
272,24,92025,1,0,3:0:0:0:
292,144,92311,2,0,L|314:94,1,42.5,0|0,2:0|2:0,0:0:0:0:
320,76,92597,6,2,B|304:48|304:48|380:48|380:48|408:100|472:104,1,198.333335224787,4|0,0:2|2:0,0:0:0:0:
348,248,93025,2,2,B|364:276|364:276|288:276|288:276|260:224|196:220,1,198.333335224787,0|0,0:0|2:0,0:0:0:0:
148,296,93454,6,0,L|83:275,1,56.6666666666667,8|2,0:0|3:0,0:0:0:0:
48,192,93740,1,2,3:0:0:0:
128,128,93883,2,0,P|144:108|148:68,2,56.6666666666667,0|2|2,3:0|3:0|3:2,0:0:0:0:
128,128,94240,1,0,3:0:0:0:
128,128,94311,5,0,0:0:0:0:
52,68,94454,1,2,3:3:0:0:
220,24,94597,1,2,3:0:0:0:
284,100,94740,2,0,P|312:116|360:116,1,70.8333333333333,0|8,3:0|2:0,0:0:0:0:
440,72,95025,1,0,0:0:0:0:
440,72,95097,1,0,0:0:0:0:
440,72,95168,6,0,L|428:-16,1,70.8333333333333,8|2,0:0|3:0,0:0:0:0:
340,32,95454,1,0,0:0:0:0:
368,204,95597,2,0,L|377:274,1,70.8333333333333,8|8,0:0|0:0,0:0:0:0:
464,340,95883,1,8,0:0:0:0:
368,384,96025,6,0,B|340:382|340:382|331:369|331:369|312:375|312:375|303:350|303:350|273:362,1,106.250004053116,4|0,0:2|2:0,0:0:0:0:
100,280,96454,2,0,B|127:278|127:278|136:265|136:265|155:271|155:271|164:246|164:246|194:258,1,106.250004053116,0|0,0:0|2:0,0:0:0:0:
200,260,96883,6,0,B|228:292|228:292|201:314|200:352,2,99.1666676123937,8|2|2,0:0|3:0|3:0,0:0:0:0:
352,172,97311,2,0,B|324:140|324:140|348:120|352:80,2,99.1666676123937,0|2|2,3:0|3:0|3:0,0:0:0:0:
228,172,97740,6,0,L|352:300,1,170.000006484986,0|2,0:0|3:0,0:0:0:0:
488,296,98168,2,0,B|436:236,1,70.8333333333333,0|2,3:0|3:0,0:0:0:0:
456,148,98454,1,0,3:0:0:0:
348,128,98597,6,0,P|304:96|208:112,1,148.750001418591,8|0,0:0|2:0,0:0:0:0:
164,192,98883,2,0,P|213:170|244:104,1,106.25,2|0,3:0|2:0,0:0:0:0:
196,36,99168,6,0,P|190:91|222:146,1,99.1666676123937,8|8,2:0|2:0,0:0:0:0:
292,192,99454,5,0,0:0:0:0:
428,116,99597,1,2,3:2:0:0:
420,264,99740,1,0,3:0:0:0:
348,128,99883,5,0,0:0:0:0:
348,128,99954,1,0,0:0:0:0:
348,128,100025,1,0,0:0:0:0:
348,128,100097,1,0,0:0:0:0:
348,128,100168,1,0,0:0:0:0:
164,192,100311,6,0,L|104:188,1,56.6666666666667,8|0,0:0|3:0,0:0:0:0:
16,252,100597,1,0,3:0:0:0:
144,328,100740,6,0,L|180:324,1,21.2500008106232,0|0,3:0|2:0,0:0:0:0:
240,352,100883,2,0,L|276:360,1,21.2500008106232,0|0,3:0|2:0,0:0:0:0:
324,308,101025,2,0,L|356:304,1,21.2500008106232,0|0,3:0|2:0,0:0:0:0:
420,264,101168,6,0,P|428:220|416:188,1,70.8333333333333,0|2,0:0|3:0,0:0:0:0:
348,128,101454,1,2,3:0:0:0:
180,264,101597,2,0,L|165:333,1,70.8333333333333,0|2,3:0|3:0,0:0:0:0:
64,364,101883,1,0,0:0:0:0:
64,364,101954,1,0,0:0:0:0:
64,364,102025,5,0,0:0:0:0:
180,264,102168,1,2,3:0:0:0:
296,356,102311,1,2,3:0:0:0:
467,309,102454,6,0,B|424:304|400:256|422:206|422:206|373:228|373:228|398:160|348:128,1,297.500002837181,8|4,0:0|0:0,0:0:0:0:
58,128,116597,6,0,P|139:94|200:172,1,191.250007295609,0|0,1:0|2:0,0:0:0:0:
124,172,117454,1,8,1:0:0:0:
76,299,117883,2,0,P|104:321|138:329,1,63.7500024318696,0|0,2:0|2:0,0:0:0:0:
232,290,118311,6,0,P|301:281|348:319,1,127.500004863739,0|2,1:0|0:0,0:0:0:0:
480,177,118954,1,0,2:0:0:0:
439,273,119168,2,0,L|471:328,1,63.7500024318696,8|0,1:0|0:0,0:0:0:0:
480,177,119597,2,0,L|448:122,1,63.7500024318696,0|0,0:0|0:0,0:0:0:0:
281,31,120025,6,0,B|260:45|228:45|228:45|253:67|268:116|232:160|192:172,1,191.250007295609,0|0,1:0|0:0,0:0:0:0:
172,96,120883,2,0,P|139:84|98:89,1,63.7500024318696,8|0,1:0|0:0,0:0:0:0:
110,85,121311,1,0,0:0:0:0:
122,223,121740,2,0,B|157:235|157:235|189:223|189:223|212:240|242:238,1,127.500004863739,0|2,1:0|0:0,0:0:0:0:
338,186,122383,1,0,0:0:0:0:
421,255,122597,2,0,L|428:319,1,63.7500024318696,8|0,1:0|0:0,0:0:0:0:
338,186,123025,2,0,L|345:122,1,63.7500024318696,0|0,0:0|0:0,0:0:0:0:
326,271,123454,6,0,B|308:280|308:280|280:267|280:267|257:281|257:281|231:278|231:278|188:299|143:274,1,191.250007295609,0|0,1:0|0:0,0:0:0:0:
88,228,124311,2,0,P|52:215|8:217,1,63.7500024318696,8|0,1:0|0:0,0:0:0:0:
108,344,124740,1,0,0:0:0:0:
365,206,125168,6,0,P|328:168|252:194,2,127.500004863739,0|2|8,1:0|0:0|1:0,0:0:0:0:
135,176,126454,2,0,P|126:139|132:111,1,63.7500024318696,0|0,0:0|0:0,0:0:0:0:
225,67,126883,6,0,L|359:78,1,127.500004863739,0|2,1:0|1:2,0:0:0:0:
448,196,127525,1,0,0:0:0:0:
448,196,127740,2,0,P|438:251|412:273,1,63.7500024318696,8|0,1:0|0:0,0:0:0:0:
316,312,128168,2,0,P|347:310|377:321,1,63.7500024318696,2|0,1:2|0:0,0:0:0:0:
238,262,128597,5,0,1:0:0:0:
137,301,128811,1,0,1:0:0:0:
205,243,129025,1,2,1:2:0:0:
98,226,129240,1,0,1:0:0:0:
186,211,129454,1,8,1:0:0:0:
102,143,129668,2,0,P|89:112|89:95,1,31.8750012159348,0|0,1:0|1:0,0:0:0:0:
189,110,129883,2,0,P|199:77|210:64,1,31.8750012159348,2|0,1:2|1:0,0:0:0:0:
274,149,130097,2,0,P|302:130|319:127,1,31.8750012159348,0|0,1:0|1:0,0:0:0:0:
394,179,130311,6,0,P|443:193|494:173,2,95.6250036478044,0|0|0,1:0|0:0|0:0,0:0:0:0:
440,112,131168,2,0,B|442:72|442:72|438:68|438:68|447:69|447:69|442:67|442:67|445:30,2,95.6250036478044,0|0|0,1:0|0:0|0:0,0:0:0:0:
361,104,132025,2,0,B|326:95|295:108|295:108|257:101,1,95.6250036478044,0|0,1:0|0:0,0:0:0:0:
114,46,132668,1,0,0:0:0:0:
63,142,132883,2,0,B|63:205|63:205|48:234,2,95.6250036478044,0|0|0,1:0|0:0|0:0,0:0:0:0:
131,264,133740,6,0,P|175:287|229:277,2,95.6250036478044,0|0|0,1:0|0:0|0:0,0:0:0:0:
190,203,134597,2,0,B|215:203|237:191|237:191|261:197|283:190,1,95.6250036478044,0|0,1:0|0:0,0:0:0:0:
415,286,135240,1,0,0:0:0:0:
490,208,135454,2,0,P|494:175|449:120,2,95.6250036478044,0|0|0,1:0|0:0|0:0,0:0:0:0:
415,286,136311,2,0,L|314:275,1,95.6250036478044,0|0,1:0|0:0,0:0:0:0:
167,333,136954,1,0,0:0:0:0:
75,275,137168,6,0,P|63:234|68:203,1,63.7500024318696,0|0,1:0|0:0,0:0:0:0:
287,64,137597,2,0,P|299:105|294:136,1,63.7500024318696,2|0,1:2|0:0,0:0:0:0:
227,286,138025,2,0,P|215:245|220:214,1,63.7500024318696,0|0,1:0|0:0,0:0:0:0:
439,75,138454,2,0,P|451:116|446:147,1,63.7500024318696,2|0,1:2|0:0,0:0:0:0:
189,150,138883,6,0,L|121:133,1,63.7500024318696,0|0,1:0|0:0,0:0:0:0:
377,60,139311,2,0,L|445:77,1,63.7500024318696,2|0,1:2|0:0,0:0:0:0:
186,65,139740,2,0,L|153:3,1,63.7500024318696,0|0,1:0|0:0,0:0:0:0:
379,144,140168,2,0,L|412:206,1,63.7500024318696,2|0,1:2|0:0,0:0:0:0:
384,306,140597,5,0,1:0:0:0:
289,359,140811,1,2,1:2:0:0:
183,336,141025,1,0,1:0:0:0:
134,238,141240,1,2,1:2:0:0:
217,169,141454,2,0,P|229:128|224:92,1,63.7500024318696,0|2,1:0|1:2,0:0:0:0:
23,53,141883,2,0,P|23:84|33:114,1,63.7500024318696,0|2,1:0|1:2,0:0:0:0:
134,238,142311,6,0,L|178:229,1,31.8750012159348,0|0,1:0|1:0,0:0:0:0:
235,264,142525,2,0,L|279:255,1,31.8750012159348,2|0,1:2|1:0,0:0:0:0:
338,291,142740,2,0,L|382:282,1,31.8750012159348,0|0,1:2|1:0,0:0:0:0:
439,317,142954,2,0,L|483:308,1,31.8750012159348,2|0,1:2|1:0,0:0:0:0:
488,164,143168,5,8,1:0:0:0:
450,154,143275,1,0,1:0:0:0:
412,145,143383,1,8,1:0:0:0:
375,136,143490,1,0,1:0:0:0:
338,128,143597,1,8,1:0:0:0:
300,119,143704,1,0,1:0:0:0:
263,112,143811,1,8,1:0:0:0:
226,103,143918,1,0,1:0:0:0:
188,96,144025,6,0,P|122:163|223:153,1,247.916669030984,4|0,0:0|2:0,0:0:0:0:
264,112,144454,6,0,B|271:91|316:89|334:119|333:150|333:150|326:180|326:180|336:222,1,177.083333333333,8|0,0:0|2:0,0:0:0:0:
390,328,144883,6,0,B|422:341|422:341|455:341,2,56.6666666666667,0|2|2,0:0|3:0|0:3,0:0:0:0:
280,319,145311,2,0,B|248:306|248:306|215:306,2,56.6666666666667,8|2|2,0:0|0:3|0:3,0:0:0:0:
335,228,145740,6,0,L|335:163,1,56.6666666666667,0|2,0:0|3:2,0:0:0:0:
198,58,146025,1,2,3:2:0:0:
269,99,146168,2,0,P|326:75|393:95,1,113.333333333333,8|0,0:0|2:0,0:0:0:0:
198,138,146597,5,0,0:0:0:0:
123,101,146740,1,8,2:2:0:0:
66,157,146883,1,8,0:2:0:0:
63,169,146954,1,0,0:0:0:0:
61,181,147025,2,0,B|46:222|46:222|13:253,1,85.0000032424928,8|8,0:0|0:2,0:0:0:0:
46,82,147311,1,8,0:0:0:0:
123,101,147454,6,2,B|164:108|164:108|186:128|186:128|217:95|256:86|302:98,1,192.666670341492,4|2,0:2|3:0,0:0:0:0:
263,196,147883,2,0,L|236:277,1,73.6666632944744,8|2,0:0|3:0,0:0:0:0:
385,342,148168,1,0,3:0:0:0:
440,272,148311,2,0,L|430:229,2,36.8333316472372,0|0|0,1:0|3:0|3:0,0:0:0:0:
481,169,148525,2,0,L|491:126,2,36.8333316472372,0|0|0,3:0|1:0|3:0,0:0:0:0:
415,104,148740,2,0,P|414:57|431:16,1,73.6666632944744,8|2,0:0|0:3,0:0:0:0:
276,33,149025,1,2,0:2:0:0:
331,103,149168,6,2,B|332:136|354:163|354:163|332:184|316:213|316:213|329:247|317:280,1,192.666670341492,0|2,0:0|3:0,0:0:0:0:
171,256,149597,2,0,P|215:244|251:252,1,73.6666632944744,8|2,0:0|3:0,0:0:0:0:
216,334,149883,1,0,1:0:0:0:
87,289,150025,1,0,0:0:0:0:
72,256,150097,1,0,0:0:0:0:
72,246,150168,1,0,0:0:0:0:
65,224,150240,1,0,0:0:0:0:
58,203,150311,1,2,0:3:0:0:
168,113,150454,2,0,P|156:157|124:184,1,73.6666632944744,8|8,0:0|0:2,0:0:0:0:
68,107,150740,1,8,0:0:0:0:
123,29,150883,6,0,P|195:8|296:64,1,192.666670341492,0|0,0:0|2:0,0:0:0:0:
382,163,151311,6,0,B|391:136|391:136|387:108|387:108|397:81,1,85.0000032424928,4|0,0:2|2:0,0:0:0:0:
505,157,151740,6,0,P|517:197|427:256,1,153.000000583649,8|0,0:0|3:0,0:0:0:0:
292,274,152168,1,2,3:0:0:0:
162,220,152311,1,0,3:0:0:0:
241,210,152454,1,2,3:0:0:0:
292,273,152597,6,0,L|303:348,1,76.5000002918244,0|2,0:0|3:2,0:0:0:0:
208,293,152883,1,2,3:2:0:0:
162,220,153025,6,0,L|176:108,1,106.250004053116,2|0,0:2|2:0,0:0:0:0:
136,52,153454,6,0,B|104:45|104:45|79:58|41:57,2,85.0000032424928,8|8|8,0:0|2:2|0:2,0:0:0:0:
213,51,153883,2,0,B|245:58|245:58|270:45|308:46,2,85.0000032424928,8|8|8,0:0|0:2|0:0,0:0:0:0:
175,114,154311,6,2,B|196:154|235:168|278:160|278:160|306:135|344:137,1,192.666670341492,4|2,0:2|2:3,0:0:0:0:
443,194,154740,6,0,P|460:144|457:111,1,73.6666632944744,8|2,0:0|3:3,0:0:0:0:
397,272,155025,1,0,3:0:0:0:
319,318,155168,1,0,0:0:0:0:
298,326,155240,1,0,3:0:0:0:
276,329,155311,1,0,3:0:0:0:
253,327,155383,1,0,3:0:0:0:
231,321,155454,1,2,0:3:0:0:
211,310,155525,1,0,0:0:0:0:
195,294,155597,2,0,P|174:257|170:220,1,73.6666632944744,8|2,0:0|0:3,0:0:0:0:
273,226,155883,1,8,0:0:0:0:
319,319,156025,2,2,B|257:314|257:314|200:372|122:337,1,192.666670341492,0|2,0:0|3:0,0:0:0:0:
202,164,156454,6,0,L|176:260,1,73.6666632944744,8|2,0:0|3:0,0:0:0:0:
96,184,156740,1,0,0:0:0:0:
96,184,156811,1,0,0:0:0:0:
96,184,156883,2,0,L|76:108,1,73.6666632944744,8|0,0:0|0:0,0:0:0:0:
202,164,157168,6,0,L|176:260,1,96.3333351707459,8|0,0:0|3:0,0:0:0:0:
306,194,157454,6,0,L|274:75,1,113.333333333333,8|0,0:0|2:0,0:0:0:0:
503,226,157740,6,0,B|485:256|485:256|450:270|405:254,1,106.250004053116,0|0,2:0|2:0,0:0:0:0:
415,257,158168,6,0,B|369:211|369:211|312:261|312:261|263:223|210:242,1,247.916669030984,4|0,0:0|2:0,0:0:0:0:
208,316,158597,6,0,B|175:316|155:293|155:293|123:250,1,113.333333333333,8|0,0:0|3:0,0:0:0:0:
65,96,159025,2,0,B|39:85|10:91,2,56.6666666666667,2|0|2,3:0|3:0|3:0,0:0:0:0:
146,154,159454,6,0,B|184:176|184:176|240:172,2,85.0000032424928,0|2|2,0:0|3:2|3:2,0:0:0:0:
180,45,159883,2,0,P|228:33|286:74,1,113.333333333333,2|0,3:2|0:0,0:0:0:0:
435,47,160311,6,0,B|474:21|474:21|449:89|460:154,1,170.000006484986,8|8,0:0|2:0,0:0:0:0:
372,180,160740,1,2,3:0:0:0:
281,156,160883,1,8,2:0:0:0:
192,182,161025,1,8,2:0:0:0:
109,139,161168,6,2,B|87:117|87:117|102:83|102:83|92:35,1,113.333333333333,4|2,0:2|3:0,0:0:0:0:
13,89,161597,2,0,P|7:129|21:156,1,56.6666666666667,8|2,0:0|3:0,0:0:0:0:
61,214,161883,1,0,3:0:0:0:
133,277,162025,2,0,P|138:255|134:235,2,28.3333333333333,0|0|0,0:0|3:0|3:0,0:0:0:0:
57,334,162311,1,2,0:3:0:0:
149,368,162454,2,0,L|226:372,1,56.6666666666667,8|2,0:0|0:3,0:0:0:0:
298,340,162740,1,0,0:0:0:0:
338,252,162883,6,2,B|336:213|336:213|370:191|365:145,1,113.333333333333,0|2,0:0|3:0,0:0:0:0:
406,57,163311,2,0,P|451:51|472:58,1,56.6666666666667,8|2,0:0|3:0,0:0:0:0:
300,64,163597,1,0,0:0:0:0:
212,40,163740,1,8,0:0:0:0:
203,38,163811,1,0,0:0:0:0:
194,36,163883,1,0,0:0:0:0:
185,34,163954,1,0,0:0:0:0:
176,32,164025,1,2,0:3:0:0:
62,91,164168,2,0,L|126:82,1,56.6666666666667,8|8,0:0|0:2,0:0:0:0:
281,160,164454,1,8,0:0:0:0:
346,246,164597,6,2,B|341:302|286:308|264:276|266:248|266:248|245:256|245:256|225:253|225:253|213:268|213:268|194:270|194:270|176:288,1,233.750008916855,0|0,1:0|0:0,0:0:0:0:
127,239,165454,6,0,L|87:279,1,56.6666666666667,8|0,0:0|3:0,0:0:0:0:
180,184,165740,1,0,3:0:0:0:
111,156,165883,6,0,L|56:174,1,56.6666666666667,0|0,3:0|3:0,0:0:0:0:
180,184,166168,1,0,3:0:0:0:
257,140,166311,6,0,P|272:88|241:34,1,113.333333333333,0|0,0:0|2:0,0:0:0:0:
127,239,166597,2,0,L|187:343,1,113.333333333333,2|0,3:0|3:0,0:0:0:0:
348,282,166883,1,0,3:0:0:0:
302,357,167025,1,0,3:0:0:0:
396,209,167168,6,2,B|414:166|458:160|502:186|508:238|473:270|473:270|448:269|448:269|428:278,1,233.750008916855,8|0,1:0|0:0,0:0:0:0:
348,282,168025,6,2,B|306:259|306:259|267:298|196:293|163:243,1,198.333335224787,4|2,0:2|3:0,0:0:0:0:
229,99,168454,2,0,B|249:143|249:143|240:198,1,99.1666676123937,8|2,0:0|3:0,0:0:0:0:
147,158,168740,1,0,3:0:0:0:
317,34,168883,1,0,0:0:0:0:
331,38,168954,1,0,0:0:0:0:
345,42,169025,1,0,0:0:0:0:
359,46,169097,1,0,0:0:0:0:
373,50,169168,1,2,0:3:0:0:
387,54,169240,1,0,0:0:0:0:
398,57,169311,2,0,B|432:47|432:47|456:59|456:59|472:61|492:56,2,99.1666676123937,8|0|0,0:0|0:0|0:0,0:0:0:0:
317,34,169740,6,2,B|263:27|263:27|243:53|209:59,1,113.333333333333,0|2,0:0|3:0,0:0:0:0:
97,80,170168,6,0,L|-13:62,2,99.1666676123937,8|2|0,0:0|3:0|0:0,0:0:0:0:
164,109,170525,1,0,0:0:0:0:
164,109,170597,6,0,P|180:173|171:228,1,113.333333333333,8|0,0:0|0:0,0:0:0:0:
336,306,170883,6,0,L|437:294,1,85.0000032424928,8|0,0:0|0:0,0:0:0:0:
492,118,171168,6,0,L|429:111,1,56.6666666666667,8|0,0:0|0:0,0:0:0:0:
251,192,171454,6,0,P|308:211|302:111,1,192.666670341492,4|0,0:0|2:0,0:0:0:0:
124,195,171883,2,0,B|112:224|112:224|130:263|130:263|116:295|116:295|133:324|129:355,1,170.000006484986,4|0,0:2|2:0,0:0:0:0:
51,154,172311,6,0,L|42:77,1,70.8333333333333,8|2,0:0|3:0,0:0:0:0:
124,196,172597,1,2,3:0:0:0:
186,134,172740,2,0,L|178:64,1,70.8333333333333,0|2,3:0|3:0,0:0:0:0:
251,192,173025,1,2,3:0:0:0:
330,139,173168,6,0,B|380:132|380:132|408:170|460:175|501:128|482:82,2,215.333327583313,2|0|2,0:2|0:0|0:2,0:0:0:0:
30,244,174025,6,0,B|53:274|100:274|108:244|146:243|146:243|191:242,1,169.999994812012,8|0,1:0|0:0,0:0:0:0:
357,257,174883,6,2,B|328:248|310:226|310:226|251:242|251:242|221:232|189:242,1,181.333333333333,4|0,0:2|2:0,0:0:0:0:
63,139,175311,2,2,B|93:147|110:170|110:170|168:153|168:153|202:163|238:153,1,181.333333333333,8|0,0:0|2:0,0:0:0:0:
381,83,175740,6,0,L|452:80,2,70.8333333333333,0|2|2,0:0|3:0|3:0,0:0:0:0:
231,155,176168,2,0,L|304:152,2,70.8333333333333,8|2|2,0:0|3:0|3:2,0:0:0:0:
204,84,176525,5,0,3:2:0:0:
204,84,176597,2,0,P|189:43|195:7,1,70.8333333333333,0|2,0:0|3:0,0:0:0:0:
276,58,176883,1,2,3:0:0:0:
304,154,177025,2,0,L|299:228,1,70.8333333333333,8|8,0:0|2:0,0:0:0:0:
382,316,177311,1,0,3:0:0:0:
382,316,177383,1,0,3:0:0:0:
382,316,177454,6,0,P|386:273|371:239,1,70.8333333333333,0|2,0:0|0:3,0:0:0:0:
299,225,177740,1,2,0:3:0:0:
225,260,177883,2,0,P|221:303|236:337,1,70.8333333333333,8|2,0:0|0:3,0:0:0:0:
299,225,178168,1,0,0:0:0:0:
230,180,178311,6,0,B|190:179|161:156|161:156|117:194|117:194|78:184|48:201,1,198.333335224787,4|0,0:2|2:0,0:0:0:0:
55,334,178740,2,0,B|80:348|119:338|119:338|163:376|163:376|192:353|232:352,1,198.333335224787,0|0,0:0|2:0,0:0:0:0:
90,265,179168,2,0,L|194:269,1,99.1666676123937,8|2,0:0|3:0,0:0:0:0:
299,224,179454,1,2,3:0:0:0:
388,267,179597,1,8,0:0:0:0:
433,178,179740,1,8,0:0:0:0:
344,135,179883,1,8,0:0:0:0:
299,224,180025,6,0,P|207:246|160:199,1,148.750001418591,0|0,0:0|2:0,0:0:0:0:
88,96,180311,2,0,P|20:136|24:224,1,158.666661824544,0|0,0:0|2:0,0:0:0:0:
128,357,180740,1,0,0:0:0:0:
128,358,180883,6,0,B|136:332|156:315|156:315|119:266|119:266|134:227|115:187|92:179,1,212.500008106232,8|0,1:0|0:0,0:0:0:0:
167,93,181740,6,0,B|179:84|179:84|191:91|191:91|201:82|201:82|215:88|215:88|246:62|295:63|323:86|323:86|339:79|339:79|351:89|351:89|366:83|366:83|379:93,2,237.999992736817,4|8|0,0:2|0:0|0:0,0:0:0:0:
271,159,182740,5,2,3:0:0:0:
347,200,182883,1,2,3:3:0:0:
429,171,183025,2,0,P|456:131|456:84,1,79.3333309122722,8|2,0:0|3:0,0:0:0:0:
360,212,183311,1,2,3:2:0:0:
360,212,183383,1,0,3:0:0:0:
360,212,183454,6,0,L|376:298,1,79.3333309122722,0|2,0:0|3:0,0:0:0:0:
211,369,183740,1,2,3:0:0:0:
158,298,183883,2,0,L|174:212,1,79.3333309122722,8|8,0:0|2:0,0:0:0:0:
151,125,184168,1,0,0:0:0:0:
151,125,184240,1,0,0:0:0:0:
151,125,184311,2,0,P|109:95|68:126,1,93.5000008916855,8|0,0:0|0:0,0:0:0:0:
242,157,184597,2,0,P|288:135|282:84,1,93.5000008916855,8|0,0:0|0:0,0:0:0:0:
173,220,184883,2,0,P|168:271|215:291,1,93.5000008916855,8|0,0:0|0:0,0:0:0:0:
324,286,185168,6,0,B|361:300|392:283|392:283|411:308|445:315|445:315|529:289,1,212.500008106232,4|0,0:0|2:0,0:0:0:0:
496,204,185597,6,0,B|454:218|454:218|427:189|427:189|371:177,1,141.666666666667,0|0,0:0|2:0,0:0:0:0:
305,131,186025,6,0,P|294:82|344:30,1,113.333333333333,8|2,0:0|3:0,0:0:0:0:
156,166,186454,2,0,P|98:180|45:149,1,113.333333333333,0|2,3:0|3:0,0:0:0:0:
239,180,186883,6,0,L|253:269,1,85.0000032424928,2|0,0:2|2:0,0:0:0:0:
78,116,187168,2,0,L|96:-5,1,99.1666676123937,0|0,0:0|2:0,0:0:0:0:
396,115,187454,2,0,L|375:243,1,113.333333333333,2|0,0:2|2:0,0:0:0:0:
116,350,187740,5,8,0:0:0:0:
34,262,188025,1,0,3:0:0:0:
147,239,188311,1,0,2:0:0:0:
236,316,188597,6,2,P|302:335|376:260,1,170.000006484986,4|0,0:2|2:0,0:0:0:0:
307,118,189025,6,2,B|273:167|273:167|291:255,1,141.666666666667,8|0,0:0|2:0,0:0:0:0:
383,139,189454,2,0,P|382:98|371:74,2,56.6666666666667,0|2|2,0:0|3:0|3:0,0:0:0:0:
238,83,189883,2,0,P|230:110|231:138,2,56.6666666666667,8|2|0,0:0|3:0|3:0,0:0:0:0:
308,56,190240,5,0,3:0:0:0:
308,56,190311,2,0,L|311:-5,1,56.6666666666667,0|2,0:0|3:0,0:0:0:0:
306,139,190597,1,2,0:3:0:0:
306,139,190668,1,0,0:0:0:0:
306,139,190740,2,0,L|303:200,1,56.6666666666667,8|8,0:0|0:2,0:0:0:0:
212,286,191025,2,0,P|205:275|199:252,1,28.3333333333333,0|0,0:0|0:0,0:0:0:0:
227,297,191168,6,0,P|261:283|294:288,1,56.6666666666667,0|2,0:0|0:3,0:0:0:0:
384,323,191454,1,2,0:3:0:0:
384,323,191525,1,0,0:0:0:0:
384,323,191597,1,8,0:0:0:0:
440,186,191740,1,8,0:0:0:0:
440,266,191883,1,8,0:0:0:0:
399,115,192025,6,0,B|361:101|361:101|340:126|311:138|266:127,1,141.666666666667,4|0,0:2|2:0,0:0:0:0:
106,79,192454,2,0,P|59:78|88:158,1,141.666666666667,0|0,0:0|2:0,0:0:0:0:
189,214,192883,6,0,L|262:202,2,70.8333333333333,8|2|2,0:0|3:0|3:0,0:0:0:0:
100,253,193311,2,0,L|27:241,2,70.8333333333333,0|2|2,3:0|3:0|3:0,0:0:0:0:
179,303,193740,2,0,B|214:337|214:337|224:324|247:318|247:318|277:328|277:328|328:324,1,170.000006484986,0|2,0:0|3:0,0:0:0:0:
455,259,194168,2,0,P|412:240|368:248,1,85.0000032424928,0|2,3:0|3:0,0:0:0:0:
229,187,194454,1,0,0:0:0:0:
317,187,194597,6,0,P|378:201|460:156,2,141.666666666667,8|2|8,0:0|3:0|2:0,0:0:0:0:
271,112,195311,1,8,2:0:0:0:
229,187,195454,5,0,0:0:0:0:
119,232,195597,1,2,0:2:0:0:
229,187,195740,1,0,0:0:0:0:
181,113,195883,1,0,0:0:0:0:
166,104,195954,1,0,0:0:0:0:
151,95,196025,1,0,0:0:0:0:
136,86,196097,1,0,0:0:0:0:
121,77,196168,1,0,0:0:0:0:
1,31,196311,6,0,L|89:14,1,85.0000032424928,8|8,0:0|0:0,0:0:0:0:
223,33,196597,1,8,0:0:0:0:
329,136,196740,2,0,L|320:185,1,42.5000016212464,8|0,0:0|0:0,0:0:0:0:
307,66,196883,2,0,L|316:17,1,42.5000016212464,8|0,0:0|0:0,0:0:0:0:
392,43,197025,2,0,L|383:92,1,42.5000016212464,8|0,0:0|2:0,0:0:0:0:
456,138,197168,6,0,P|456:180|473:209,1,56.6666666666667,0|2,0:0|3:0,0:0:0:0:
292,321,197454,1,2,3:0:0:0:
382,272,197597,2,0,P|390:246|388:218,1,56.6666666666667,0|2,3:0|3:0,0:0:0:0:
308,67,197883,1,0,0:0:0:0:
308,67,197954,1,0,0:0:0:0:
308,67,198025,6,0,L|234:50,1,70.8333333333333,8|0,0:0|0:0,0:0:0:0:
133,152,198311,6,0,P|116:205|127:244,1,85.0000032424928,8|0,0:0|0:0,0:0:0:0:
297,339,198597,6,0,P|295:284|273:244,1,99.1666676123937,8|0,0:0|0:0,0:0:0:0:
39,164,198883,5,4,0:1:0:0:
256,192,198954,12,0,202311,0:0:0:0:
