osu file format v14

[General]
AudioFilename: Dangdutstep.mp3
AudioLeadIn: 0
PreviewTime: 48026
Countdown: 0
SampleSet: Normal
StackLeniency: 0.7
Mode: 0
LetterboxInBreaks: 1
WidescreenStoryboard: 1

[Editor]
Bookmarks: 20598,34312,48026,61741,75455,89169,102883,116598,130312,144026,157741,171455,185169,198884
DistanceSpacing: 1
BeatDivisor: 6
GridSize: 4
TimelineZoom: 0.8999997

[Metadata]
Title:Onslaught
TitleUnicode:Onslaught
Artist:CENOB1TE
ArtistUnicode:CENOB1TE
Creator:inverness
Version:hard_
Source:
Tags:dubstep drumstep dangdutstep foreverends winber1 charles445 hanzer kyshiro irreversible wendao2000 harez
BeatmapID:436573
BeatmapSetID:181979

[Difficulty]
HPDrainRate:5
CircleSize:4
OverallDifficulty:7
ApproachRate:8
SliderMultiplier:1.6
SliderTickRate:1

[Events]
//Background and Video events
0,0,"sunsetsoldier-does-it-matter-wallpaper.jpg",0,0
//Break Periods
2,103083,115847
//Storyboard Layer 0 (Background)
//Storyboard Layer 1 (Fail)
//Storyboard Layer 2 (Pass)
//Storyboard Layer 3 (Foreground)
//Storyboard Sound Samples

[TimingPoints]
6883,428.571428571429,4,2,1,90,1,0
20597,-133.333333333333,4,2,1,60,0,0
34311,-133.333333333333,4,2,1,50,0,0
44597,-133.333333333333,4,1,1,55,0,0
45025,-133.333333333333,4,1,1,60,0,0
45454,-133.333333333333,4,1,1,65,0,0
45883,-133.333333333333,4,1,1,70,0,0
46311,-133.333333333333,4,1,1,75,0,0
47168,-133.333333333333,4,1,1,70,0,0
48025,-80,4,1,1,94,0,1
48311,-100,4,1,1,94,0,1
48883,-80,4,1,1,94,0,1
49597,-100,4,1,1,94,0,1
51883,-80,4,1,1,94,0,1
52168,-100,4,1,1,94,0,1
53597,-80,4,1,1,94,0,1
53883,-100,4,1,1,94,0,1
56168,-80,4,1,1,94,0,1
56454,-100,4,1,1,94,0,1
58597,-80,4,1,1,94,0,1
59025,-100,4,1,1,94,0,1
60311,-80,4,1,1,94,0,1
60740,-100,4,1,1,94,0,1
61168,-100,4,1,1,84,0,1
61454,-100,4,1,1,74,0,1
61740,-100,4,2,1,94,0,0
62168,-100,4,1,1,94,0,1
67740,-80,4,1,1,94,0,1
68025,-100,4,1,1,94,0,1
68597,-100,4,2,1,94,0,1
69454,-80,4,2,1,84,0,0
70311,-80,4,1,1,94,0,0
71168,-200,4,2,1,94,0,1
72025,-100,4,1,1,94,0,1
74597,-80,4,1,1,94,0,1
74883,-100,4,1,1,94,0,1
75383,-100,4,1,1,94,0,0
75454,-100,4,1,1,94,0,1
76311,-80,4,1,1,94,0,1
77740,-100,4,1,1,94,0,1
78025,-100,4,2,1,94,0,0
78883,-100,4,1,1,94,0,1
80168,-80,4,1,1,94,0,1
80454,-100,4,1,1,94,0,1
81025,-80,4,1,1,94,0,1
81311,-100,4,1,1,94,0,1
83168,-80,4,1,1,94,0,1
84597,-100,4,1,1,94,0,1
84883,-200,4,1,1,94,0,1
85597,-100,4,1,1,94,0,1
89097,-100,4,1,1,94,0,0
89168,-100,4,1,1,94,0,1
90883,-80,4,1,1,94,0,1
91454,-100,4,1,1,94,0,1
91740,-100,4,2,1,94,0,0
92025,-100,4,2,1,74,0,0
92311,-100,4,2,1,54,0,0
92597,-100,4,1,1,94,0,1
93454,-80,4,1,1,94,0,1
96025,-100,4,1,1,94,0,1
99454,-80,4,1,1,94,0,1
102883,-100,4,1,1,94,0,0
116597,-133.333333333333,4,2,1,60,0,0
130311,-133.333333333333,4,2,1,50,0,0
142311,-133.333333333333,4,2,1,64,0,0
143168,-80,4,2,1,78,0,0
144025,-80,4,1,1,94,0,1
144311,-100,4,1,1,94,0,1
144883,-80,4,1,1,94,0,1
145597,-100,4,1,1,94,0,1
146597,-80,4,1,1,94,0,1
147311,-100,4,1,1,94,0,1
148740,-80,4,1,1,94,0,1
149025,-100,4,1,1,94,0,1
150025,-80,4,1,1,94,0,1
150740,-100,4,1,1,94,0,1
155168,-80,4,1,1,94,0,1
155883,-100,4,1,1,94,0,1
156883,-80,4,1,1,94,0,1
157597,-100,4,1,1,94,0,1
157740,-100,4,1,1,94,0,0
158168,-100,4,1,1,94,0,1
160311,-80,4,1,1,94,0,1
161025,-100,4,1,1,94,0,1
162454,-80,4,1,1,94,0,1
162740,-100,4,1,1,94,0,1
164168,-80,4,1,1,94,0,1
164454,-100,4,1,1,94,0,1
164597,-100,4,1,1,94,0,0
165383,-100,4,1,1,5,0,0
165454,-80,4,1,1,94,0,0
166168,-100,4,1,1,94,0,0
167168,-200,4,2,1,94,0,1
167883,-100,4,1,1,94,0,1
168454,-80,4,1,1,94,0,1
168740,-100,4,1,1,94,0,1
169311,-80,4,1,1,94,0,1
169597,-100,4,1,1,94,0,1
170597,-80,4,1,1,94,0,1
171383,-100,4,1,1,94,0,0
171454,-100,4,1,1,94,0,1
172311,-80,4,1,1,94,0,1
173740,-100,4,1,1,94,0,1
174025,-100,4,1,1,94,0,0
174883,-100,4,1,1,94,0,1
177454,-80,4,1,1,94,0,1
178168,-100,4,1,1,94,0,1
179168,-80,4,1,1,94,0,1
179883,-100,4,1,1,94,0,1
180883,-200,4,1,1,94,0,1
181597,-100,4,1,1,94,0,1
184311,-80,4,1,1,94,0,1
185097,-100,4,1,1,94,0,0
185168,-100,4,1,1,94,0,1
186883,-80,4,1,1,94,0,1
187454,-100,4,1,1,94,0,1
187740,-100,4,1,1,94,0,0
188025,-100,4,1,1,74,0,0
188311,-100,4,1,1,54,0,0
188597,-100,4,1,1,94,0,1
189454,-80,4,1,1,94,0,1
190168,-100,4,1,1,94,0,1
191168,-80,4,1,1,94,0,1
191883,-100,4,1,1,94,0,1
195454,-80,4,1,1,94,0,1
198883,-100,4,1,1,84,0,0
198936,-100,4,1,1,13,0,0
199311,-100,4,1,1,12,0,0
199740,-100,4,1,1,11,0,0
200168,-100,4,1,1,10,0,0
200597,-100,4,1,1,9,0,0
201025,-100,4,1,1,8,0,0
201454,-100,4,1,1,7,0,0
201883,-100,4,1,1,6,0,0
202311,-100,4,2,1,5,0,0

[Colours]
Combo1 : 206,200,176
Combo2 : 192,143,126
Combo3 : 199,185,137
Combo4 : 227,189,155

[HitObjects]
56,96,20597,6,0,L|176:104,1,120.000004577637,0|2,1:0|0:0,0:0:0:0:
276,168,21454,2,0,P|304:200|396:192,1,120.000004577637,8|0,1:0|0:0,0:0:0:0:
432,156,22097,1,0,0:0:0:0:
432,156,22311,2,0,P|404:208|420:276,1,120.000004577637,0|2,0:0|0:0,0:0:0:0:
500,352,23168,1,8,1:0:0:0:
380,340,23597,1,0,0:0:0:0:
264,372,24025,6,0,P|232:332|156:316,2,120.000004577637,0|2|8,1:0|0:0|1:0,0:0:0:0:
256,232,25311,1,0,0:0:0:0:
256,232,25525,1,0,0:0:0:0:
256,232,25740,2,0,L|244:104,1,120.000004577637,0|2,0:0|0:0,0:0:0:0:
128,80,26597,2,0,L|140:208,1,120.000004577637,8|0,1:0|0:0,0:0:0:0:
204,300,27454,6,0,P|272:280|328:304,1,120.000004577637,0|2,1:0|0:0,0:0:0:0:
480,188,28311,2,0,P|423:203|367:183,1,120.000004577637,8|0,1:0|0:0,0:0:0:0:
332,120,28954,1,0,0:0:0:0:
332,120,29168,2,0,L|316:260,1,120.000004577637,0|2,0:0|0:0,0:0:0:0:
344,356,30025,1,8,1:0:0:0:
432,272,30454,1,0,0:0:0:0:
240,300,30883,6,0,P|168:324|124:308,1,120.000004577637,0|2,1:0|0:0,0:0:0:0:
16,192,31740,2,0,L|156:184,1,120.000004577637,8|0,1:0|0:0,0:0:0:0:
348,108,32597,2,0,L|208:100,1,120.000004577637,0|2,0:0|0:0,0:0:0:0:
364,216,33454,2,0,P|424:192|448:124,1,120.000004577637,8|0,1:0|0:0,0:0:0:0:
256,260,34311,5,0,1:0:0:0:
240,340,36025,1,2,1:2:0:0:
256,124,37740,5,0,1:0:0:0:
272,44,39454,1,2,1:2:0:0:
188,192,41168,5,0,1:0:0:0:
108,208,42025,1,2,1:2:0:0:
324,192,42883,5,0,1:0:0:0:
404,176,43740,1,2,1:2:0:0:
256,276,44597,6,0,P|246:331|285:382,1,120.000004577637,0|2,1:0|1:2,0:0:0:0:
256,107,45454,2,0,P|265:52|226:1,1,120.000004577637,0|2,1:0|1:2,0:0:0:0:
256,192,46311,5,0,0:0:0:0:
256,192,46525,1,2,0:2:0:0:
256,192,46740,1,0,0:0:0:0:
256,192,46954,1,2,0:2:0:0:
168,200,47168,2,0,L|112:192,3,30.0000011444092,8|0|8|0,0:0|0:0|0:0|0:0,0:0:0:0:
256,280,47597,2,0,L|226:275,3,30.0000011444092,8|0|8|0,0:0|0:0|0:0|0:0,0:0:0:0:
336,328,48025,6,0,P|388:336|448:264,1,133.333333333333,4|0,0:0|2:0,0:0:0:0:
372,260,48454,2,0,L|380:152,1,106.666666666667,4|0,0:2|2:0,0:0:0:0:
348,80,48883,2,0,P|316:80|280:56,2,66.6666666666667,8|2|2,0:0|3:0|3:0,0:0:0:0:
240,128,49311,2,0,P|217:105|208:62,2,66.6666666666667,0|2|2,3:0|3:0|3:0,0:0:0:0:
256,208,49740,5,0,0:0:0:0:
252,284,49883,1,2,3:2:0:0:
188,244,50025,1,2,3:2:0:0:
256,208,50168,2,0,P|296:220|324:304,1,106.666666666667,2|0,3:2|0:0,0:0:0:0:
184,320,50597,2,0,L|68:328,1,106.666666666667,8|8,0:0|2:0,0:0:0:0:
188,244,51025,2,0,L|81:251,1,106.666666666667,2|8,3:0|2:0,0:0:0:0:
256,208,51454,6,2,P|324:232|376:208,1,106.666666666667,4|2,0:2|3:0,0:0:0:0:
408,168,51883,2,0,P|428:196|416:260,2,66.6666666666667,0|2|0,3:0|3:0|0:0,0:0:0:0:
256,208,52311,2,0,B|264:156|264:156|240:92,1,106.666666666667,8|2,0:0|3:0,0:0:0:0:
192,52,52740,2,0,P|256:64|304:8,1,106.666666666667,0|2,3:0|3:2,0:0:0:0:
164,132,53168,6,2,L|28:136,1,106.666666666667,0|2,0:0|3:0,0:0:0:0:
20,216,53597,2,0,L|100:212,2,66.6666666666667,0|2|0,3:0|3:0|0:0,0:0:0:0:
164,132,54025,2,0,P|172:192|216:220,1,106.666666666667,8|2,0:0|3:0,0:0:0:0:
280,236,54454,2,0,P|216:260|200:324,1,106.666666666667,8|8,0:0|0:0,0:0:0:0:
276,312,54883,6,0,B|312:316|336:292|336:292|348:312|348:312|384:284|436:308,1,160,0|4,0:0|0:2,0:0:0:0:
120,348,55740,2,0,L|112:240,1,106.666666666667,8|0,0:0|3:0,0:0:0:0:
128,160,56168,2,0,P|96:164|48:140,2,66.6666666666667,2|0|2,3:0|3:0|3:0,0:0:0:0:
200,136,56597,5,0,0:0:0:0:
276,136,56740,1,2,3:2:0:0:
344,168,56883,1,2,3:2:0:0:
392,224,57025,2,0,L|400:100,1,106.666666666667,2|0,3:2|3:0,0:0:0:0:
368,48,57454,2,0,P|420:80|480:60,1,106.666666666667,8|8,0:0|2:0,0:0:0:0:
292,56,57883,2,0,P|240:24|180:44,1,106.666666666667,2|8,3:0|0:0,0:0:0:0:
36,44,58311,5,2,0:0:0:0:
36,44,58597,2,0,L|44:116,1,66.6666666666667,2|0,3:0|3:0,0:0:0:0:
112,152,58883,2,0,L|120:224,1,66.6666666666667,2|0,3:0|0:0,0:0:0:0:
68,274,59168,2,0,P|104:226|220:242,2,160,8|0|2,0:0|3:0|0:0,0:0:0:0:
216,304,60311,6,0,P|256:288|276:248,1,66.6666666666667,2|0,3:0|3:0,0:0:0:0:
344,300,60597,2,0,P|366:275|397:266,1,66.6666666666667,2|0,3:0|0:0,0:0:0:0:
456,316,60883,2,0,L|444:172,2,106.666666666667,8|2|8,0:0|3:0|2:0,0:0:0:0:
488,92,61740,1,0,2:0:0:0:
488,92,62168,6,0,B|408:112|420:48|332:72,2,160,4|8|2,0:0|0:0|3:0,0:0:0:0:
348,168,63454,2,0,P|268:156|232:76,1,160,0|2,0:0|3:2,0:0:0:0:
80,24,64311,2,0,L|72:140,1,106.666666666667,8|8,0:0|2:0,0:0:0:0:
100,200,64740,2,0,L|92:316,1,106.666666666667,2|8,3:0|2:0,0:0:0:0:
56,372,65168,6,2,P|112:344|176:376,1,106.666666666667,4|2,0:2|3:0,0:0:0:0:
228,300,65597,1,0,3:0:0:0:
224,304,65740,1,2,3:0:0:0:
220,308,65883,1,0,0:0:0:0:
216,312,66025,2,0,B|264:336|264:336|332:328,1,106.666666666667,8|2,0:0|3:0,0:0:0:0:
392,320,66454,1,0,3:0:0:0:
460,188,66740,1,2,3:2:0:0:
488,120,66883,6,2,P|444:156|368:124,1,106.666666666667,0|2,0:0|3:0,0:0:0:0:
328,120,67311,1,0,3:0:0:0:
328,120,67454,1,2,3:0:0:0:
328,120,67597,1,0,0:0:0:0:
328,120,67740,2,0,L|160:132,1,133.333333333333,8|0,0:0|0:0,0:0:0:0:
120,136,68168,1,8,0:0:0:0:
256,212,68454,1,8,0:0:0:0:
256,212,68597,6,0,P|297:255|220:272,1,160,0|0,1:0|1:0,0:0:0:0:
393,194,69454,2,0,L|460:188,2,66.6666666666667,8|0|0,1:0|3:0|3:0,0:0:0:0:
328,120,69883,2,0,L|261:113,2,66.6666666666667,0|0|0,3:0|3:0|3:0,0:0:0:0:
256,212,70311,6,0,L|88:224,1,133.333333333333,0|2,0:0|3:0,0:0:0:0:
316,284,70883,1,0,3:0:0:0:
173,120,71168,2,2,P|114:113|128:56,1,133.333333333333,8|0,1:0|2:0,0:0:0:0:
208,48,72025,6,2,L|356:56,1,106.666666666667,4|2,0:2|3:0,0:0:0:0:
388,56,72454,1,0,3:0:0:0:
392,132,72597,1,2,3:0:0:0:
440,192,72740,1,0,0:0:0:0:
512,216,72883,2,0,P|440:256|424:356,1,160,8|0,0:0|3:0,0:0:0:0:
288,360,73597,1,0,3:0:0:0:
288,360,73740,6,2,P|217:352|174:294,1,106.666666666667,0|2,0:0|3:0,0:0:0:0:
160,264,74168,1,0,3:0:0:0:
156,188,74311,1,2,3:0:0:0:
152,112,74454,1,0,0:0:0:0:
148,36,74597,2,0,L|4:24,1,133.333333333333,8|2,0:0|3:0,0:0:0:0:
256,20,75168,1,8,2:0:0:0:
84,188,75454,6,0,B|120:192|144:168|144:168|156:188|156:188|192:160|244:184,1,160,4|4,0:0|0:2,0:0:0:0:
224,376,76311,2,0,L|220:296,2,66.6666666666667,8|2|2,0:0|3:0|3:0,0:0:0:0:
312,244,76740,2,0,L|308:324,2,66.6666666666667,0|2|2,3:0|3:0|3:0,0:0:0:0:
380,204,77168,2,0,P|316:220|264:172,2,133.333333333333,2|0|2,0:2|0:0|0:2,0:0:0:0:
160,84,78025,1,8,1:0:0:0:
164,88,78883,6,2,P|224:96|264:56,1,106.666666666667,4|0,0:2|2:0,0:0:0:0:
196,24,79311,2,2,L|332:4,1,106.666666666667,0|0,0:0|2:0,0:0:0:0:
472,72,79740,2,0,L|336:52,1,106.666666666667,8|2,0:0|3:0,0:0:0:0:
356,140,80168,2,0,P|300:124|260:148,2,66.6666666666667,0|2|2,3:0|3:0|3:2,0:0:0:0:
308,200,80597,6,0,P|332:252|292:308,1,106.666666666667,0|2,0:0|3:0,0:0:0:0:
248,328,81025,2,0,L|168:332,2,66.6666666666667,0|8|0,3:0|2:0|0:0,0:0:0:0:
192,248,81454,2,0,L|60:252,1,106.666666666667,8|2,0:0|0:3,0:0:0:0:
44,316,81883,1,8,0:0:0:0:
85,251,82025,1,8,0:0:0:0:
84,176,82168,1,0,0:0:0:0:
52,108,82311,6,0,P|105:137|184:104,1,106.666666666667,4|0,0:2|2:0,0:0:0:0:
192,248,82740,2,0,B|244:232|244:232|312:240,1,106.666666666667,0|0,0:0|2:0,0:0:0:0:
344,164,83168,2,0,L|266:154,2,66.6666666666667,8|2|2,0:0|3:0|3:0,0:0:0:0:
224,80,83597,2,0,L|304:68,2,66.6666666666667,0|2|2,3:0|3:0|3:0,0:0:0:0:
372,84,84025,2,0,L|505:101,2,133.333333333333,0|2|2,0:0|0:2|0:3,0:0:0:0:
180,144,84883,2,0,P|123:126|146:73,1,133.333333333333,8|0,1:0|2:0,0:0:0:0:
56,184,85740,6,2,P|116:232|200:232,1,160,4|0,0:2|0:0,0:0:0:0:
416,192,86597,2,0,L|272:200,1,106.666666666667,8|2,0:0|3:0,0:0:0:0:
268,260,87025,1,0,3:0:0:0:
268,260,87168,1,2,3:0:0:0:
268,260,87311,1,2,3:2:0:0:
284,332,87454,6,0,P|248:292|184:284,1,106.666666666667,0|2,0:0|3:0,0:0:0:0:
132,320,87883,1,0,3:0:0:0:
128,316,88025,1,8,2:0:0:0:
124,312,88168,1,0,0:0:0:0:
96,240,88311,2,0,L|108:120,1,106.666666666667,8|8,0:0|0:0,0:0:0:0:
60,76,88740,1,0,0:0:0:0:
106,133,88883,1,0,0:0:0:0:
180,140,89025,1,0,0:0:0:0:
232,88,89168,6,0,P|240:160|320:204,1,160,4|4,0:0|0:2,0:0:0:0:
424,108,90025,2,0,L|304:116,1,106.666666666667,8|2,0:0|3:0,0:0:0:0:
500,92,90454,2,0,P|464:128|456:192,1,106.666666666667,0|2,3:2|3:0,0:0:0:0:
488,316,90883,2,0,P|444:276|352:284,2,133.333333333333,2|0|2,0:2|0:0|0:2,0:0:0:0:
256,320,91740,1,8,1:0:0:0:
360,192,92025,1,0,3:0:0:0:
408,352,92311,1,0,2:0:0:0:
216,160,92597,6,2,L|228:36,1,106.666666666667,4|0,0:2|2:0,0:0:0:0:
152,28,93025,2,2,L|140:152,1,106.666666666667,0|0,0:0|2:0,0:0:0:0:
216,160,93454,2,0,P|244:184|256:244,1,66.6666666666667,8|2,0:0|3:0,0:0:0:0:
184,228,93740,2,0,P|186:264|152:315,1,66.6666666666667,2|0,3:0|3:0,0:0:0:0:
112,252,94025,2,0,P|88:280|27:292,1,66.6666666666667,2|0,3:0|3:0,0:0:0:0:
175,292,94311,6,0,L|259:296,1,66.6666666666667,0|2,0:0|3:3,0:0:0:0:
312,324,94597,2,0,L|395:327,1,66.6666666666667,2|0,3:0|3:0,0:0:0:0:
444,360,94883,2,0,L|527:363,1,66.6666666666667,8|0,2:0|0:0,0:0:0:0:
379,327,95168,2,0,P|363:263|403:199,1,133.333333333333,8|0,0:0|0:0,0:0:0:0:
472,204,95597,1,8,0:0:0:0:
393,206,95740,1,8,0:0:0:0:
324,172,95883,1,8,0:0:0:0:
292,100,96025,6,0,L|136:112,1,106.666666666667,4|0,0:2|2:0,0:0:0:0:
120,148,96454,2,0,P|148:104|123:34,1,106.666666666667,0|0,0:0|2:0,0:0:0:0:
68,88,96883,1,8,0:0:0:0:
68,88,97740,2,0,L|60:212,1,106.666666666667,0|2,0:0|3:0,0:0:0:0:
4,248,98168,2,0,P|61:241|110:291,1,106.666666666667,0|0,3:0|3:0,0:0:0:0:
171,244,98597,2,0,P|214:272|266:264,1,106.666666666667,8|2,0:0|3:0,0:0:0:0:
312,204,99025,1,0,3:0:0:0:
266,264,99168,1,8,2:0:0:0:
280,344,99311,1,0,3:0:0:0:
312,204,99454,6,0,L|320:124,2,66.6666666666667,0|2|0,0:0|3:2|3:0,0:0:0:0:
392,236,99883,2,0,L|404:88,1,133.333333333333
248,60,100311,6,0,L|240:140,2,66.6666666666667,8|0|0,0:0|3:0|3:0,0:0:0:0:
160,120,100740,2,0,P|216:144|240:212,1,133.333333333333,0|0,3:0|3:0,0:0:0:0:
160,200,101168,6,0,P|123:212|84:204,1,66.6666666666667,0|2,0:0|3:0,0:0:0:0:
152,292,101454,2,0,P|188:280|228:288,1,66.6666666666667,2|0,3:0|3:0,0:0:0:0:
304,200,101740,2,0,P|272:211|240:208,1,66.6666666666667,2|0,3:0|0:0,0:0:0:0:
352,268,102025,2,0,L|524:256,1,133.333333333333,0|2,0:0|3:0,0:0:0:0:
260,352,102454,1,8,0:0:0:0:
256,356,102883,1,4,0:0:0:0:
48,148,116597,6,0,P|100:192|168:172,1,120.000004577637,0|2,1:0|0:0,0:0:0:0:
252,88,117454,2,0,L|268:232,1,120.000004577637,8|0,1:0|0:0,0:0:0:0:
204,248,118097,1,0,0:0:0:0:
204,248,118311,2,0,P|258:237|320:276,1,120.000004577637,0|2,1:0|0:0,0:0:0:0:
428,240,118954,1,0,0:0:0:0:
492,196,119168,2,0,P|437:206|376:168,1,120.000004577637,8|0,1:0|0:0,0:0:0:0:
364,104,119811,2,0,L|372:40,1,60.0000022888184,0|0,0:0|1:0,0:0:0:0:
292,168,120454,6,0,L|276:312,2,120.000004577637,2|8|0,0:0|1:0|0:0,0:0:0:0:
252,104,121525,1,0,0:0:0:0:
280,36,121740,2,0,P|236:80|172:80,1,120.000004577637,0|2,1:0|0:0,0:0:0:0:
64,168,122597,2,0,P|86:193|120:205,1,60.0000022888184,8|0,1:0|0:0,0:0:0:0:
88,276,123025,2,0,P|121:278|154:262,1,60.0000022888184,0|0,0:0|0:0,0:0:0:0:
188,336,123454,6,0,P|224:276|200:212,2,120.000004577637,0|2|8,1:0|0:0|1:0,0:0:0:0:
328,364,124740,1,0,0:0:0:0:
432,264,125168,2,0,L|416:128,1,120.000004577637,0|2,1:0|0:0,0:0:0:0:
313,244,125811,1,0,0:0:0:0:
313,244,126025,2,0,L|328:364,1,120.000004577637,8|0,1:0|0:0,0:0:0:0:
348,164,126883,2,0,P|300:200|236:192,1,120.000004577637,0|2,1:0|1:2,0:0:0:0:
188,264,127525,1,0,0:0:0:0:
188,264,127740,2,0,P|160:224|84:204,1,120.000004577637,8|2,1:0|1:2,0:0:0:0:
24,224,128383,1,0,0:0:0:0:
80,128,128597,6,0,L|88:52,1,60.0000022888184,0|0,1:0|1:0,0:0:0:0:
184,104,129025,2,0,L|192:28,1,60.0000022888184,2|0,1:2|1:0,0:0:0:0:
284,192,129454,2,0,L|288:152,3,30.0000011444092,8|0|0|0,1:0|1:0|1:0|1:0,0:0:0:0:
372,248,129883,2,0,L|376:208,3,30.0000011444092,2|0|0|0,1:2|1:0|1:0|1:0,0:0:0:0:
456,304,130311,6,0,P|408:344|348:348,1,120.000004577637,0|2,1:0|0:0,0:0:0:0:
136,320,131168,2,0,L|272:312,1,120.000004577637,0|2,1:0|0:0,0:0:0:0:
40,264,132025,2,0,P|72:216|56:144,1,120.000004577637,0|2,1:0|0:0,0:0:0:0:
168,40,132883,2,0,B|160:100|160:100|192:176,1,120.000004577637,0|2,1:0|0:0,0:0:0:0:
416,108,133740,6,0,P|366:77|308:84,1,120.000004577637,0|2,1:0|0:0,0:0:0:0:
344,224,134597,2,0,L|364:342,1,120.000004577637,0|2,1:0|0:0,0:0:0:0:
203,300,135454,2,0,P|145:306|95:275,1,120.000004577637,0|2,1:0|0:0,0:0:0:0:
196,36,136311,2,0,L|180:160,1,120.000004577637,0|2,1:0|0:0,0:0:0:0:
344,224,137168,6,0,P|332:188|340:152,1,60.0000022888184,0|0,1:0|0:0,0:0:0:0:
408,184,137597,2,0,P|416:152|452:124,1,60.0000022888184,2|0,1:2|0:0,0:0:0:0:
412,260,138025,2,0,P|380:296|292:280,1,120.000004577637,0|2,1:0|1:2,0:0:0:0:
220,320,138668,1,0,0:0:0:0:
220,320,138883,2,0,L|140:324,1,60.0000022888184,0|0,1:0|0:0,0:0:0:0:
155,242,139311,2,0,L|96:240,1,60.0000022888184,2|0,1:2|0:0,0:0:0:0:
24,276,139740,2,0,P|56:232|48:156,1,120.000004577637,0|2,1:0|1:2,0:0:0:0:
128,80,140383,1,0,0:0:0:0:
128,80,140597,6,0,P|168:100|204:96,1,60.0000022888184,0|0,1:0|1:0,0:0:0:0:
188,180,141025,2,0,P|230:165|253:137,1,60.0000022888184,2|0,1:2|1:0,0:0:0:0:
312,192,141454,2,0,L|372:188,1,60.0000022888184,0|0,1:0|1:0,0:0:0:0:
440,224,141883,2,0,L|508:220,1,60.0000022888184,2|0,1:2|1:0,0:0:0:0:
300,300,142311,6,0,L|248:304,3,30.0000011444092,0|0|0|0,1:0|1:0|1:0|1:0,0:0:0:0:
196,264,142740,2,0,L|144:268,3,30.0000011444092,2|0|0|0,1:2|1:0|1:0|1:0,0:0:0:0:
108,152,143168,2,0,L|160:156,3,50,8|0|8|0,1:0|1:0|1:0|1:0,0:0:0:0:
268,84,143597,2,0,L|216:88,3,50,8|0|8|0,1:0|1:0|1:0|1:0,0:0:0:0:
344,128,144025,6,0,P|376:164|456:160,1,133.333333333333,4|0,0:0|2:0,0:0:0:0:
500,100,144454,2,0,L|516:248,1,106.666666666667,8|0,0:0|2:0,0:0:0:0:
444,344,144883,2,0,P|452:316|436:256,1,66.6666666666667,0|2,0:0|3:0,0:0:0:0:
320,352,145168,2,0,P|348:340|372:284,1,66.6666666666667,2|8,0:3|0:0,0:0:0:0:
228,276,145454,2,0,P|256:284|316:268,1,66.6666666666667,2|2,0:3|0:3,0:0:0:0:
156,236,145740,5,0,0:0:0:0:
80,236,145883,1,2,3:2:0:0:
16,272,146025,1,2,3:2:0:0:
156,236,146168,2,0,P|216:232|252:188,1,106.666666666667,8|0,0:0|2:0,0:0:0:0:
180,164,146597,2,0,L|188:84,2,66.6666666666667,0|8|8,0:0|2:0|0:2,0:0:0:0:
324,180,147025,2,0,L|332:260,2,66.6666666666667,8|8|8,0:0|0:2|0:2,0:0:0:0:
396,104,147454,6,2,L|409:209,1,106.666666666667,4|2,0:2|3:0,0:0:0:0:
400,284,147883,2,0,P|460:244|500:256,1,106.666666666667,8|0,0:0|3:2,0:0:0:0:
400,360,148311,2,0,P|335:328|324:288,1,106.666666666667,0|2,0:0|3:0,0:0:0:0:
256,352,148740,2,0,P|232:332|168:336,2,66.6666666666667,8|0|0,0:0|0:0|0:0,0:0:0:0:
112,352,149168,6,2,L|124:244,1,106.666666666667,0|2,0:0|3:0,0:0:0:0:
156,168,149597,2,0,L|168:60,1,106.666666666667,8|0,0:0|0:0,0:0:0:0:
76,184,150025,2,0,L|7:188,2,66.6666666666667,0|0|0,0:0|0:0|0:0,0:0:0:0:
208,232,150454,2,0,L|276:227,2,66.6666666666667,8|0|0,0:0|0:0|0:0,0:0:0:0:
312,304,150883,6,0,B|344:288|352:264|352:264|380:276|380:276|368:240|384:204,2,160,0|4|8,0:0|0:2|0:0,0:0:0:0:
476,228,152025,1,0,3:0:0:0:
472,232,152168,1,2,3:0:0:0:
468,236,152311,1,8,0:0:0:0:
464,240,152454,1,8,0:0:0:0:
460,244,152597,6,0,P|472:184|436:128,1,106.666666666667,0|2,0:0|3:2,0:0:0:0:
396,100,153025,2,0,P|452:108|500:60,1,106.666666666667,2|0,0:2|3:0,0:0:0:0:
320,92,153454,2,0,L|172:104,1,106.666666666667,8|8,0:0|0:2,0:0:0:0:
152,60,153883,1,8,0:0:0:0:
213,100,154025,1,8,0:2:0:0:
236,172,154168,1,8,0:0:0:0:
232,248,154311,6,0,P|288:232|316:176,1,106.666666666667,2|2,0:0|3:0,0:0:0:0:
168,288,154740,2,0,P|228:292|268:348,1,106.666666666667,8|0,0:0|3:0,0:0:0:0:
192,360,155168,2,0,L|120:368,2,66.6666666666667,0|2|0,0:0|3:0|0:0,0:0:0:0:
336,328,155597,2,0,L|409:334,2,66.6666666666667,8|0|0,0:0|0:0|0:0,0:0:0:0:
476,260,156025,6,0,L|358:250,1,106.666666666667,0|2,0:0|3:0,0:0:0:0:
232,248,156454,2,0,P|196:280|128:276,1,106.666666666667,8|0,0:0|0:0,0:0:0:0:
164,208,156883,2,0,L|155:142,1,66.6666666666667,8|0,0:0|0:0,0:0:0:0:
238,156,157168,2,0,L|229:90,1,66.6666666666667,8|0,0:0|2:0,0:0:0:0:
316,112,157454,2,0,L|307:46,1,66.6666666666667,0|0,3:0|2:0,0:0:0:0:
392,84,157740,1,0,2:0:0:0:
392,84,158168,6,0,B|425:159|360:158|399:241,2,160,4|8|2,0:0|0:0|3:0,0:0:0:0:
464,308,159454,2,0,P|408:336|340:308,1,106.666666666667,0|2,0:0|3:2,0:0:0:0:
292,356,159883,2,0,P|272:304|208:272,1,106.666666666667,2|0,3:2|0:0,0:0:0:0:
156,264,160311,2,0,L|44:256,2,66.6666666666667,8|8|8,0:0|2:0|2:0,0:0:0:0:
304,224,160740,2,0,L|416:216,2,66.6666666666667,2|8|8,3:0|2:0|0:0,0:0:0:0:
160,172,161168,6,2,P|200:182|266:134,1,106.666666666667,4|2,0:2|3:0,0:0:0:0:
196,106,161597,2,0,L|312:96,1,106.666666666667,8|0,0:0|3:0,0:0:0:0:
376,104,162025,1,0,0:0:0:0:
380,108,162168,1,2,3:0:0:0:
384,112,162311,1,2,0:2:0:0:
424,176,162454,2,0,P|452:148|456:112,2,66.6666666666667,8|0|2,0:0|0:0|0:2,0:0:0:0:
352,196,162883,6,2,P|402:209|432:256,1,106.666666666667,0|2,0:0|3:0,0:0:0:0:
360,272,163311,2,0,B|308:265|308:265|256:281,1,106.666666666667,8|0,0:0|0:0,0:0:0:0:
188,316,163740,1,8,0:0:0:0:
256,281,163883,1,0,0:0:0:0:
256,200,164025,1,0,0:0:0:0:
196,148,164168,2,0,P|232:124|260:124,2,66.6666666666667,8|0|8,0:0|0:0|0:0,0:0:0:0:
104,324,164597,6,0,P|170:310|132:253,1,160,0|0,1:0|2:0,0:0:0:0:
288,352,165454,2,0,L|360:348,1,66.6666666666667,8|0,1:0|3:0,0:0:0:0:
328,272,165740,2,0,L|400:268,1,66.6666666666667,0|0,3:0|3:0,0:0:0:0:
368,192,166025,2,0,L|440:188,1,66.6666666666667,0|0,3:0|3:0,0:0:0:0:
396,112,166311,6,0,P|352:148|268:124,1,106.666666666667,0|0,0:0|3:0,0:0:0:0:
244,100,166740,1,0,3:0:0:0:
176,72,166883,1,0,3:0:0:0:
184,148,167025,1,0,3:0:0:0:
328,72,167168,2,2,P|326:12|268:21,1,133.333333333333,8|0,1:0|2:0,0:0:0:0:
244,100,168025,6,2,L|236:232,1,106.666666666667,4|2,0:2|3:0,0:0:0:0:
212,284,168454,2,0,L|204:416,2,66.6666666666667,8|2|0,0:0|3:0|3:0,0:0:0:0:
237,206,168883,1,0,0:0:0:0:
304,252,169025,1,0,0:0:0:0:
384,248,169168,1,2,0:3:0:0:
440,192,169311,2,0,L|432:60,2,66.6666666666667,8|2|0,0:0|0:3|0:0,0:0:0:0:
237,206,169740,6,2,P|188:204|140:248,1,106.666666666667,0|2,0:0|3:0,0:0:0:0:
120,308,170168,1,8,0:0:0:0:
124,312,170311,1,2,3:0:0:0:
128,316,170454,1,0,0:0:0:0:
88,176,170597,2,0,P|64:152|16:144,1,66.6666666666667,8|0,0:0|0:0,0:0:0:0:
132,96,170883,2,0,P|132:62|103:22,1,66.6666666666667,8|0,0:0|0:0,0:0:0:0:
220,60,171168,2,0,P|243:36|252:-12,1,66.6666666666667,8|0,0:0|0:0,0:0:0:0:
316,80,171454,6,0,B|340:80|364:64|364:64|372:84|372:84|428:72|464:124,1,160,4|4,0:0|0:2,0:0:0:0:
465,342,172311,2,0,L|472:276,2,66.6666666666667,8|2|2,0:0|3:0|3:0,0:0:0:0:
389,165,172740,2,0,L|396:232,2,66.6666666666667,0|2|2,3:0|3:0|3:0,0:0:0:0:
311,340,173168,2,0,P|319:275|276:224,2,133.333333333333,2|0|2,0:2|0:0|0:2,0:0:0:0:
112,188,174025,1,8,1:0:0:0:
116,192,174883,6,2,P|155:202|222:153,1,106.666666666667,4|0,0:2|2:0,0:0:0:0:
151,125,175311,2,2,L|267:115,1,106.666666666667,8|0,0:0|2:0,0:0:0:0:
320,156,175740,2,0,P|364:128|415:136,1,106.666666666667,0|2,0:0|3:0,0:0:0:0:
372,212,176168,1,8,0:0:0:0:
376,208,176311,1,0,3:0:0:0:
380,204,176454,1,0,3:0:0:0:
480,96,176597,6,0,P|460:144|472:216,1,106.666666666667,0|2,0:0|3:0,0:0:0:0:
492,268,177025,1,8,0:0:0:0:
496,272,177168,1,8,3:2:0:0:
500,276,177311,1,0,3:0:0:0:
380,204,177454,2,0,L|288:212,2,66.6666666666667,8|0|0,0:0|0:0|0:0,0:0:0:0:
180,248,177883,2,0,L|272:256,2,66.6666666666667,8|0|0,0:0|0:0|0:0,0:0:0:0:
116,208,178311,6,0,P|140:268|116:328,1,106.666666666667,4|0,0:2|2:0,0:0:0:0:
56,156,178740,2,0,L|188:144,1,106.666666666667,0|0,0:0|2:0,0:0:0:0:
296,136,179168,2,0,P|267:135|227:107,1,66.6666666666667,8|2,0:0|3:0,0:0:0:0:
360,88,179454,2,0,P|373:112|369:161,1,66.6666666666667,2|8,3:0|0:0,0:0:0:0:
288,56,179740,2,0,P|302:31|346:11,1,66.6666666666667,8|8,0:0|0:0,0:0:0:0:
464,120,180025,2,0,L|456:272,2,106.666666666667,0|0|0,0:0|0:0|3:0,0:0:0:0:
412,292,180883,2,0,P|355:274|378:221,1,133.333333333333,8|0,1:0|2:0,0:0:0:0:
276,295,181740,6,2,P|284:200|340:148,1,160,4|8,0:2|0:0,0:0:0:0:
200,340,182597,2,0,L|84:344,1,106.666666666667,0|2,0:0|3:0,0:0:0:0:
20,352,183025,2,0,P|68:308|76:268,1,106.666666666667,8|2,0:0|3:2,0:0:0:0:
52,188,183454,5,0,0:0:0:0:
56,192,183597,1,0,3:0:0:0:
60,196,183740,1,2,3:3:0:0:
40,104,183883,1,8,0:0:0:0:
36,108,184025,1,8,2:0:0:0:
32,112,184168,1,0,0:0:0:0:
60,196,184311,2,0,L|136:200,1,66.6666666666667,8|0,0:0|0:0,0:0:0:0:
204,176,184597,2,0,L|280:180,1,66.6666666666667,8|0,0:0|0:0,0:0:0:0:
348,160,184883,2,0,L|424:164,1,66.6666666666667,8|0,0:0|0:0,0:0:0:0:
488,136,185168,6,0,P|432:180|436:276,1,160,4|4,0:0|0:2,0:0:0:0:
208,308,186025,2,0,P|260:305|305:332,1,106.666666666667,8|2,0:0|3:0,0:0:0:0:
136,332,186454,2,0,P|172:284|168:224,1,106.666666666667,0|2,3:2|3:0,0:0:0:0:
84,128,186883,2,0,L|95:260,2,133.333333333333,2|0|2,0:2|0:0|0:2,0:0:0:0:
228,168,187740,1,8,1:0:0:0:
188,28,188025,1,0,3:0:0:0:
84,128,188311,1,0,2:0:0:0:
228,168,188597,6,0,P|289:178|342:141,1,106.666666666667,4|0,0:2|2:0,0:0:0:0:
454,228,189025,2,0,P|392:217|339:254,1,106.666666666667,8|0,0:0|2:0,0:0:0:0:
308,296,189454,2,0,L|228:300,1,66.6666666666667,0|2,0:0|3:0,0:0:0:0:
120,244,189740,2,0,L|186:240,1,66.6666666666667,2|8,3:0|0:0,0:0:0:0:
68,180,190025,2,0,L|-12:184,1,66.6666666666667,2|0,3:0|3:0,0:0:0:0:
124,116,190311,5,0,0:0:0:0:
124,116,190454,1,2,3:0:0:0:
200,112,190597,1,2,0:3:0:0:
200,112,190740,1,8,0:0:0:0:
276,108,190883,1,8,0:2:0:0:
276,108,191025,1,8,0:0:0:0:
352,104,191168,2,0,P|384:124|424:124,1,66.6666666666667,0|2,0:0|0:3,0:0:0:0:
352,200,191454,2,0,P|360:236|388:265,1,66.6666666666667,0|8,0:0|0:0,0:0:0:0:
280,260,191740,2,0,P|260:292|259:331,1,66.6666666666667,8|8,0:0|0:0,0:0:0:0:
200,228,192025,6,0,P|168:252|72:216,1,106.666666666667,4|0,0:2|2:0,0:0:0:0:
140,180,192454,2,0,L|152:68,1,106.666666666667,0|0,0:0|2:0,0:0:0:0:
100,20,192883,1,8,0:0:0:0:
100,20,193740,6,0,P|150:57|222:41,1,106.666666666667,0|2,0:0|3:0,0:0:0:0:
262,98,194168,2,0,P|290:50|361:37,1,106.666666666667,0|0,3:0|0:0,0:0:0:0:
448,104,194597,2,0,L|341:111,1,106.666666666667,8|2,0:0|3:0,0:0:0:0:
292,172,195025,1,0,3:0:0:0:
244,228,195168,1,8,2:0:0:0:
196,284,195311,1,8,2:0:0:0:
140,340,195454,6,0,L|60:344,2,66.6666666666667,0|2|0,0:0|0:2|0:0,0:0:0:0:
272,312,195883,2,0,P|336:296|408:340,1,133.333333333333,0|0,0:0|0:0,0:0:0:0:
460,280,196311,2,0,P|472:320|456:364,2,66.6666666666667,8,0:0,0:0:0:0:
421,160,196740,2,0,B|356:180|356:180|292:172,1,133.333333333333,8|8,0:0|0:0,0:0:0:0:
216,148,197168,6,0,P|216:200|240:228,1,66.6666666666667,0|2,0:0|3:0,0:0:0:0:
180,76,197454,2,0,P|143:112|140:149,1,66.6666666666667,2|0,3:0|3:0,0:0:0:0:
200,4,197740,2,0,P|147:4|120:27,1,66.6666666666667,2|0,3:0|0:0,0:0:0:0:
276,28,198025,1,8,0:0:0:0:
280,16,198168,1,0,0:0:0:0:
348,140,198311,1,8,0:0:0:0:
360,148,198454,1,0,0:0:0:0:
216,148,198597,1,8,0:0:0:0:
204,156,198740,1,0,0:0:0:0:
372,48,198883,5,4,1:1:0:0:
256,192,198954,12,0,202311,0:0:0:0:
