osu file format v14

[General]
AudioFilename: Dangdutstep.mp3
AudioLeadIn: 0
PreviewTime: 48026
Countdown: 0
SampleSet: Normal
StackLeniency: 0.9
Mode: 0
LetterboxInBreaks: 1
WidescreenStoryboard: 1

[Editor]
Bookmarks: 20598,34312,48026,61741,75455,89169,102883,116598,130312,144026,157741,171455,185169,198884
DistanceSpacing: 1
BeatDivisor: 4
GridSize: 4
TimelineZoom: 0.7999997

[Metadata]
Title:Onslaught
TitleUnicode:Onslaught
Artist:CENOB1TE
ArtistUnicode:CENOB1TE
Creator:inverness
Version:easy_
Source:
Tags:dubstep drumstep dangdutstep foreverends winber1 charles445 hanzer kyshiro irreversible wendao2000 harez
BeatmapID:442984
BeatmapSetID:181979

[Difficulty]
HPDrainRate:3
CircleSize:2.5
OverallDifficulty:3
ApproachRate:4.5
SliderMultiplier:1
SliderTickRate:1

[Events]
//Background and Video events
0,0,"sunsetsoldier-does-it-matter-wallpaper.jpg",0,0
//Break Periods
2,103083,115337
//Storyboard Layer 0 (Background)
//Storyboard Layer 1 (Fail)
//Storyboard Layer 2 (Pass)
//Storyboard Layer 3 (Foreground)
//Storyboard Sound Samples

[TimingPoints]
6883,428.571428571429,4,2,1,90,1,0
20597,-133.333333333333,4,2,1,60,0,0
34311,-133.333333333333,4,2,1,50,0,0
44597,-133.333333333333,4,1,1,55,0,0
45025,-133.333333333333,4,1,1,60,0,0
45454,-133.333333333333,4,1,1,65,0,0
45883,-133.333333333333,4,1,1,70,0,0
46311,-133.333333333333,4,1,1,75,0,0
47168,-133.333333333333,4,1,1,70,0,0
48025,-100,4,1,1,94,0,1
61740,-100,4,2,1,94,0,0
62168,-100,4,1,1,94,0,1
69454,-100,4,1,1,84,0,0
71168,-100,4,1,1,84,0,1
75383,-100,4,1,1,94,0,0
75454,-100,4,1,1,94,0,1
78025,-100,4,1,1,94,0,0
78883,-100,4,1,1,94,0,1
89097,-100,4,1,1,94,0,0
89168,-100,4,1,1,94,0,1
91740,-100,4,2,1,94,0,0
92597,-100,4,1,1,94,0,1
102883,-100,4,1,1,94,0,0
116597,-133.333333333333,4,2,1,60,0,0
130311,-133.333333333333,4,2,1,50,0,0
142311,-133.333333333333,4,2,1,64,0,0
143168,-100,4,2,1,78,0,0
144025,-100,4,1,1,94,0,1
157740,-100,4,1,1,94,0,0
158168,-100,4,1,1,94,0,1
164597,-100,4,1,1,94,0,0
167168,-100,4,1,1,94,0,1
171383,-100,4,1,1,94,0,0
171454,-100,4,1,1,94,0,1
174025,-100,4,1,1,94,0,0
174883,-100,4,1,1,94,0,1
185097,-100,4,1,1,94,0,0
185168,-100,4,1,1,94,0,1
187740,-100,4,1,1,94,0,0
188597,-100,4,1,1,94,0,1
198883,-100,4,1,1,84,0,0
198936,-100,4,1,1,13,0,0
199311,-100,4,1,1,12,0,0
199740,-100,4,1,1,11,0,0
200168,-100,4,1,1,10,0,0
200597,-100,4,1,1,9,0,0
201025,-100,4,1,1,8,0,0
201454,-100,4,1,1,7,0,0
201883,-100,4,1,1,6,0,0
202311,-100,4,2,1,5,0,0

[Colours]
Combo1 : 206,200,176
Combo2 : 192,143,126
Combo3 : 199,185,137
Combo4 : 227,189,155

[HitObjects]
44,60,20597,6,0,L|196:68,1,150.000005722046,0|8,1:0|1:0,0:0:0:0:
364,132,22311,2,0,P|296:140|240:204,2,150.000005722046,0|8|0,0:0|1:0|1:0,0:0:0:0:
296,300,24883,1,8,1:0:0:0:
120,268,25740,2,0,P|124:204|76:124,1,150.000005722046,0|8,0:0|1:0,0:0:0:0:
260,164,27454,6,0,L|420:156,1,150.000005722046,0|8,1:0|1:0,0:0:0:0:
316,312,29168,1,0,0:0:0:0:
144,280,30025,1,8,1:0:0:0:
184,104,30883,6,0,P|124:116|56:60,2,150.000005722046,0|8|0,1:0|1:0|0:0,0:0:0:0:
364,68,33454,2,0,B|356:172|356:172|380:216,1,150.000005722046,8|0,1:0|1:0,0:0:0:0:
377,212,36025,5,2,1:2:0:0:
377,212,37740,1,0,1:0:0:0:
377,212,39454,1,2,1:2:0:0:
377,212,41168,6,0,L|216:224,1,150.000005722046,0|2,1:0|1:2,0:0:0:0:
144,64,42883,2,0,L|305:76,1,150.000005722046,0|2,1:0|1:2,0:0:0:0:
176,212,44597,6,0,P|184:304|132:348,2,150.000005722046,0|0|0,1:0|1:0|0:0,0:0:0:0:
64,72,47168,1,8,0:0:0:0:
304,56,48025,6,0,B|316:96|297:126|297:126|321:127|338:138|338:138|344:191|403:215,1,200,4|8,0:0|0:0,0:0:0:0:
187,197,49740,2,0,P|192:256|88:336,1,200,0|8,0:0|0:0,0:0:0:0:
96,236,51025,1,2,3:0:0:0:
96,136,51454,6,0,L|-4:128,2,100,2|0|8,0:0|3:0|0:0,0:0:0:0:
288,192,53168,2,0,L|388:184,2,100,2|0|8,0:0|3:0|0:0,0:0:0:0:
468,284,54883,6,0,B|404:292|404:292|376:324|376:324|320:300|276:340,1,200,0|8,0:0|0:0,0:0:0:0:
88,312,56597,2,0,P|32:252|20:128,2,200,0|8|2,0:0|0:0|0:0,0:0:0:0:
180,272,58740,6,0,P|228:244|280:248,1,100,0|8,3:0|0:0,0:0:0:0:
436,132,60025,1,2,0:0:0:0:
436,132,60454,2,0,P|388:160|336:156,1,100,0|8,3:0|0:0,0:0:0:0:
176,52,61740,5,0,2:0:0:0:
80,28,62168,1,4,0:0:0:0:
108,124,62597,2,0,B|128:176|104:224|104:224|120:268|120:268|112:328,1,200,8|0,0:0|0:0,0:0:0:0:
212,332,63883,2,0,L|228:228,2,100,2|8|2,3:2|0:0|3:0,0:0:0:0:
312,348,65168,6,0,P|372:304|504:308,1,200,2|8,0:0|0:0,0:0:0:0:
356,160,66883,2,0,P|296:116|164:120,1,200,2|8,0:0|0:0,0:0:0:0:
188,320,68597,6,0,B|186:304|172:284|172:284|180:256|180:256|108:280|116:224|40:252,1,200,0|8,0:0|0:0,0:0:0:0:
148,68,70311,2,0,B|150:83|164:104|164:104|156:132|156:132|228:108|220:164|296:136,1,200,0|8,0:0|0:0,0:0:0:0:
416,264,72025,6,0,P|416:192|504:88,1,200,4|8,0:2|0:0,0:0:0:0:
424,20,73311,1,0,3:0:0:0:
348,84,73740,2,0,L|136:96,1,200,0|8,0:0|0:0,0:0:0:0:
232,264,75454,6,0,B|195:267|195:267|183:279|183:279|155:267|127:283,2,100,4|4|8,0:0|0:2|0:0,0:0:0:0:
444,336,77168,2,0,B|436:192|436:192|460:132,1,200,2|8,0:2|1:0,0:0:0:0:
276,56,78883,6,0,P|296:100|285:149,1,100,4|0,0:2|0:0,0:0:0:0:
224,228,79740,2,0,P|272:248|388:164,2,200,8|2|8,0:0|0:0|0:0,0:0:0:0:
80,88,82311,5,4,0:2:0:0:
80,88,82740,1,0,0:0:0:0:
80,88,83168,2,0,L|104:296,1,200,8|0,0:0|0:0,0:0:0:0:
300,328,84883,1,8,1:0:0:0:
440,184,85740,6,0,L|328:176,1,100,4|0,0:2|0:0,0:0:0:0:
256,120,86597,2,0,P|188:184|88:152,2,200,8|2|8,0:0|0:0|0:0,0:0:0:0:
440,196,89168,6,0,B|452:220|452:220|448:236|448:236|464:268|444:316,1,100,4|4,0:0|0:2,0:0:0:0:
352,276,90025,1,8,0:0:0:0:
240,92,90883,2,0,L|448:84,1,200,2|8,0:2|1:0,0:0:0:0:
264,188,92597,6,0,P|208:188|164:156,1,100,4|0,0:2|0:0,0:0:0:0:
72,172,93454,2,0,B|92:223|92:223|84:367,2,200,8|2|8,0:0|0:0|0:0,0:0:0:0:
252,84,96025,5,4,0:2:0:0:
292,176,96454,1,0,0:0:0:0:
268,272,96883,1,8,0:0:0:0:
272,276,97740,2,0,P|372:248|392:152,2,200,0|8|0,0:0|0:0|0:0,0:0:0:0:
168,252,99883,5,0,0:0:0:0:
112,172,100311,2,0,L|0:176,2,100,8|0|0,0:0|3:0|0:0,0:0:0:0:
288,80,102025,1,0,0:0:0:0:
456,192,102883,1,4,0:0:0:0:
444,52,116597,6,0,L|436:216,1,150.000005722046,0|8,1:0|1:0,0:0:0:0:
344,320,118311,2,0,P|272:312|204:372,2,150.000005722046,0|8|0,1:0|1:0|1:0,0:0:0:0:
260,196,120883,1,8,1:0:0:0:
184,68,121740,2,0,P|136:108|112:204,1,150.000005722046,0|8,1:0|1:0,0:0:0:0:
188,316,123454,6,0,L|356:304,1,150.000005722046,0|8,1:0|1:0,0:0:0:0:
408,172,125168,2,0,L|240:160,1,150.000005722046,0|8,1:0|1:0,0:0:0:0:
108,152,126883,5,0,1:0:0:0:
116,300,127740,1,8,1:0:0:0:
256,360,128597,1,0,1:0:0:0:
388,284,129454,1,8,1:0:0:0:
376,136,130311,6,0,P|336:140|340:52,1,150.000005722046,0|0,1:0|1:0,0:0:0:0:
136,136,132025,2,0,P|176:140|172:52,1,150.000005722046,0|0,1:0|1:0,0:0:0:0:
136,248,133740,6,0,P|176:244|172:332,1,150.000005722046,0|0,1:0|1:0,0:0:0:0:
376,248,135454,2,0,P|336:244|340:332,1,150.000005722046,0|0,1:0|1:0,0:0:0:0:
184,308,137168,6,0,L|160:152,3,150.000005722046,0|0|0|0,1:0|1:0|1:0|1:0,0:0:0:0:
328,76,140597,6,0,L|352:232,3,150.000005722046,0|0|0|8,1:0|1:0|1:0|1:0,0:0:0:0:
472,320,144025,6,0,B|436:322|416:312|416:312|384:348|384:348|340:320|280:336,1,200,4|0,0:0|0:0,0:0:0:0:
192,348,145311,1,8,0:0:0:0:
108,292,145740,2,0,P|92:246|112:176,2,100,0|8|0,0:0|0:0|0:0,0:0:0:0:
140,96,147454,6,0,L|252:104,1,100,2|8,0:0|0:0,0:0:0:0:
324,160,148311,1,0,0:0:0:0:
408,108,148740,1,8,0:0:0:0:
488,164,149168,2,0,P|468:216|480:272,2,100,2|8|0,0:0|0:0|0:0,0:0:0:0:
328,284,150883,6,0,B|272:280|272:280|260:296|236:312|236:312|232:244|164:224,1,200,0|8,0:0|0:0,0:0:0:0:
136,320,152168,1,2,3:0:0:0:
64,252,152597,2,0,L|56:148,1,100,0|2,0:0|0:2,0:0:0:0:
12,60,153454,1,8,0:0:0:0:
200,128,154311,6,0,P|248:136|308:104,1,100,2|8,0:0|0:0,0:0:0:0:
372,180,155168,2,0,P|428:192|464:236,1,100,0|8,0:0|0:0,0:0:0:0:
380,296,156025,1,2,0:0:0:0:
380,296,156454,1,8,0:0:0:0:
380,296,156883,1,8,0:0:0:0:
180,236,157740,6,0,L|64:248,1,100,0|4,2:0|0:0,0:0:0:0:
40,156,158597,2,0,L|260:132,1,200,8|0,0:0|0:0,0:0:0:0:
320,196,159883,1,2,3:2:0:0:
412,152,160311,1,8,0:0:0:0:
272,300,161168,6,0,P|208:296|164:320,1,100,2|8,0:0|0:0,0:0:0:0:
128,216,162025,2,0,P|84:192|68:136,1,100,0|8,0:0|0:0,0:0:0:0:
92,48,162883,1,2,0:0:0:0:
92,48,163311,1,8,0:0:0:0:
92,48,163740,1,8,0:0:0:0:
284,84,164597,6,0,B|276:116|248:132|248:132|300:136|300:136|324:156|324:156|388:160,1,200,0|8,0:0|0:0,0:0:0:0:
196,244,166311,2,0,B|176:244|160:232|160:232|128:256|128:256|84:224|84:168|128:136,1,200,0|8,0:0|0:0,0:0:0:0:
316,248,168025,6,0,P|304:312|272:340,1,100,2|8,0:0|0:0,0:0:0:0:
180,368,168883,2,0,P|128:344|80:352,1,100,0|8,0:0|0:0,0:0:0:0:
48,244,169740,1,0,0:0:0:0:
148,236,170168,1,8,0:0:0:0:
228,176,170597,1,8,0:0:0:0:
28,44,171454,6,0,B|84:48|84:48|96:68|120:80|120:80|168:56|220:84,1,200,4|8,0:0|0:0,0:0:0:0:
168,168,172740,1,0,3:0:0:0:
248,228,173168,2,0,P|288:184|440:192,1,200,2|8,0:2|1:0,0:0:0:0:
284,324,174883,6,0,P|228:332|180:300,1,100,4|8,0:2|0:0,0:0:0:0:
100,272,175740,2,0,P|128:220|120:168,1,100,0|8,0:0|0:0,0:0:0:0:
60,108,176597,2,0,L|72:4,2,100,2|8|0,0:0|0:0|0:0,0:0:0:0:
20,200,177883,1,8,0:0:0:0:
100,272,178311,6,0,B|150:262|150:262|216:288,1,100,4|0,0:2|0:0,0:0:0:0:
272,344,179168,2,0,P|336:292|448:316,2,200,8|0|8,0:0|0:0|1:0,0:0:0:0:
340,136,181740,5,4,0:2:0:0:
236,156,182168,1,8,0:0:0:0:
172,76,182597,2,0,P|136:104|80:104,1,100,0|8,0:0|0:0,0:0:0:0:
40,212,183454,2,0,P|85:208|132:238,1,100,2|8,0:0|0:0,0:0:0:0:
112,336,184311,2,0,P|200:312|228:212,1,200,8|4,0:0|0:0,0:0:0:0:
360,112,186025,5,8,0:0:0:0:
360,112,186454,1,0,3:2:0:0:
360,112,186883,2,0,L|384:328,1,200,2|8,0:2|1:0,0:0:0:0:
184,336,188597,6,0,P|208:288|196:228,1,100,4|8,0:2|0:0,0:0:0:0:
128,176,189454,2,0,L|144:56,2,100,0|8|2,0:0|0:0|0:0,0:0:0:0:
100,276,190740,1,8,0:0:0:0:
184,336,191168,2,0,P|240:308|296:324,1,100,0|8,0:0|0:0,0:0:0:0:
372,344,192025,6,0,P|440:312|456:192,1,200,4|8,0:2|0:0,0:0:0:0:
458,197,193740,2,0,B|316:208|316:208|256:192,2,200,0|8|0,0:0|0:0|0:0,0:0:0:0:
504,284,195883,5,0,0:0:0:0:
428,348,196311,2,0,P|384:312|332:312,1,100,8|8,0:0|0:0,0:0:0:0:
244,332,197168,2,0,P|152:344|76:252,1,200,0|8,0:0|0:0,0:0:0:0:
256,192,198883,1,4,1:1:0:0:
256,192,198954,12,0,202311,0:0:0:0:
