osu file format v14

[General]
AudioFilename: Dangdutstep.mp3
AudioLeadIn: 0
PreviewTime: 48026
Countdown: 0
SampleSet: Normal
StackLeniency: 0.7
Mode: 0
LetterboxInBreaks: 1
WidescreenStoryboard: 1

[Editor]
Bookmarks: 20598,34312,48026,61741,75455,89169,102883,116598,130312,144026,157741,171455,185169,198884
DistanceSpacing: 1.1
BeatDivisor: 6
GridSize: 4
TimelineZoom: 0.9999996

[Metadata]
Title:Onslaught
TitleUnicode:Onslaught
Artist:CENOB1TE
ArtistUnicode:CENOB1TE
Creator:inverness
Version:apoplexy_
Source:
Tags:dubstep drumstep dangdutstep foreverends winber1 charles445 hanzer kyshiro irreversible wendao2000 harez
BeatmapID:436574
BeatmapSetID:181979

[Difficulty]
HPDrainRate:7
CircleSize:4
OverallDifficulty:8.5
ApproachRate:9.3
SliderMultiplier:1.8
SliderTickRate:1

[Events]
//Background and Video events
0,0,"sunsetsoldier-does-it-matter-wallpaper.jpg",0,0
//Break Periods
2,103083,116043
//Storyboard Layer 0 (Background)
//Storyboard Layer 1 (Fail)
//Storyboard Layer 2 (Pass)
//Storyboard Layer 3 (Foreground)
Sprite,Foreground,Centre,"ok/c/i.png",440,445 F,0,47163,,1 S,0,47163,,0.7 F,0,102878,,1
Sprite,Foreground,Centre,"ok/c/n.png",455,445 F,0,47235,,1 S,0,47235,,0.7 F,0,102806,,1
Sprite,Foreground,Centre,"ok/c/v.png",470,445 F,0,47306,,1 S,0,47306,,0.7 F,0,102735,,1
Sprite,Foreground,Centre,"ok/c/e.png",485,445 F,0,47378,,1 S,0,47378,,0.7 F,0,102663,,1
Sprite,Foreground,Centre,"ok/c/r.png",500,445 F,0,47449,,1 S,0,47449,,0.7 F,0,102592,,1
Sprite,Foreground,Centre,"ok/c/n.png",515,445 F,0,47520,,1 S,0,47520,,0.7 F,0,102520,,1
Sprite,Foreground,Centre,"ok/c/e.png",530,445 F,0,47592,,1 S,0,47592,,0.7 F,0,102449,,1
Sprite,Foreground,Centre,"ok/c/s.png",545,445 F,0,47663,,1 S,0,47663,,0.7 F,0,102378,,1
Sprite,Foreground,Centre,"ok/c/s.png",560,445 F,0,47735,,1 S,0,47735,,0.7 F,0,102306,,1
Sprite,Foreground,Centre,"ok/c/F.png",440,445 F,0,143306,,1 S,0,143306,,0.7 F,0,157735,,1
Sprite,Foreground,Centre,"ok/c/o.png",455,445 F,0,143378,,1 S,0,143378,,0.7 F,0,157663,,1
Sprite,Foreground,Centre,"ok/c/r.png",470,445 F,0,143449,,1 S,0,143449,,0.7 F,0,157592,,1
Sprite,Foreground,Centre,"ok/c/e.png",485,445 F,0,143520,,1 S,0,143520,,0.7 F,0,157520,,1
Sprite,Foreground,Centre,"ok/c/v.png",500,445 F,0,143592,,1 S,0,143592,,0.7 F,0,157449,,1
Sprite,Foreground,Centre,"ok/c/e.png",515,445 F,0,143663,,1 S,0,143663,,0.7 F,0,157378,,1
Sprite,Foreground,Centre,"ok/c/r.png",530,445 F,0,143735,,1 S,0,143735,,0.7 F,0,157306,,1
Sprite,Foreground,Centre,"ok/c/e.png",545,445 F,0,143806,,1 S,0,143806,,0.7 F,0,157235,,1
Sprite,Foreground,Centre,"ok/c/n.png",560,445 F,0,143878,,1 S,0,143878,,0.7 F,0,157166,,1
Sprite,Foreground,Centre,"ok/c/d.png",575,445 F,0,143949,,1 S,0,143949,,0.7 F,0,157092,,1
Sprite,Foreground,Centre,"ok/c/s.png",590,445 F,0,144020,,1 S,0,144020,,0.7 F,0,157020,,1
Sprite,Foreground,Centre,"ok/c/w.png",440,445 F,0,157806,,1 S,0,157806,,0.7 F,0,171449,,1
Sprite,Foreground,Centre,"ok/c/i.png",455,445 F,0,157878,,1 S,0,157878,,0.7 F,0,171378,,1
Sprite,Foreground,Centre,"ok/c/n.png",470,445 F,0,157949,,1 S,0,157949,,0.7 F,0,171306,,1
Sprite,Foreground,Centre,"ok/c/b.png",485,445 F,0,158020,,1 S,0,158020,,0.7 F,0,171235,,1
Sprite,Foreground,Centre,"ok/c/e.png",500,445 F,0,158092,,1 S,0,158092,,0.7 F,0,171163,,1
Sprite,Foreground,Centre,"ok/c/r.png",515,445 F,0,158163,,1 S,0,158163,,0.7 F,0,171092,,1
Sprite,Foreground,Centre,"ok/c/1.png",530,445 F,0,158235,,1 S,0,158235,,0.7 F,0,171020,,1
Sprite,Foreground,Centre,"ok/c/C.png",440,445 F,0,171520,,1 S,0,171520,,0.7 F,0,185163,,1
Sprite,Foreground,Centre,"ok/c/h.png",455,445 F,0,171592,,1 S,0,171592,,0.7 F,0,185092,,1
Sprite,Foreground,Centre,"ok/c/a.png",470,445 F,0,171663,,1 S,0,171663,,0.7 F,0,185020,,1
Sprite,Foreground,Centre,"ok/c/r.png",485,445 F,0,171735,,1 S,0,171735,,0.7 F,0,184949,,1
Sprite,Foreground,Centre,"ok/c/l.png",500,445 F,0,171806,,1 S,0,171806,,0.7 F,0,184878,,1
Sprite,Foreground,Centre,"ok/c/e.png",515,445 F,0,171878,,1 S,0,171878,,0.7 F,0,184806,,1
Sprite,Foreground,Centre,"ok/c/s.png",530,445 F,0,171949,,1 S,0,171949,,0.7 F,0,184735,,1
Sprite,Foreground,Centre,"ok/c/4.png",545,445 F,0,172020,,1 S,0,172020,,0.7 F,0,184663,,1
Sprite,Foreground,Centre,"ok/c/4.png",560,445 F,0,172092,,1 S,0,172092,,0.7 F,0,184592,,1
Sprite,Foreground,Centre,"ok/c/5.png",575,445 F,0,172163,,1 S,0,172163,,0.7 F,0,184520,,1
Sprite,Foreground,Centre,"ok/c/bH.png",440,445 F,0,185235,,1 S,0,185235,,0.7 F,0,198878,,1
Sprite,Foreground,Centre,"ok/c/a.png",455,445 F,0,185306,,1 S,0,185306,,0.7 F,0,198806,,1
Sprite,Foreground,Centre,"ok/c/n.png",470,445 F,0,185378,,1 S,0,185378,,0.7 F,0,198735,,1
Sprite,Foreground,Centre,"ok/c/z.png",485,445 F,0,185449,,1 S,0,185449,,0.7 F,0,198663,,1
Sprite,Foreground,Centre,"ok/c/e.png",500,445 F,0,185520,,1 S,0,185520,,0.7 F,0,198592,,1
Sprite,Foreground,Centre,"ok/c/bR.png",515,445 F,0,185592,,1 S,0,185592,,0.7 F,0,198520,,1
Animation,Foreground,Centre,"ok/c/_.png",440,445,2,143,LoopForever F,0,46303,,1 S,0,46303,,0.7 M,0,47163,47735,455,445,575,445 F,0,49735,,0 F,0,101163,,1 M,0,102306,102878,575,445,440,445 F,0,109735,,0 F,0,142306,,1 M,0,143306,144020,455,445,605,445 F,0,145735,,0 F,0,156020,,1 M,0,157020,157735,605,445,455,445 M,0,157806,158235,455,445,545,445 F,0,159449,,0 F,0,170592,,1 M,0,170949,171449,545,445,455,445 M,0,171520,172163,455,445,590,445 F,0,174020,,0 F,0,183449,,1 M,0,184520,185163,590,445,455,445 M,0,185235,185592,455,445,530,445 F,0,186878,,0 F,0,197163,,1 M,0,198520,198949,530,445,440,445 F,0,201449,,0
//Storyboard Sound Samples

[TimingPoints]
6883,428.571428571429,4,2,1,90,1,0
20597,-133.333333333333,4,2,1,60,0,0
34311,-133.333333333333,4,2,1,50,0,0
44597,-133.333333333333,4,1,1,55,0,0
45025,-133.333333333333,4,1,1,60,0,0
45454,-133.333333333333,4,1,1,65,0,0
45883,-133.333333333333,4,1,1,70,0,0
46311,-133.333333333333,4,1,1,75,0,0
47168,-133.333333333333,4,1,1,70,0,0
48025,-57.1428571428571,4,1,1,94,0,1
48311,-100,4,1,1,94,0,1
48454,-66.6666666666667,4,1,1,94,0,1
48740,-100,4,1,1,94,0,1
50597,-80,4,1,1,94,0,1
51454,-57.1428571428571,4,1,1,94,0,1
51668,-100,4,1,1,94,0,1
52025,-80,4,1,1,94,0,1
52168,-100,4,1,1,94,0,1
53168,-57.1428571428571,4,1,1,94,0,1
53740,-80,4,1,1,94,0,1
53883,-100,4,1,1,94,0,1
55311,-57.1428571428571,4,1,1,94,0,1
55597,-100,4,1,1,94,0,1
57454,-80,4,1,1,94,0,1
58311,-57.1428571428571,4,1,1,94,0,1
58525,-100,4,1,1,94,0,1
58883,-80,4,1,1,94,0,1
59025,-100,4,1,1,94,0,1
59740,-80,4,1,1,94,0,1
60025,-66.6666666666667,4,1,1,94,0,1
60240,-100,4,1,1,94,0,1
60597,-80,4,1,1,94,0,1
61168,-66.6666666666667,4,1,1,84,0,1
61454,-57.1428571428571,4,1,1,74,0,1
61740,-100,4,2,1,94,0,0
62168,-57.1428571428571,4,1,1,94,0,1
62811,-100,4,1,1,94,0,1
64311,-80,4,1,1,94,0,1
65168,-57.1428571428571,4,1,1,94,0,1
65383,-100,4,1,1,94,0,1
65740,-80,4,1,1,94,0,1
65883,-100,4,1,1,94,0,1
66883,-66.6666666666667,4,1,1,94,0,1
67097,-100,4,1,1,94,0,1
67454,-80,4,1,1,94,0,1
67597,-100,4,1,1,94,0,1
68597,-200,4,2,1,94,0,1
69454,-133.333333333333,4,2,1,84,0,0
70311,-57.1428571428571,4,1,1,94,0,0
70454,-100,4,1,1,94,0,0
71168,-200,4,2,1,94,0,1
72025,-57.1428571428571,4,1,1,94,0,1
72240,-100,4,1,1,94,0,1
72597,-80,4,1,1,94,0,1
72740,-100,4,1,1,94,0,1
73454,-80,4,1,1,94,0,1
73597,-100,4,1,1,94,0,1
73740,-57.1428571428571,4,1,1,94,0,1
73954,-100,4,1,1,94,0,1
74311,-80,4,1,1,94,0,1
74454,-100,4,1,1,94,0,1
74597,-57.1428571428571,4,1,1,94,0,1
74883,-66.6666666666667,4,1,1,94,0,1
75168,-80,4,1,1,94,0,1
75383,-100,4,1,1,94,0,0
75454,-57.1428571428571,4,1,1,94,0,1
75740,-100,4,1,1,94,0,1
75883,-66.6666666666667,4,1,1,94,0,1
76168,-100,4,1,1,94,0,1
76311,-80,4,1,1,94,0,1
77168,-66.6666666666667,4,1,1,94,0,1
77454,-61.7283950617284,4,1,1,94,0,1
77740,-57.1428571428571,4,1,1,94,0,1
78025,-200,4,2,1,94,0,0
78883,-57.1428571428571,4,1,1,94,0,1
79597,-100,4,1,1,94,0,1
80597,-80,4,1,1,94,0,1
82311,-66.6666666666667,4,1,1,94,0,1
83025,-80,4,1,1,94,0,1
84025,-66.6666666666667,4,1,1,94,0,1
84240,-100,4,1,1,94,0,1
84311,-80,4,1,1,94,0,1
84454,-100,4,1,1,94,0,1
84883,-200,4,2,1,94,0,1
85740,-57.1428571428571,4,1,1,94,0,1
86454,-100,4,1,1,94,0,1
87454,-80,4,1,1,94,0,1
89097,-100,4,1,1,94,0,0
89168,-57.1428571428571,4,1,1,94,0,1
89454,-100,4,1,1,94,0,1
89597,-66.6666666666667,4,1,1,94,0,1
89883,-100,4,1,1,94,0,1
90025,-80,4,1,1,94,0,1
90883,-80,4,1,1,94,0,1
91168,-66.6666666666667,4,1,1,94,0,1
91454,-57.1428571428571,4,1,1,94,0,1
91668,-100,4,1,1,94,0,1
91740,-200,4,2,1,94,0,0
91954,-200,4,2,1,5,0,0
92025,-250,4,2,1,74,0,0
92240,-200,4,2,1,5,0,0
92311,-300,4,2,1,54,0,0
92525,-200,4,2,1,5,0,0
92597,-57.1428571428571,4,1,1,94,0,1
92883,-100,4,1,1,94,0,1
93025,-66.6666666666667,4,1,1,94,0,1
93311,-100,4,1,1,94,0,1
94311,-80,4,1,1,94,0,1
96025,-57.1428571428571,4,1,1,94,0,1
96311,-100,4,1,1,94,0,1
96454,-66.6666666666667,4,1,1,94,0,1
96740,-100,4,1,1,94,0,1
97740,-66.6666666666667,4,1,1,94,0,1
97954,-100,4,1,1,94,0,1
98025,-80,4,1,1,94,0,1
98597,-57.1428571428571,4,1,1,94,0,1
98811,-100,4,1,1,94,0,1
98883,-80,4,1,1,94,0,1
99168,-57.1428571428571,4,1,1,94,0,1
99311,-100,4,1,1,94,0,1
101168,-80,4,1,1,94,0,1
102454,-57.1428571428571,4,1,1,80,0,1
102883,-100,4,1,1,94,0,0
116597,-133.333333333333,4,2,1,60,0,0
130311,-133.333333333333,4,2,1,50,0,0
142311,-133.333333333333,4,2,1,64,0,0
143168,-133.333333333333,4,2,1,78,0,0
144025,-57.1428571428571,4,1,1,94,0,1
144883,-100,4,1,1,94,0,1
146597,-66.6666666666667,4,1,1,94,0,1
147454,-58.8235294117647,4,1,1,94,0,1
147883,-76.9230769230769,4,1,1,94,0,1
149168,-58.8235294117647,4,1,1,94,0,1
149597,-76.9230769230769,4,1,1,94,0,1
150883,-58.8235294117647,4,1,1,94,0,1
151311,-133.333333333333,4,1,1,94,0,1
151740,-74.074074074074,4,1,1,94,0,1
153025,-133.333333333333,4,1,1,94,0,1
153454,-66.6666666666667,4,1,1,94,0,1
154311,-58.8235294117647,4,1,1,94,0,1
154740,-76.9230769230769,4,1,1,94,0,1
156025,-58.8235294117647,4,1,1,94,0,1
156454,-76.9230769230769,4,1,1,94,0,1
157168,-58.8235294117647,4,1,1,84,0,1
157454,-50,4,1,1,74,0,1
157740,-133.333333333333,4,1,1,94,0,0
158168,-57.1428571428571,4,1,1,94,0,1
158597,-100,4,1,1,94,0,1
160311,-66.6666666666667,4,1,1,94,0,1
161168,-100,4,1,1,94,0,1
164597,-133.333333333333,4,2,1,94,0,0
165383,-133.333333333333,4,1,1,5,0,0
165454,-133.333333333333,4,1,1,94,0,0
166311,-50,4,1,1,94,0,0
167168,-133.333333333333,4,2,1,94,0,1
168025,-57.1428571428571,4,1,1,94,0,1
169740,-100,4,1,1,94,0,1
170168,-57.1428571428571,4,1,1,94,0,1
170597,-50,4,1,1,94,0,1
171383,-57.1428571428571,4,1,1,94,0,0
171454,-58.8235294117647,4,1,1,94,0,1
171811,-66.6666666666667,4,1,1,94,0,1
172240,-80,4,1,1,94,0,1
173097,-52.6315789473684,4,1,1,94,0,1
174025,-166.666666666667,4,2,1,94,0,0
174883,-62.5,4,1,1,94,0,1
175668,-80,4,1,1,94,0,1
178240,-57.1428571428571,4,1,1,94,0,1
179597,-57.1428571428571,4,1,1,74,0,1
179740,-57.1428571428571,4,1,1,84,0,1
179883,-57.1428571428571,4,1,1,94,0,1
180275,-71.4285714285714,4,1,1,94,0,1
180811,-133.333333333333,4,2,1,94,0,1
181704,-71.4285714285714,4,1,1,94,0,1
184275,-60.6060606060606,4,1,1,94,0,1
185097,-100,4,1,1,94,0,0
185168,-100,4,1,1,94,0,1
185597,-100,4,3,1,94,0,1
185668,-100,4,2,1,94,0,1
186883,-66.6666666666667,4,1,1,94,0,1
187168,-57.1428571428571,4,1,1,94,0,1
187454,-50,4,1,1,94,0,1
187740,-66.6666666666667,4,1,1,94,0,0
187954,-100,4,1,1,5,0,0
188025,-100,4,1,1,74,0,0
188311,-100,4,2,1,54,0,0
188454,-100,4,1,1,5,0,0
188597,-66.6666666666667,4,1,1,94,0,1
189025,-80,4,1,1,94,0,1
189454,-100,4,1,1,94,0,1
192025,-80,4,1,1,94,0,1
193740,-66.6666666666667,4,1,1,94,0,1
194597,-80,4,1,1,94,0,1
194811,-50,4,1,1,94,0,1
195168,-50,4,1,1,94,0,1
195454,-100,4,1,1,94,0,1
198025,-80,4,1,1,94,0,1
198311,-66.6666666666667,4,1,1,94,0,1
198597,-57.1428571428571,4,1,1,94,0,1
198883,-100,4,1,1,84,0,0
198936,-100,4,1,1,13,0,0
199311,-100,4,1,1,12,0,0
199740,-100,4,1,1,11,0,0
200168,-100,4,1,1,10,0,0
200597,-100,4,1,1,9,0,0
201025,-100,4,1,1,8,0,0
201454,-100,4,1,1,7,0,0
201883,-100,4,1,1,6,0,0
202311,-100,4,2,1,5,0,0

[Colours]
Combo1 : 206,200,176
Combo2 : 192,143,126
Combo3 : 199,185,137
Combo4 : 227,189,155

[HitObjects]
56,96,20597,6,0,L|200:104,1,135.000005149842,0|2,1:0|0:0,0:0:0:0:
448,192,21454,2,0,P|416:228|336:224,1,101.250003862381,8|0,1:0|0:0,0:0:0:0:
340,232,21883,2,0,P|320:188|292:172,1,67.5000025749208,0|0,0:0|0:0,0:0:0:0:
192,336,22311,2,0,P|256:308|252:232,1,135.000005149842,0|2,0:0|0:0,0:0:0:0:
232,176,22954,1,0,0:0:0:0:
32,288,23168,2,0,B|100:292|100:292|136:272,1,101.250003862381,8|0,1:0|0:0,0:0:0:0:
128,275,23597,1,0,0:0:0:0:
232,176,23811,1,0,0:0:0:0:
88,84,24025,6,0,P|100:156|180:180,1,135.000005149842,0|2,1:0|0:0,0:0:0:0:
352,28,24668,1,0,0:0:0:0:
348,24,24883,2,0,L|340:152,1,101.250003862381,8|0,1:0|0:0,0:0:0:0:
340,152,25311,2,0,P|344:200|360:228,1,67.5000025749208,0|0,0:0|0:0,0:0:0:0:
496,240,25740,2,0,P|440:248|396:316,1,135.000005149842,0|2,0:0|0:0,0:0:0:0:
480,320,26383,1,0,0:0:0:0:
340,152,26597,2,0,P|296:188|232:192,1,101.250003862381,8|0,1:0|0:0,0:0:0:0:
228,192,27025,2,0,B|192:188|192:188|152:196,1,67.5000025749208,0|0,0:0|0:0,0:0:0:0:
32,76,27454,6,0,P|72:112|160:104,1,135.000005149842,0|2,1:0|0:0,0:0:0:0:
332,252,28311,2,0,L|340:152,1,101.250003862381,8|0,1:0|0:0,0:0:0:0:
352,128,28740,2,0,P|371:163|404:176,1,67.5000025749208,0|0,0:0|0:0,0:0:0:0:
364,336,29168,2,0,P|311:336|277:359,1,67.5000025749208,0|0,0:0|0:0,0:0:0:0:
220,296,29597,2,0,P|188:306|154:302,1,67.5000025749208,2|0,0:0|0:0,0:0:0:0:
192,120,30025,2,0,B|196:196|196:196|182:216,1,101.250003862381,8|0,1:0|0:0,0:0:0:0:
182,216,30454,1,0,0:0:0:0:
256,52,30668,1,0,0:0:0:0:
376,192,30883,6,0,P|436:200|492:148,1,135.000005149842,0|2,1:0|0:0,0:0:0:0:
416,120,31525,1,0,0:0:0:0:
182,216,31740,2,0,L|168:356,1,135.000005149842,8|0,1:0|0:0,0:0:0:0:
92,372,32383,1,0,0:0:0:0:
36,104,32597,2,0,L|104:96,1,67.5000025749208,0|0,0:0|0:0,0:0:0:0:
304,140,33025,2,0,L|236:148,1,67.5000025749208,2|0,0:0|0:0,0:0:0:0:
336,264,33454,2,0,B|412:248|388:296|472:280,1,135.000005149842,8|0,1:0|0:0,0:0:0:0:
448,204,34097,1,0,0:0:0:0:
360,344,34311,5,0,1:0:0:0:
256,328,36025,5,2,1:2:0:0:
152,80,37740,5,0,1:0:0:0:
256,68,39454,5,2,1:2:0:0:
396,193,41168,5,0,1:0:0:0:
312,180,42025,1,2,1:2:0:0:
116,192,42883,5,0,1:0:0:0:
200,205,43740,1,2,1:2:0:0:
508,169,44597,5,0,1:0:0:0:
424,156,45025,1,2,1:2:0:0:
4,215,45454,5,0,1:0:0:0:
88,228,45883,1,2,1:2:0:0:
340,144,46311,5,0,0:0:0:0:
159,181,46525,1,2,0:2:0:0:
327,257,46740,1,0,0:0:0:0:
236,97,46954,1,2,0:2:0:0:
215,280,47168,1,8,0:0:0:0:
220,300,47275,1,0,0:0:0:0:
229,318,47383,1,8,0:0:0:0:
240,335,47490,1,0,0:0:0:0:
255,349,47597,1,8,0:0:0:0:
272,360,47704,1,0,0:0:0:0:
291,367,47811,1,8,0:0:0:0:
310,371,47918,1,0,0:0:0:0:
331,372,48025,6,0,B|376:372|400:348|400:348|416:352|424:364|424:364|476:328|448:248,1,210.000002002716,4|0,0:0|2:0,0:0:0:0:
344,88,48454,6,0,B|340:148|392:168|392:168|400:196|400:196|436:168|484:184,1,180.000006866455,4|0,0:2|2:0,0:0:0:0:
264,52,48883,5,8,0:0:0:0:
126,64,49025,1,2,3:0:0:0:
204,178,49168,1,2,3:0:0:0:
192,20,49311,1,0,3:0:0:0:
132,144,49454,1,2,3:0:0:0:
270,133,49597,1,2,3:0:0:0:
126,64,49740,6,0,L|72:64,1,30,0|0,0:0|2:0,0:0:0:0:
132,144,49883,2,0,L|88:168,1,30,2|0,3:2|2:0,0:0:0:0:
204,178,50025,2,0,L|184:224,1,30,2|0,3:2|2:0,0:0:0:0:
270,133,50168,2,0,B|328:152|328:104|404:128,1,120,2|0,3:2|0:0,0:0:0:0:
376,276,50597,6,0,L|368:200,1,75,8|8,0:0|2:0,0:0:0:0:
464,96,50883,1,8,2:0:0:0:
320,340,51025,2,0,P|272:324|224:336,1,75,2|8,3:0|2:0,0:0:0:0:
144,360,51311,1,8,2:0:0:0:
488,244,51454,6,2,B|500:208|476:184|476:184|480:156|480:156|452:123|472:64,1,157.500001502037,4|0,0:2|2:0,0:0:0:0:
464,96,51740,1,2,3:0:0:0:
504,0,51883,1,0,3:0:0:0:
376,160,52025,2,0,P|364:112|380:60,1,75,2|0,3:0|0:0,0:0:0:0:
300,216,52311,1,8,0:0:0:0:
280,202,52383,1,0,3:0:0:0:
257,194,52454,1,0,3:0:0:0:
233,192,52525,1,0,3:0:0:0:
210,195,52597,2,0,P|199:229|176:256,1,60,2|0,3:0|3:0,0:0:0:0:
172,112,52883,2,0,P|207:103|241:110,1,60,2|2,3:0|3:2,0:0:0:0:
120,188,53168,6,2,B|84:168|80:124|80:124|68:112|68:112|96:80|80:20,1,157.500001502037,0|0,0:0|2:0,0:0:0:0:
85,54,53454,1,2,3:0:0:0:
28,240,53597,1,0,3:0:0:0:
228,280,53740,2,0,B|188:276|188:276|148:292,1,75,2|0,3:0|0:0,0:0:0:0:
244,312,53954,1,0,0:0:0:0:
261,340,54025,1,8,0:0:0:0:
291,346,54097,1,0,3:0:0:0:
320,341,54168,1,0,3:0:0:0:
347,327,54240,1,0,3:0:0:0:
368,300,54311,2,0,L|440:308,1,60,2|8,3:0|0:0,0:0:0:0:
512,208,54597,2,0,L|440:216,1,60,8|8,2:2|0:0,0:0:0:0:
328,112,54883,6,0,P|304:156|368:180,1,120,0|0,0:0|2:0,0:0:0:0:
244,68,55311,6,0,B|212:104|216:148|216:148|208:156|196:156|196:156|220:196|220:196|216:260,1,210.000002002716,4|0,0:2|2:0,0:0:0:0:
124,304,55740,6,0,B|132:224|132:224|100:176,1,120,8|0,0:0|3:0,0:0:0:0:
48,128,56168,1,2,3:0:0:0:
216,192,56311,1,0,3:0:0:0:
176,16,56454,1,2,3:0:0:0:
216,192,56597,6,0,L|248:228,1,30,0|0,0:0|2:0,0:0:0:0:
316,176,56740,2,0,L|361:191,1,30,2|0,3:2|2:2,0:0:0:0:
400,120,56883,2,0,L|447:110,1,30,2|0,3:2|2:0,0:0:0:0:
216,192,57025,2,0,B|152:212|158:163|82:187,1,120,2|0,3:2|3:0,0:0:0:0:
280,264,57454,6,0,P|308:296|352:312,1,75,8|8,0:0|2:0,0:0:0:0:
428,304,57740,1,8,2:0:0:0:
208,336,57883,2,0,L|120:340,1,75,2|8,3:0|2:0,0:0:0:0:
12,344,58168,1,8,0:0:0:0:
216,192,58311,6,2,B|248:168|284:172|284:172|280:152|280:152|308:132|312:72,1,157.500001502037,4|0,0:2|2:0,0:0:0:0:
309,96,58597,1,2,3:0:0:0:
372,180,58740,1,0,3:0:0:0:
472,40,58883,2,0,L|396:44,1,75,2|0,3:0|0:0,0:0:0:0:
372,180,59168,1,8,0:0:0:0:
391,194,59240,1,0,3:0:0:0:
406,212,59311,1,0,3:0:0:0:
418,233,59383,1,0,3:0:0:0:
424,256,59454,2,0,L|420:312,1,30,2|0,3:0|3:0,0:0:0:0:
492,336,59597,2,0,L|496:280,1,30,0|0,3:0|3:0,0:0:0:0:
332,268,59740,2,0,P|320:320|284:348,1,75,2|2,3:0|3:2,0:0:0:0:
116,284,60025,6,2,B|188:308|176:248|264:280,1,135.000005149842,0|0,0:0|2:0,0:0:0:0:
246,274,60311,1,2,3:0:0:0:
144,204,60454,1,0,3:0:0:0:
306,335,60597,1,2,3:0:0:0:
356,120,60740,1,0,0:0:0:0:
340,128,60811,1,0,0:0:0:0:
324,136,60883,6,0,L|336:44,1,75,8|0,0:0|0:0,0:0:0:0:
236,172,61168,6,0,L|247:82,1,90.0000034332277,2|0,3:0|3:0,0:0:0:0:
144,204,61454,6,0,L|158:92,1,105.000001001358,8|0,2:0|2:0,0:0:0:0:
8,176,61740,6,2,P|10:236|64:228,1,120,0|0,2:0|2:0,0:0:0:0:
44,332,62168,6,0,B|88:340|128:304|128:304|148:312|152:328|152:328|188:296|248:312,1,210.000002002716,4|0,0:0|2:0,0:0:0:0:
408,356,62597,6,0,B|368:368|337:342|337:342|311:349|311:349|328:316|316:272,1,157.500001502037,8|0,0:0|2:0,0:0:0:0:
316,272,62883,2,0,P|316:228|328:200,1,60,0|2,3:0|3:0,0:0:0:0:
380,148,63168,1,0,3:0:0:0:
232,224,63311,1,2,3:0:0:0:
408,244,63454,6,0,L|464:232,1,30,0|0,0:0|2:0,0:0:0:0:
380,148,63597,2,0,L|408:112,1,30,2|0,3:2|2:0,0:0:0:0:
280,132,63740,2,0,L|276:92,1,30,2|0,3:2|2:0,0:0:0:0:
232,224,63883,2,0,B|174:243|174:195|98:219,1,120,2|0,3:2|3:0,0:0:0:0:
44,332,64311,6,0,P|80:348|140:332,1,75,8|8,0:0|2:0,0:0:0:0:
200,316,64597,1,8,2:0:0:0:
121,139,64740,2,0,L|115:214,1,75,2|8,3:0|2:0,0:0:0:0:
288,340,65025,1,8,2:0:0:0:
288,112,65168,6,2,B|280:152|312:176|312:176|308:204|308:204|356:200|392:248,1,157.500001502037,4|0,0:2|2:0,0:0:0:0:
361,218,65454,1,2,3:0:0:0:
340,44,65597,1,0,3:0:0:0:
372,304,65740,2,0,P|416:288|440:248,1,75,2|0,3:0|0:0,0:0:0:0:
288,340,66025,1,8,0:0:0:0:
267,324,66097,1,0,3:0:0:0:
244,316,66168,1,0,3:0:0:0:
221,314,66240,1,0,3:0:0:0:
200,316,66311,2,0,P|180:340|144:352,1,60,2|0,3:0|3:0,0:0:0:0:
16,312,66597,2,0,P|46:317|75:342,1,60,2|2,3:0|3:2,0:0:0:0:
128,256,66883,6,2,B|96:192|152:196|120:120,1,135.000005149842,0|0,0:0|2:0,0:0:0:0:
122,125,67168,1,2,3:0:0:0:
208,224,67311,1,0,3:0:0:0:
44,80,67454,2,0,P|32:120|40:152,1,75,2|0,3:0|0:0,0:0:0:0:
208,224,67740,1,8,0:0:0:0:
240,196,67811,1,8,0:0:0:0:
284,178,67883,1,8,0:0:0:0:
327,177,67954,1,0,0:0:0:0:
368,188,68025,2,0,P|411:210|439:210,1,60,0|8,0:0|0:0,0:0:0:0:
472,84,68311,2,0,P|431:109|417:134,1,60,8|8,0:2|0:0,0:0:0:0:
336,352,68597,6,2,P|348:312|268:324,1,150,0|0,1:0|2:0,0:0:0:0:
92,347,69454,6,0,L|88:306,1,22.5000008583069,8|0,1:0|2:0,0:0:0:0:
180,272,69597,2,0,L|178:300,1,22.5000008583069,0|0,3:0|2:0,0:0:0:0:
64,240,69740,2,2,L|60:198,1,22.5000008583069,0|0,3:0|2:0,0:0:0:0:
168,160,69883,2,0,L|164:201,1,22.5000008583069,0|0,3:0|2:0,0:0:0:0:
36,132,70025,2,2,L|33:102,1,22.5000008583069,0|0,3:0|2:0,0:0:0:0:
160,48,70168,2,2,L|158:78,1,22.5000008583069,0|0,3:0|2:0,0:0:0:0:
345,234,70311,6,0,L|335:354,1,118.125001126528,0|0,0:0|3:0,0:0:0:0:
285,170,70597,2,0,P|277:138|293:90,1,60,2|0,3:0|3:0,0:0:0:0:
376,32,70811,1,0,3:0:0:0:
379,51,70883,1,0,3:0:0:0:
382,71,70954,1,0,2:0:0:0:
386,91,71025,1,0,3:0:0:0:
336,352,71168,6,2,P|281:318|331:278,1,150,8|0,1:0|2:0,0:0:0:0:
196,356,72025,6,2,B|180:312|196:272|196:272|188:244|188:244|196:196,1,157.500001502037,4|0,0:2|2:0,0:0:0:0:
194,202,72311,1,2,3:0:0:0:
108,272,72454,1,0,3:0:0:0:
280,216,72597,2,0,L|292:128,1,75,2|0,3:0|0:0,0:0:0:0:
332,288,72883,1,8,0:0:0:0:
346,307,72954,1,0,3:0:0:0:
365,321,73025,1,0,3:0:0:0:
388,328,73097,1,0,3:0:0:0:
412,332,73168,2,0,L|456:328,1,30,2|0,3:0|3:0,0:0:0:0:
492,248,73311,2,0,L|448:244,1,30,0|0,3:0|3:0,0:0:0:0:
368,192,73454,2,0,P|408:180|440:128,1,75,2|0,3:0|3:0,0:0:0:0:
392,56,73740,6,2,B|384:88|356:104|356:104|320:100|320:100|292:124|236:112,1,157.500001502037,0|0,0:0|2:0,0:0:0:0:
264,115,74025,1,2,3:0:0:0:
430,156,74168,1,0,3:0:0:0:
180,96,74311,2,0,L|96:104,1,75,2|0,3:0|0:0,0:0:0:0:
204,176,74597,6,0,P|240:200|312:188,1,105.000001001358,8|0,0:0|2:0,0:0:0:0:
152,236,74883,6,0,P|149:279|186:327,1,90.0000034332277,2|0,3:0|2:0,0:0:0:0:
80,200,75168,6,0,P|41:219|20:272,1,75,8|0,2:0|2:0,0:0:0:0:
256,336,75454,6,0,B|304:344|320:304|320:304|328:316|344:312|344:312|316:256|344:208,1,210.000002002716,4|0,0:0|2:0,0:0:0:0:
431,156,75883,6,0,B|463:196|439:252|439:252|463:240|463:240|471:268|507:276,1,180.000006866455,4|0,0:2|2:0,0:0:0:0:
342,212,76311,6,0,L|237:216,1,75,8|2,0:0|3:0,0:0:0:0:
188,168,76597,1,2,3:0:0:0:
396,68,76740,2,0,P|433:58|469:70,1,75,0|2,3:0|3:0,0:0:0:0:
504,216,77025,1,2,3:0:0:0:
304,88,77168,6,0,B|276:92|256:80|256:80|248:96|248:96|216:64|168:76,1,135.000005149842,2|0,0:2|2:0,0:0:0:0:
60,181,77454,6,0,B|88:185|108:173|108:173|116:189|116:189|148:157|188:168,1,145.80000355957,0|0,0:0|2:0,0:0:0:0:
340,296,77740,6,0,B|312:300|292:288|292:288|284:304|284:304|252:272|196:288,1,157.500001502037,2|0,0:2|2:0,0:0:0:0:
446,267,78025,6,2,P|509:280|504:216,1,150,8|0,1:0|2:0,0:0:0:0:
400,360,78883,6,2,B|376:348|360:320|360:320|324:312|324:312|322:295|340:292|340:292|328:280|340:252|340:252|288:252|260:200,1,262.500002503395,4|0,0:2|2:0,0:0:0:0:
460,24,79311,6,2,B|435:37|433:74|433:74|413:85|413:85|418:124|418:124|392:171|332:162,1,210.000002002716,0|0,0:0|2:0,0:0:0:0:
216,116,79740,6,0,P|252:100|296:108,1,60,8|2,0:0|3:0,0:0:0:0:
136,144,80025,2,0,P|104:120|89:78,1,60,2|0,3:0|3:0,0:0:0:0:
200,200,80311,2,0,L|204:288,1,60,2|2,3:0|3:2,0:0:0:0:
212,284,80525,1,0,3:2:0:0:
336,336,80597,6,0,L|432:340,1,75,0|2,0:0|3:0,0:0:0:0:
296,252,80883,2,0,P|316:208|316:164,1,75,2|0,3:0|3:0,0:0:0:0:
148,352,81168,2,0,P|96:332|48:348,1,75,8|0,2:0|0:0,0:0:0:0:
56,344,81383,1,0,3:0:0:0:
72,232,81454,6,0,L|68:140,1,75,8|2,0:0|3:0,0:0:0:0:
116,36,81740,1,2,0:3:0:0:
200,200,81883,1,8,0:0:0:0:
68,157,82025,1,8,0:0:0:0:
244,76,82168,1,0,0:0:0:0:
470,143,82311,6,0,B|412:140|384:184|384:184|368:168|368:168|344:180|312:168,1,180.000006866455,4|0,0:2|2:0,0:0:0:0:
72,232,82740,6,0,B|84:277|131:286|131:286|144:300|144:300|172:284|172:284|232:288,1,180.000006866455,0|0,0:0|2:0,0:0:0:0:
388,276,83168,6,0,L|280:268,1,75,8|2,0:0|3:0,0:0:0:0:
215,286,83454,1,2,3:0:0:0:
424,368,83597,2,0,P|464:344|472:296,1,75,0|2,3:0|3:0,0:0:0:0:
470,143,83883,1,2,3:0:0:0:
200,200,84025,2,0,B|272:224|264:168|336:192,1,135.000005149842,0|0,0:0|2:0,0:0:0:0:
228,124,84311,2,0,P|192:92|188:52,1,75,2|0,0:2|2:0,0:0:0:0:
312,268,84597,1,0,0:0:0:0:
228,124,84740,1,0,0:0:0:0:
200,200,84883,6,2,P|167:256|230:271,1,150,8|0,1:0|2:0,0:0:0:0:
104,44,85740,6,2,B|101:79|108:96|108:96|108:112|92:120|92:120|104:136|100:156|100:156|60:200|76:272,1,210.000002002716,4|0,0:2|2:0,0:0:0:0:
324,344,86168,6,2,B|327:322|340:304|340:304|320:288|312:264|312:264|328:252|332:224|332:224|316:188|324:148,1,210.000002002716,0|0,0:0|2:0,0:0:0:0:
420,120,86597,6,0,P|408:152|408:188,1,60,8|2,0:0|3:0,0:0:0:0:
344,72,86883,2,0,L|348:8,1,60,2|0,3:0|3:0,0:0:0:0:
236,168,87168,2,0,P|208:188|164:188,1,60,2|2,3:0|3:2,0:0:0:0:
156,188,87383,1,0,3:0:0:0:
280,260,87454,6,0,L|368:252,1,75,0|2,0:0|3:0,0:0:0:0:
200,312,87740,2,0,L|112:304,1,75,2|0,3:0|3:0,0:0:0:0:
440,200,88025,2,0,P|456:240|432:300,1,75,8|0,2:0|0:0,0:0:0:0:
444,292,88240,1,0,0:0:0:0:
352,156,88311,6,0,P|312:152|280:128,1,75,8|2,0:0|3:0,0:0:0:0:
344,72,88597,1,8,0:0:0:0:
280,260,88740,1,0,0:0:0:0:
264,48,88883,1,0,0:0:0:0:
364,240,89025,1,0,0:0:0:0:
344,72,89168,6,0,B|392:64|424:108|424:108|452:92|452:92|432:152|476:204,1,210.000002002716,4|0,0:0|2:0,0:0:0:0:
376,316,89597,6,0,B|348:292|344:268|344:268|324:284|324:284|304:280|292:280|292:280|264:304|232:292,1,180.000006866455,4|0,0:2|2:0,0:0:0:0:
92,240,90025,6,0,P|132:228|168:232,1,75,8|0,0:0|2:0,0:0:0:0:
256,384,90311,1,2,3:0:0:0:
240,192,90454,2,0,L|232:104,1,75,0|0,3:2|2:0,0:0:0:0:
136,316,90740,1,2,3:0:0:0:
348,154,90883,6,0,P|393:185|411:238,1,112.5,2|0,0:2|2:0,0:0:0:0:
424,116,91168,6,0,P|442:180|411:237,1,135.000005149842,0|0,0:0|2:0,0:0:0:0:
512,151,91454,6,0,P|486:220|412:238,1,157.500001502037,2|0,0:2|2:0,0:0:0:0:
256,56,91740,6,2,L|304:52,1,45,8|0,1:0|2:0,0:0:0:0:
160,192,92025,2,0,L|124:189,1,36,0|0,3:0|2:0,0:0:0:0:
388,316,92311,2,2,L|426:313,1,30,0|0,2:0|2:0,0:0:0:0:
284,304,92597,6,2,B|248:332|204:316|204:316|192:336|192:336|160:284|88:288,1,210.000002002716,4|0,0:2|2:0,0:0:0:0:
132,68,93025,6,0,B|140:120|187:136|187:136|204:125|204:125|220:136|243:139|243:139|291:135,1,180.000006866455,0|0,0:0|2:0,0:0:0:0:
48,88,93454,6,0,P|60:128|80:152,1,60,8|2,0:0|3:0,0:0:0:0:
32,272,93740,2,0,P|60:241|71:212,1,60,2|0,3:0|3:0,0:0:0:0:
256,224,94025,2,0,L|184:228,1,60,2|2,3:0|3:2,0:0:0:0:
176,240,94240,1,0,3:0:0:0:
348,280,94311,6,0,P|392:304|436:296,1,75,0|2,0:0|3:3,0:0:0:0:
308,100,94597,2,0,P|264:108|240:128,1,75,2|0,3:0|3:0,0:0:0:0:
412,180,94883,2,0,L|424:92,1,75,8|0,2:0|0:0,0:0:0:0:
412,84,95097,1,0,0:0:0:0:
256,224,95168,6,0,L|268:320,1,75,8|2,0:0|3:0,0:0:0:0:
232,8,95454,1,0,0:0:0:0:
200,156,95597,1,8,0:0:0:0:
308,100,95740,1,8,0:0:0:0:
124,64,95883,1,8,0:0:0:0:
348,319,96025,6,0,B|395:313|407:269|407:269|415:277|427:273|427:273|448:244|444:200|412:180,1,210.000002002716,4|0,0:2|2:0,0:0:0:0:
95,240,96454,6,0,B|128:258|161:244|161:244|175:258|175:258|207:220|263:224,1,180.000006866455,0|0,0:0|2:0,0:0:0:0:
64,152,96883,5,8,0:0:0:0:
64,152,97025,1,2,3:0:0:0:
64,152,97168,1,2,3:0:0:0:
64,152,97311,1,0,3:0:0:0:
64,152,97454,1,2,3:0:0:0:
64,152,97597,1,2,3:0:0:0:
64,152,97740,6,0,B|100:224|32:224|72:312,1,135.000005149842,0|0,0:0|2:0,0:0:0:0:
204,292,98025,2,0,P|180:268|128:264,1,75,2|0,3:0|3:0,0:0:0:0:
284,248,98311,2,0,P|311:267|363:262,1,75,2|0,3:0|3:0,0:0:0:0:
380,352,98597,6,0,P|428:312|424:216,1,157.500001502037,8|0,0:0|2:0,0:0:0:0:
360,124,98883,2,0,L|452:132,1,75,2|0,3:0|3:0,0:0:0:0:
240,160,99168,2,0,L|104:172,1,105.000001001358,8|8,2:0|2:0,0:0:0:0:
264,48,99454,5,0,0:0:0:0:
360,124,99597,1,2,3:2:0:0:
240,160,99740,1,0,3:0:0:0:
372,16,99883,5,0,0:0:0:0:
407,29,99954,1,0,0:0:0:0:
440,57,100025,5,0,0:0:0:0:
462,92,100097,1,0,0:0:0:0:
471,131,100168,5,0,0:0:0:0:
208,312,100311,5,8,0:0:0:0:
84,196,100454,1,0,3:0:0:0:
240,160,100597,1,0,3:0:0:0:
96,308,100740,6,0,L|40:296,1,30,0|0,3:0|2:0,0:0:0:0:
208,312,100883,6,0,L|152:300,1,30,0|0,3:0|2:0,0:0:0:0:
324,312,101025,6,0,L|268:300,1,30,0|0,3:0|2:0,0:0:0:0:
440,244,101168,6,0,P|460:272|464:320,1,75,0|2,0:0|3:0,0:0:0:0:
348,198,101454,2,0,L|360:124,1,75,2|0,3:0|3:0,0:0:0:0:
452,140,101740,1,2,3:0:0:0:
248,244,101883,1,0,0:0:0:0:
248,244,101954,1,0,0:0:0:0:
248,244,102025,6,0,P|188:232|152:256,1,75,8|2,0:0|3:0,0:0:0:0:
96,308,102311,1,2,3:0:0:0:
256,112,102454,6,0,B|136:132|136:132|64:116,1,157.500001502037,8|0,0:0|2:0,0:0:0:0:
256,112,102883,1,4,0:0:0:0:
472,192,116597,6,0,P|440:240|360:232,1,135.000005149842,0|2,1:0|2:0,0:0:0:0:
304,188,117240,1,0,2:0:0:0:
472,68,117454,2,0,L|352:76,1,101.250003862381,8|0,1:0|2:0,0:0:0:0:
344,76,117883,2,0,P|296:68|256:84,1,67.5000025749208,0|0,2:0|2:0,0:0:0:0:
238,191,118311,2,0,P|271:196|304:188,1,67.5000025749208,0|0,1:0|2:0,0:0:0:0:
168,236,118740,2,0,P|192:264|220:275,1,67.5000025749208,2|0,0:0|2:0,0:0:0:0:
168,236,119168,2,0,P|96:232|32:268,1,135.000005149842,8|0,1:0|0:0,0:0:0:0:
0,332,119811,1,0,0:0:0:0:
56,120,120025,6,0,B|156:128|156:128|204:112,1,135.000005149842,0|2,1:0|0:0,0:0:0:0:
144,48,120668,1,0,0:0:0:0:
240,180,120883,2,0,P|292:160|356:176,1,101.250003862381,8|0,1:0|0:0,0:0:0:0:
360,180,121311,2,0,P|396:172|428:136,1,67.5000025749208,0|0,0:0|0:0,0:0:0:0:
405,313,121740,2,0,P|383:287|352:276,1,67.5000025749208,0|0,1:0|0:0,0:0:0:0:
500,212,122168,2,0,P|488:247|504:292,1,67.5000025749208,2|0,0:0|0:0,0:0:0:0:
256,316,122597,2,0,L|120:324,1,135.000005149842,8|0,1:0|0:0,0:0:0:0:
40,328,123240,1,0,0:0:0:0:
208,192,123454,6,0,P|248:224|332:204,1,135.000005149842,0|2,1:0|0:0,0:0:0:0:
276,144,124097,1,0,0:0:0:0:
408,256,124311,2,0,P|412:200|448:144,1,101.250003862381,8|0,1:0|0:0,0:0:0:0:
444,136,124740,2,0,B|432:56,1,67.5000025749208,0|0,0:0|0:0,0:0:0:0:
276,144,125168,2,0,B|288:224,1,67.5000025749208,0|0,1:0|0:0,0:0:0:0:
348,92,125597,2,0,B|336:12,1,67.5000025749208,2|0,0:0|0:0,0:0:0:0:
180,112,126025,2,0,B|196:212|196:212|188:248,1,135.000005149842,8|0,1:0|0:0,0:0:0:0:
116,212,126668,1,0,0:0:0:0:
256,320,126883,6,0,B|328:296|320:352|404:324,1,135.000005149842,0|2,1:0|1:2,0:0:0:0:
368,252,127525,1,0,0:0:0:0:
116,212,127740,2,0,P|116:280|176:324,1,135.000005149842,8|2,1:0|1:2,0:0:0:0:
192,244,128383,1,0,0:0:0:0:
180,104,128597,2,0,L|96:108,1,67.5000025749208,0|0,1:0|1:0,0:0:0:0:
256,164,129025,2,0,L|340:168,1,67.5000025749208,2|0,1:2|1:0,0:0:0:0:
469,218,129454,1,8,1:0:0:0:
442,221,129561,1,0,1:0:0:0:
416,227,129668,1,0,1:0:0:0:
391,238,129775,1,0,1:0:0:0:
368,253,129883,2,0,P|348:272|328:304,3,33.7500012874604,2|0|0|0,1:2|1:0|1:0|1:0,0:0:0:0:
256,164,130311,6,0,P|252:220|220:272,1,101.250003862381,0|0,1:0|0:0,0:0:0:0:
236,264,130740,2,0,P|185:269|149:297,1,67.5000025749208,2|0,0:0|0:0,0:0:0:0:
60,124,131168,2,0,P|108:148|164:132,1,101.250003862381,0|0,1:0|0:0,0:0:0:0:
156,144,131597,2,0,P|180:101|216:81,1,67.5000025749208,2|0,0:0|0:0,0:0:0:0:
420,168,132025,2,0,L|312:172,1,101.250003862381,0|0,1:0|0:0,0:0:0:0:
316,176,132454,2,0,P|269:164|233:176,1,67.5000025749208,2|0,0:0|0:0,0:0:0:0:
278,282,132883,2,0,P|321:305|340:352,1,101.250003862381,0|0,1:0|0:0,0:0:0:0:
336,356,133311,2,0,L|420:364,1,67.5000025749208,2|0,0:0|0:0,0:0:0:0:
144,336,133740,6,0,P|152:288|120:228,1,101.250003862381,0|0,1:0|0:0,0:0:0:0:
128,244,134168,2,0,P|128:192|144:164,1,67.5000025749208,2|0,0:0|0:0,0:0:0:0:
256,84,134597,2,0,P|196:88|152:40,1,101.250003862381,0|0,1:0|0:0,0:0:0:0:
160,68,135025,2,0,P|144:28|148:4,1,67.5000025749208,2|0,0:0|0:0,0:0:0:0:
384,52,135454,2,0,L|396:160,1,101.250003862381,0|0,1:0|0:0,0:0:0:0:
400,156,135883,2,0,P|433:172|452:200,1,67.5000025749208,2|0,0:0|0:0,0:0:0:0:
340,344,136311,2,0,L|352:236,1,101.250003862381,0|0,1:0|0:0,0:0:0:0:
356,248,136740,2,0,P|316:228|300:192,1,67.5000025749208,2|0,0:0|0:0,0:0:0:0:
117,64,137168,6,0,B|153:80|153:80|201:76,1,67.5000025749208,0|0,1:0|0:0,0:0:0:0:
101,152,137597,2,0,L|21:160,1,67.5000025749208,2|0,1:2|0:0,0:0:0:0:
189,164,138025,2,0,L|256:157,1,67.5000025749208,0|0,1:0|0:0,0:0:0:0:
173,252,138454,2,0,B|137:236|137:236|108:238,1,67.5000025749208,2|0,1:2|0:0,0:0:0:0:
256,157,138883,6,0,L|324:164,1,67.5000025749208,0|0,1:0|0:0,0:0:0:0:
479,158,139311,2,0,L|412:152,1,67.5000025749208,2|0,1:2|0:0,0:0:0:0:
340,252,139740,2,0,B|376:236|376:236|404:238,1,67.5000025749208,0|0,1:0|0:0,0:0:0:0:
396,64,140168,2,0,B|360:80|360:80|331:77,1,67.5000025749208,2|0,1:2|0:0,0:0:0:0:
116,64,140597,5,0,1:0:0:0:
184,208,140811,1,2,1:2:0:0:
168,128,141025,1,0,1:2:0:0:
176,288,141240,1,2,1:2:0:0:
197,50,141454,1,0,1:0:0:0:
106,181,141668,1,2,1:2:0:0:
168,128,141883,1,0,1:2:0:0:
33,214,142097,1,2,1:2:0:0:
248,116,142311,5,0,1:0:0:0:
264,137,142418,1,0,1:0:0:0:
285,154,142525,1,2,1:2:0:0:
308,167,142633,1,0,1:0:0:0:
334,175,142740,1,0,1:2:0:0:
361,178,142847,1,0,1:0:0:0:
388,176,142954,1,2,1:2:0:0:
414,168,143061,1,0,1:0:0:0:
440,156,143168,6,0,L|496:160,1,33.7500012874604,8|0,1:0|1:0,0:0:0:0:
440,256,143383,2,0,L|384:260,1,33.7500012874604,8|0,1:0|1:0,0:0:0:0:
260,248,143597,2,0,L|316:252,1,33.7500012874604,8|0,1:0|1:0,0:0:0:0:
260,348,143811,2,0,L|204:352,1,33.7500012874604,8|0,1:0|1:0,0:0:0:0:
120,256,144025,6,0,B|120:240|120:240|100:232|100:232|120:196|120:196|96:164|100:116|100:116|80:152|72:184,1,210.000002002716,4|0,0:0|2:0,0:0:0:0:
48,340,144454,2,0,B|56:340|56:340|56:360|56:360|76:340|76:340|88:347|132:372|204:352|216:256,1,210.000002002716,8|0,0:0|2:0,0:0:0:0:
196,84,144883,5,0,0:0:0:0:
132,152,145025,1,2,3:0:0:0:
224,172,145168,1,2,0:3:0:0:
204,44,145311,5,8,0:0:0:0:
92,164,145454,1,2,0:3:0:0:
256,200,145597,1,2,0:3:0:0:
112,68,145740,6,0,L|84:32,1,30,0|0,0:0|2:0,0:0:0:0:
280,104,145883,2,0,L|313:73,1,30,2|0,3:2|2:0,0:0:0:0:
160,240,146025,2,0,L|152:288,1,30,2|0,3:2|2:0,0:0:0:0:
352,332,146168,6,0,P|368:296|336:212,1,120,8|0,0:0|2:0,0:0:0:0:
352,224,146597,6,0,L|448:204,1,90.0000034332277,0|8,0:0|2:2,0:0:0:0:
216,352,146883,2,0,L|156:340,1,45.0000017166138,8|0,0:2|0:0,0:0:0:0:
88,368,147025,5,8,0:0:0:0:
196,224,147168,1,8,0:2:0:0:
24,280,147311,1,8,0:0:0:0:
212,200,147454,6,2,B|248:220|248:220|280:208|280:208|312:240|364:220,1,153.000002918243,4|0,0:2|2:0,0:0:0:0:
424,196,147740,1,2,3:0:0:0:
308,16,147883,2,0,P|263:11|224:36,1,77.9999964294435,8|2,0:0|3:0,0:0:0:0:
164,108,148168,1,0,3:0:0:0:
296,196,148311,5,0,0:0:0:0:
308,224,148383,1,0,3:0:0:0:
308,256,148454,1,0,3:0:0:0:
296,284,148525,1,0,3:0:0:0:
272,304,148597,2,0,L|216:312,1,38.9999982147218,2|0,0:3|0:0,0:0:0:0:
352,352,148740,5,8,0:0:0:0:
148,272,148883,1,2,0:3:0:0:
322,366,149025,1,2,0:2:0:0:
136,244,149168,6,2,B|104:196|124:132|124:132|152:192,1,153.000002918243,0|0,0:0|2:0,0:0:0:0:
188,72,149454,2,0,P|144:40|96:44,1,102.000001945496,2|8,3:0|0:0,0:0:0:0:
220,156,149740,1,2,3:0:0:0:
332,36,149883,1,0,1:0:0:0:
388,188,150025,5,0,0:0:0:0:
396,212,150097,1,0,0:0:0:0:
400,236,150168,1,0,0:0:0:0:
400,260,150240,1,0,0:0:0:0:
396,284,150311,1,2,0:3:0:0:
216,348,150454,1,8,0:0:0:0:
324,360,150597,5,8,0:2:0:0:
180,252,150740,1,8,0:0:0:0:
336,176,150883,6,0,B|340:172|340:172|336:156|336:156|364:144|364:144|384:96|336:68|336:68|288:92|248:56,1,204.000003890991,0|0,0:0|2:0,0:0:0:0:
84,52,151311,6,0,B|100:56|100:56|124:36|144:32|144:32|172:48,1,90.0000034332277,4|0,0:2|2:0,0:0:0:0:
248,152,151740,6,0,B|276:208|248:280|248:280|208:240,1,162.000000617981,8|0,0:0|3:0,0:0:0:0:
84,52,152168,2,0,P|73:104|96:148,1,81.0000003089905,2|0,3:0|3:0,0:0:0:0:
152,208,152454,1,2,3:0:0:0:
192,56,152597,6,0,L|244:44,1,40.5000001544952,0|0,0:0|2:0,0:0:0:0:
324,120,152740,2,0,L|312:172,1,40.5000001544952,2|0,3:2|2:0,0:0:0:0:
388,28,152883,2,0,L|440:16,1,40.5000001544952,2|0,3:2|2:0,0:0:0:0:
508,88,153025,6,0,P|471:116|416:104,1,90.0000034332277,2|0,0:2|2:0,0:0:0:0:
388,28,153454,5,8,0:0:0:0:
376,208,153597,2,0,L|400:304,1,90.0000034332277,8|8,2:2|0:2,0:0:0:0:
228,364,153883,5,8,0:0:0:0:
256,256,154025,1,8,0:2:0:0:
332,340,154168,1,8,0:0:0:0:
156,280,154311,6,2,B|136:288|120:264|120:264|96:292|96:292|40:304|24:248,1,153.000002918243,4|0,0:2|2:0,0:0:0:0:
32,268,154597,1,2,2:3:0:0:
104,44,154740,6,0,L|116:136,1,77.9999964294435,8|2,0:0|3:3,0:0:0:0:
188,176,155025,1,0,3:0:0:0:
336,28,155168,5,0,0:0:0:0:
348,48,155240,1,0,3:0:0:0:
352,72,155311,1,0,3:0:0:0:
352,96,155383,1,0,3:0:0:0:
340,128,155454,5,0,0:0:0:0:
312,148,155525,1,0,0:0:0:0:
276,152,155597,1,8,0:0:0:0:
376,332,155740,1,2,0:3:0:0:
400,240,155883,1,8,0:0:0:0:
284,360,156025,6,2,B|256:368|256:368|228:356|228:356|164:384|116:332,1,153.000002918243,0|0,0:0|2:0,0:0:0:0:
80,296,156311,1,2,3:0:0:0:
248,256,156454,6,0,P|288:212|288:164,1,77.9999964294435,8|2,0:0|3:0,0:0:0:0:
84,32,156740,2,0,L|100:80,1,38.9999982147218,0|0,0:0|0:0,0:0:0:0:
132,180,156883,6,0,P|172:168|200:120,1,77.9999964294435,8|0,0:0|0:0,0:0:0:0:
256,32,157168,6,0,P|304:76|304:148,1,102.000001945496,8|0,0:0|3:0,0:0:0:0:
368,240,157454,6,0,P|420:204|432:100,1,120,8|0,0:0|2:0,0:0:0:0:
228,192,157740,6,0,B|220:224|220:224|240:296,1,90.0000034332277,0|0,2:0|2:0,0:0:0:0:
304,326,158168,6,0,B|284:366|212:386|164:330|164:330|156:300|136:272,1,210.000002002716,4|0,0:0|2:0,0:0:0:0:
357,124,158597,2,0,L|365:216,1,90,8|0,0:0|2:0,0:0:0:0:
368,240,158883,1,0,3:0:0:0:
416,340,159025,5,2,3:0:0:0:
303,326,159168,1,0,3:0:0:0:
191,308,159311,1,2,3:0:0:0:
48,344,159454,5,0,0:0:0:0:
44,352,159597,1,2,3:2:0:0:
40,360,159740,1,2,3:2:0:0:
48,144,159883,6,0,P|108:116|164:120,1,120,2|0,3:2|0:0,0:0:0:0:
264,192,160311,6,0,L|280:248,1,45.0000017166138,8|0,0:0|2:0,0:0:0:0:
303,326,160454,1,8,2:0:0:0:
376,212,160597,1,8,2:0:0:0:
184,276,160740,5,2,3:0:0:0:
328,340,160883,1,8,2:0:0:0:
256,112,161025,1,8,2:0:0:0:
400,176,161168,6,2,B|428:96|428:96|420:78|416:56,1,120,4|2,0:2|3:0,0:0:0:0:
256,112,161597,5,8,0:0:0:0:
292,224,161740,1,2,3:0:0:0:
328,340,161883,1,0,3:0:0:0:
240,104,162025,1,0,0:0:0:0:
244,88,162097,1,0,3:0:0:0:
248,76,162168,1,0,3:0:0:0:
116,160,162311,1,2,0:3:0:0:
292,224,162454,5,8,0:0:0:0:
144,348,162597,1,2,0:3:0:0:
116,160,162740,1,0,0:0:0:0:
248,328,162883,6,2,B|328:340|328:340|352:332|380:324,1,120,0|2,0:0|3:0,0:0:0:0:
480,292,163311,5,8,0:0:0:0:
484,160,163454,1,2,3:0:0:0:
364,120,163597,1,0,0:0:0:0:
292,224,163740,1,8,0:0:0:0:
268,225,163811,1,0,0:0:0:0:
244,224,163883,1,0,0:0:0:0:
221,213,163954,1,0,0:0:0:0:
201,198,164025,1,2,0:3:0:0:
92,72,164168,5,8,0:0:0:0:
256,104,164311,1,8,0:2:0:0:
76,88,164454,1,8,0:0:0:0:
320,40,164597,6,2,P|416:44|436:176,1,247.500009441376,0|0,1:0|0:0,0:0:0:0:
424,188,165454,5,8,0:0:0:0:
408,264,165597,1,0,3:0:0:0:
392,340,165740,1,0,3:0:0:0:
392,340,165883,5,0,3:0:0:0:
291,356,166025,1,0,3:0:0:0:
188,368,166168,1,0,3:0:0:0:
188,368,166311,6,0,L|168:304,1,60,0|0,0:0|2:0,0:0:0:0:
80,216,166454,1,0,3:0:0:0:
92,192,166525,1,0,3:0:0:0:
100,172,166597,1,2,3:0:0:0:
172,228,166740,5,0,3:0:0:0:
60,96,166883,1,0,3:0:0:0:
4,260,167025,1,0,3:0:0:0:
256,252,167168,6,0,B|306:242|332:200|332:200|360:200|382:185|382:185|444:183|475:234,1,247.500009441376,8|0,1:0|0:0,0:0:0:0:
479,241,168025,6,2,B|528:158|471:93|471:93|456:112|423:117,1,210.000002002716,4|2,0:2|3:0,0:0:0:0:
392,292,168454,5,8,0:0:0:0:
312,88,168597,1,2,3:0:0:0:
256,252,168740,1,0,3:0:0:0:
483,133,168883,5,0,0:0:0:0:
452,125,168954,1,0,0:0:0:0:
420,124,169025,1,0,0:0:0:0:
388,130,169097,1,0,0:0:0:0:
361,146,169168,1,2,0:3:0:0:
337,167,169240,1,0,0:0:0:0:
323,195,169311,5,8,0:0:0:0:
472,328,169454,1,0,0:0:0:0:
256,336,169597,2,0,L|200:320,1,52.500000500679,0|0,0:0|2:0,0:0:0:0:
64,336,169740,6,2,P|24:292|24:216,1,120,0|2,0:0|3:0,0:0:0:0:
140,20,170168,5,8,0:0:0:0:
123,137,170311,1,2,3:0:0:0:
108,256,170454,1,0,0:0:0:0:
120,272,170525,1,0,0:0:0:0:
132,288,170597,6,0,L|128:224,1,60,8|0,0:0|2:0,0:0:0:0:
124,136,170740,1,0,0:0:0:0:
224,324,170883,6,0,L|220:260,1,60,8|0,0:0|2:0,0:0:0:0:
216,172,171025,1,0,0:0:0:0:
316,352,171168,6,0,L|312:288,1,60,8|0,0:0|2:0,0:0:0:0:
308,200,171311,1,0,0:0:0:0:
408,380,171454,6,0,B|436:344|432:304|432:304|408:264|408:264|436:228|416:192,1,204.000003890991,4|0,0:0|2:0,0:0:0:0:
360,16,171883,6,0,B|324:36|324:36|332:52|332:52|272:84|292:156,1,180.000006866455,4|0,0:2|2:0,0:0:0:0:
256,312,172311,6,0,B|228:284|228:284|216:244,1,75,8|2,0:0|3:0,0:0:0:0:
180,76,172597,1,2,3:0:0:0:
60,240,172740,2,0,B|68:201|68:201|96:170,1,75,0|2,3:0|3:0,0:0:0:0:
180,76,173025,1,2,3:0:0:0:
284,152,173168,6,0,B|320:172|320:172|336:160|336:160|392:168|392:168|428:152|456:156,1,170.999995433807,2|0,0:2|2:0,0:0:0:0:
224,200,173454,6,0,B|248:233|248:233|267:229|267:229|315:260|315:260|354:260|378:276,1,170.999995433807,0|0,0:0|2:0,0:0:0:0:
149,218,173740,6,0,B|156:258|156:258|176:262|176:262|206:311|206:311|241:328|256:352,1,170.999995433807,2|0,0:2|2:0,0:0:0:0:
60,240,174025,6,2,B|36:192|44:152|44:152|64:128|64:128|56:108|56:108|76:96|76:96|80:56,1,197.99999395752,8|0,1:0|0:0,0:0:0:0:
209,45,174883,6,2,B|236:72|236:72|332:28|368:44|384:72,1,192,4|0,0:2|2:0,0:0:0:0:
456,200,175311,2,2,B|429:226|429:226|333:182|297:198|281:226,1,192,8|0,0:0|2:0,0:0:0:0:
96,332,175740,6,0,L|188:320,1,75,0|2,0:0|3:0,0:0:0:0:
376,304,176025,1,2,3:0:0:0:
211,228,176168,2,0,L|286:219,1,75,8|2,0:0|3:0,0:0:0:0:
416,100,176454,1,2,3:2:0:0:
392,104,176525,1,0,3:2:0:0:
368,108,176597,6,0,B|327:114|327:114|292:105,1,75,0|2,0:0|3:0,0:0:0:0:
136,48,176883,1,2,3:0:0:0:
104,248,177025,2,0,B|88:212|88:212|88:168,1,75,8|8,0:0|2:0,0:0:0:0:
216,312,177311,1,0,3:0:0:0:
236,300,177383,1,0,3:0:0:0:
268,288,177454,6,0,L|308:284,1,37.5,0|0,0:0|2:0,0:0:0:0:
384,188,177597,2,0,L|346:191,1,37.5,2|0,0:3|2:0,0:0:0:0:
248,116,177740,2,0,L|288:112,1,37.5,2|0,0:3|2:0,0:0:0:0:
376,32,177883,5,8,0:0:0:0:
260,192,178025,1,2,0:3:0:0:
136,48,178168,1,0,0:0:0:0:
65,198,178311,6,0,B|44:247|44:247|77:287|77:287|140:255|140:255|169:297|150:350,1,262.500002503395,4|0,0:2|2:0,0:0:0:0:
65,198,178740,6,0,B|105:161|105:161|159:164|159:164|213:136|213:136|186:92|219:42,1,262.500002503395,0|0,0:0|2:0,0:0:0:0:
308,99,179168,5,8,0:0:0:0:
432,160,179311,1,2,3:0:0:0:
308,248,179454,1,2,3:0:0:0:
424,28,179597,5,8,0:0:0:0:
308,99,179740,1,8,0:0:0:0:
188,159,179883,1,8,0:0:0:0:
88,36,180025,6,0,B|64:44|64:44|68:60|68:60|20:112|64:192,1,157.500001502037,0|0,0:0|2:0,0:0:0:0:
224,240,180311,2,0,B|208:216|208:216|224:196|224:196|192:136|112:152,1,167.999994873047,2|0,0:2|3:0,0:0:0:0:
308,248,180740,1,0,0:0:0:0:
308,99,180883,6,2,B|328:44|328:44|388:92|388:92|412:60|468:60|488:92,1,247.500009441376,8|0,1:0|0:0,0:0:0:0:
452,188,181740,6,2,B|460:208|460:208|432:236|432:236|468:284|452:336,1,167.999994873047,4|0,0:2|2:0,0:0:0:0:
308,100,182168,6,2,B|300:120|300:120|328:148|328:148|292:196|308:248,1,167.999994873047,8|0,0:0|2:0,0:0:0:0:
156,56,182597,6,0,P|120:108|116:152,1,83.9999974365235,0|2,0:0|3:0,0:0:0:0:
164,312,182883,1,2,3:3:0:0:
76,208,183025,2,0,B|44:184|44:184|-8:176,1,83.9999974365235,8|2,0:0|3:0,0:0:0:0:
200,200,183311,1,2,3:2:0:0:
236,208,183383,1,0,3:0:0:0:
272,216,183454,6,0,L|380:243,1,83.9999974365235,0|2,0:0|3:0,0:0:0:0:
488,352,183740,1,2,3:0:0:0:
452,188,183883,2,0,B|436:148|436:148|440:96,1,83.9999974365235,8|8,0:0|2:0,0:0:0:0:
240,48,184168,1,0,0:0:0:0:
220,68,184240,1,0,0:0:0:0:
200,88,184311,6,0,B|168:120|168:148|168:148|184:176,1,99.0000009441376,8|0,0:0|0:0,0:0:0:0:
374,195,184597,2,0,B|362:151|338:137|338:137|305:137,1,99.0000009441376,8|0,0:0|0:0,0:0:0:0:
156,276,184883,2,0,B|200:288|224:274|224:274|241:246,1,99.0000009441376,8|0,0:0|0:0,0:0:0:0:
140,180,185168,6,0,B|84:192|76:268|144:296|156:276|156:276|132:280|105:321|120:376|120:376|88:344,1,300,4|0,0:0|2:0,0:0:0:0:
80,328,186025,6,0,L|212:340,1,120,8|2,0:0|3:0,0:0:0:0:
472,320,186454,2,0,L|340:308,1,120,0|2,3:0|3:0,0:0:0:0:
216,249,186883,6,0,P|238:188|306:167,1,135.000005149842,2|0,0:2|2:0,0:0:0:0:
296,244,187168,6,0,B|301:176|301:176|292:143|292:143|298:75,1,157.500001502037,0|0,0:0|2:0,0:0:0:0:
347,1,187454,6,0,B|335:141|335:141|303:97,1,180,2|0,0:2|2:0,0:0:0:0:
297,88,187740,6,0,L|440:100,1,135.000005149842,8|0,0:0|2:0,0:0:0:0:
456,116,188025,5,0,3:0:0:0:
326,226,188311,2,2,P|307:249|307:289,1,60,0|0,2:0|2:0,0:0:0:0:
432,348,188597,6,2,P|470:262|386:290,1,225.000008583069,4|0,0:2|2:0,0:0:0:0:
338,350,189025,6,0,P|262:374|178:290,1,187.5,8|0,0:0|2:0,0:0:0:0:
52,220,189454,5,0,0:0:0:0:
196,276,189597,1,2,3:0:0:0:
28,344,189740,1,2,3:0:0:0:
140,200,189883,2,0,L|120:124,1,60,8|2,0:0|3:0,0:0:0:0:
40,132,190168,5,0,3:0:0:0:
112,292,190311,1,0,0:0:0:0:
168,68,190454,1,2,3:0:0:0:
234,118,190597,1,2,0:3:0:0:
242,130,190668,1,0,0:0:0:0:
225,160,190740,5,8,0:0:0:0:
236,16,190883,1,8,0:2:0:0:
364,84,191025,1,0,0:0:0:0:
308,224,191168,2,0,L|324:148,1,60,0|2,0:0|0:3,0:0:0:0:
460,32,191454,1,2,0:3:0:0:
468,44,191525,1,0,0:0:0:0:
451,74,191597,5,8,0:0:0:0:
449,315,191740,5,8,0:0:0:0:
428,152,191883,1,8,0:0:0:0:
256,216,192025,6,0,P|216:272|280:364,1,187.5,4|0,0:2|2:0,0:0:0:0:
476,320,192454,6,0,B|444:312|412:314|412:314|364:292|364:292|328:300|294:284,1,187.5,0|0,0:0|2:0,0:0:0:0:
128,240,192883,6,0,L|79:248,1,37.5,8|0,0:0|2:0,0:0:0:0:
233,132,193025,2,0,L|240:92,1,37.5,2|0,3:0|2:0,0:0:0:0:
280,280,193168,2,0,L|304:308,1,37.5,2|0,3:0|2:0,0:0:0:0:
148,154,193311,2,0,L|123:125,1,37.5,0|0,3:0|2:0,0:0:0:0:
300,192,193454,2,0,L|336:185,1,37.5,2|0,3:0|2:0,0:0:0:0:
196,304,193597,2,0,L|190:342,1,37.5,2|0,3:0|2:0,0:0:0:0:
214,217,193740,6,0,L|238:49,1,135.000005149842,0|0,0:0|2:0,0:0:0:0:
316,96,194025,1,2,3:0:0:0:
136,172,194168,1,0,3:0:0:0:
300,192,194311,1,2,3:0:0:0:
152,76,194454,1,0,0:0:0:0:
320,200,194597,6,0,P|352:212|392:284,1,112.5,8|0,0:0|2:0,0:0:0:0:
419,321,194883,6,0,B|422:292|391:276|391:276|388:352|304:368,1,180,2|0,3:0|2:0,0:0:0:0:
100,324,195168,1,8,2:0:0:0:
306,281,195311,1,8,2:0:0:0:
216,292,195454,6,0,L|187:295,1,30,0|0,0:0|2:0,0:0:0:0:
44,248,195597,6,0,L|76:244,1,30,2|0,0:2|2:0,0:0:0:0:
198,156,195740,6,0,L|169:159,1,30,0|0,0:0|2:0,0:0:0:0:
37,97,195883,5,0,0:0:0:0:
59,68,195954,1,0,0:0:0:0:
116,80,196025,5,0,0:0:0:0:
136,50,196097,1,0,0:0:0:0:
195,59,196168,5,0,0:0:0:0:
310,101,196311,6,0,L|280:104,1,30,8|0,0:0|2:0,0:0:0:0:
437,150,196454,6,0,L|468:147,1,30,8|0,0:0|2:0,0:0:0:0:
334,241,196597,6,0,L|302:246,1,30,8|0,0:0|2:0,0:0:0:0:
448,304,196740,5,8,0:0:0:0:
426,333,196811,1,0,0:0:0:0:
369,321,196883,5,8,0:0:0:0:
349,351,196954,1,0,0:0:0:0:
290,342,197025,5,8,0:0:0:0:
204,244,197168,2,0,L|184:168,1,60,0|2,0:0|3:0,0:0:0:0:
248,132,197454,1,2,3:0:0:0:
169,324,197597,1,0,3:0:0:0:
328,260,197740,1,2,3:0:0:0:
180,236,197883,5,0,0:0:0:0:
164,228,197954,1,0,0:0:0:0:
148,220,198025,2,0,L|128:144,1,75,8|0,0:0|0:0,0:0:0:0:
216,160,198311,6,0,L|191:67,1,90.0000034332277,8|0,0:0|0:0,0:0:0:0:
288,112,198597,6,0,L|259:4,1,105.000001001358,8|0,0:0|0:0,0:0:0:0:
368,136,198883,5,4,0:1:0:0:
256,192,198954,12,0,202311,0:0:0:0:
